Tags
Language
Tags

Django Reinhardt - The Classic Early Recordings [Recorded 1934-1939, 5CD Box Set] (2008)

Posted By: gribovar
Django Reinhardt - The Classic Early Recordings [Recorded 1934-1939, 5CD Box Set] (2008)

Django Reinhardt - The Classic Early Recordings [Recorded 1934-1939, 5CD Box Set] (2008)
EAC Rip | FLAC (tracks+.cue+log) - 1,06 GB | Covers - 67 MB
Genre: Gypsy Jazz, Swing | RAR 3% Rec. | Label: JSP Records (JSP901)

This five-disc box collects Reinhardt's first 124 recordings between 1934-1939. Curiously enough, these sides aren't chronological. Rather, while each disc's featured sessions are presented mostly chronologically, the discs themselves are rather awkwardly sequenced, with different discs covering different years in a seemingly random order. That doesn't really detract from the set's appeal, however, as this music is terrific no matter how it's presented. If there is a flaw, it's that the remastering isn't nearly as superb as the fawning front-cover quotation would lead one to believe. To his credit, however, Kendall admits that he has attempted no "enhancement" of the sound, but has instead concentrated on clearing away much of the audio rubble. His work is, in fact, generally excellent - especially on the later sides, many of which are virtually devoid of hiss. And much care has been taken to present this music in the best possible light - the scattered liner notes are enthusiastically written and there are some real treasures unearthed along the way, from unissued second takes to tracks that have been issued for the first time at their correct pitch. All in all, Kendall deserves kudos for his meticulous attention to detail.

Django Reinhardt - The Classic Early Recordings [Recorded 1934-1939, 5CD Box Set] (2008)

CD 1: The First QHCF Recordings 1934-35 Featuring Stephane Grapelly
EAC Rip | FLAC (tracks+.cue+log) - 242 MB
Genre: Gypsy Jazz, Swing | RAR 3% Rec. | Label: JSP Records (JSP901A)

Tracklist:
01. I Saw Stars (2:50)
02. I'm Confessin' (2:55)
03. Dinah (2:38)
04. Tiger Rag (2:37)
05. Oh Lady Be Good (2:56)
06. I Saw Stars (2:34)
07. Lily Belle May June (3:39)
08. Sweet Sue, Just You (2:57)
09. I'm Confessin' (2:59)
10. The Continental (2:42)
11. Blue Drag (2:56)
12. Swanee River (3:06)
13. The Sunshine Of Your Smile (2:57)
14. Ultrafox (3:23)
15. Avalon (2:56)
16. Smoke Rings (2:55)
17. Clouds (3:18)
18. Believe It, Beloved (3:16)
19. I've Found A New Baby (2:45)
20. St. Louis Blues (3:05)
21. Crazy Rhythm (2:36)
22. The Sheik Of Araby (2:41)
23. Chasing Shadows (3:02)
24. I've Had My Moments (3:01)
25. Some Of These Days (2:27)
26. Djangology (2:57)

Total time: 01:16:07

Exact Audio Copy V1.0 beta 1 from 15. November 2010

EAC extraction logfile from 15. March 2011, 20:00

Django Reinhardt / The Classic Early Recordings - Disc A

Used drive : LITE-ON CD-RW SOHR-5238S Adapter: 6 ID: 3

Read mode : Secure
Utilize accurate stream : Yes
Defeat audio cache : Yes
Make use of C2 pointers : No

Read offset correction : 6
Overread into Lead-In and Lead-Out : No
Fill up missing offset samples with silence : Yes
Delete leading and trailing silent blocks : No
Null samples used in CRC calculations : Yes
Used interface : Installed external ASPI interface
Gap handling : Appended to previous track

Used output format : Internal WAV Routines
Sample format : 44.100 Hz; 16 Bit; Stereo


TOC of the extracted CD

Track | Start | Length | Start sector | End sector
––––––––––––––––––––––––––––-
1 | 0:00.00 | 2:49.65 | 0 | 12739
2 | 2:49.65 | 2:54.70 | 12740 | 25859
3 | 5:44.60 | 2:38.00 | 25860 | 37709
4 | 8:22.60 | 2:36.62 | 37710 | 49471
5 | 10:59.47 | 2:55.55 | 49472 | 62651
6 | 13:55.27 | 2:33.53 | 62652 | 74179
7 | 16:29.05 | 3:39.07 | 74180 | 90611
8 | 20:08.12 | 2:57.05 | 90612 | 103891
9 | 23:05.17 | 2:58.45 | 103892 | 117286
10 | 26:03.62 | 2:41.63 | 117287 | 129424
11 | 28:45.50 | 2:56.20 | 129425 | 142644
12 | 31:41.70 | 3:05.60 | 142645 | 156579
13 | 34:47.55 | 2:56.55 | 156580 | 169834
14 | 37:44.35 | 3:23.37 | 169835 | 185096
15 | 41:07.72 | 2:56.13 | 185097 | 198309
16 | 44:04.10 | 2:54.62 | 198310 | 211421
17 | 46:58.72 | 3:18.25 | 211422 | 226296
18 | 50:17.22 | 3:15.68 | 226297 | 240989
19 | 53:33.15 | 2:45.05 | 240990 | 253369
20 | 56:18.20 | 3:05.35 | 253370 | 267279
21 | 59:23.55 | 2:36.12 | 267280 | 278991
22 | 61:59.67 | 2:40.53 | 278992 | 291044
23 | 64:40.45 | 3:01.45 | 291045 | 304664
24 | 67:42.15 | 3:01.22 | 304665 | 318261
25 | 70:43.37 | 2:26.48 | 318262 | 329259
26 | 73:10.10 | 2:56.45 | 329260 | 342504


Track 1

Filename F:\eac\Django Reinhardt\Disc A\01 - I Saw Stars.wav

Pre-gap length 0:00:02.00

Peak level 54.0 %
Extraction speed 5.5 X
Track quality 100.0 %
Test CRC 189C2CAC
Copy CRC 189C2CAC
Accurately ripped (confidence 7) [0AD33E4D]
Copy OK

Track 2

Filename F:\eac\Django Reinhardt\Disc A\02 - I'm Confessin'.wav

Pre-gap length 0:00:03.74

Peak level 44.5 %
Extraction speed 5.8 X
Track quality 100.0 %
Test CRC 2693CEFC
Copy CRC 2693CEFC
Accurately ripped (confidence 7) [E919EA76]
Copy OK

Track 3

Filename F:\eac\Django Reinhardt\Disc A\03 - Dinah.wav

Pre-gap length 0:00:04.00

Peak level 69.3 %
Extraction speed 6.2 X
Track quality 100.0 %
Test CRC 8340C25D
Copy CRC 8340C25D
Accurately ripped (confidence 7) [8DB5738C]
Copy OK

Track 4

Filename F:\eac\Django Reinhardt\Disc A\04 - Tiger Rag.wav

Pre-gap length 0:00:04.00

Peak level 46.6 %
Extraction speed 6.5 X
Track quality 100.0 %
Test CRC 3ACAD75F
Copy CRC 3ACAD75F
Accurately ripped (confidence 7) [6C1F9F04]
Copy OK

Track 5

Filename F:\eac\Django Reinhardt\Disc A\05 - Oh Lady Be Good.wav

Pre-gap length 0:00:03.74

Peak level 58.7 %
Extraction speed 6.8 X
Track quality 100.0 %
Test CRC 3B90762A
Copy CRC 3B90762A
Accurately ripped (confidence 7) [F504D02D]
Copy OK

Track 6

Filename F:\eac\Django Reinhardt\Disc A\06 - I Saw Stars.wav

Pre-gap length 0:00:04.00

Peak level 61.3 %
Extraction speed 7.0 X
Track quality 100.0 %
Test CRC 664E85A9
Copy CRC 664E85A9
Accurately ripped (confidence 7) [E690181D]
Copy OK

Track 7

Filename F:\eac\Django Reinhardt\Disc A\07 - Lily Belle May June.wav

Pre-gap length 0:00:03.74

Peak level 57.9 %
Extraction speed 7.8 X
Track quality 100.0 %
Test CRC 3EAE8AF3
Copy CRC 3EAE8AF3
Accurately ripped (confidence 7) [6E5F8467]
Copy OK

Track 8

Filename F:\eac\Django Reinhardt\Disc A\08 - Sweet Sue, Just You.wav

Pre-gap length 0:00:04.00

Peak level 58.6 %
Extraction speed 7.8 X
Track quality 100.0 %
Test CRC D441B565
Copy CRC D441B565
Accurately ripped (confidence 7) [2FE275B4]
Copy OK

Track 9

Filename F:\eac\Django Reinhardt\Disc A\09 - I'm Confessin'.wav

Pre-gap length 0:00:03.74

Peak level 85.9 %
Extraction speed 8.3 X
Track quality 100.0 %
Test CRC EF30B413
Copy CRC EF30B413
Accurately ripped (confidence 7) [5EF8DC53]
Copy OK

Track 10

Filename F:\eac\Django Reinhardt\Disc A\10 - The Continental.wav

Pre-gap length 0:00:03.74

Peak level 41.0 %
Extraction speed 8.2 X
Track quality 100.0 %
Test CRC 0C041921
Copy CRC 0C041921
Accurately ripped (confidence 7) [D8DE2E2E]
Copy OK

Track 11

Filename F:\eac\Django Reinhardt\Disc A\11 - Blue Drag.wav

Pre-gap length 0:00:03.74

Peak level 65.7 %
Extraction speed 8.6 X
Track quality 100.0 %
Test CRC EEEA6783
Copy CRC EEEA6783
Accurately ripped (confidence 7) [A3E854A7]
Copy OK

Track 12

Filename F:\eac\Django Reinhardt\Disc A\12 - Swanee River.wav

Pre-gap length 0:00:04.00

Peak level 60.6 %
Extraction speed 9.0 X
Track quality 100.0 %
Test CRC A0FDC67F
Copy CRC A0FDC67F
Accurately ripped (confidence 7) [8B0FC550]
Copy OK

Track 13

Filename F:\eac\Django Reinhardt\Disc A\13 - The Sunshine Of Your Smile.wav

Pre-gap length 0:00:04.00

Peak level 66.2 %
Extraction speed 9.2 X
Track quality 100.0 %
Test CRC EDD31AAE
Copy CRC EDD31AAE
Accurately ripped (confidence 7) [0D2C6B54]
Copy OK

Track 14

Filename F:\eac\Django Reinhardt\Disc A\14 - Ultrafox.wav

Pre-gap length 0:00:03.74

Peak level 60.0 %
Extraction speed 9.6 X
Track quality 100.0 %
Test CRC 4F09AC64
Copy CRC 4F09AC64
Accurately ripped (confidence 7) [1437202E]
Copy OK

Track 15

Filename F:\eac\Django Reinhardt\Disc A\15 - Avalon.wav

Pre-gap length 0:00:04.00

Peak level 66.8 %
Extraction speed 9.5 X
Track quality 100.0 %
Test CRC 44C7C912
Copy CRC 44C7C912
Accurately ripped (confidence 7) [CE5BD521]
Copy OK

Track 16

Filename F:\eac\Django Reinhardt\Disc A\16 - Smoke Rings.wav

Pre-gap length 0:00:04.00

Peak level 73.6 %
Extraction speed 9.7 X
Track quality 100.0 %
Test CRC 83710F23
Copy CRC 83710F23
Accurately ripped (confidence 7) [CA921BFD]
Copy OK

Track 17

Filename F:\eac\Django Reinhardt\Disc A\17 - Clouds.wav

Pre-gap length 0:00:04.00

Peak level 59.5 %
Extraction speed 10.3 X
Track quality 100.0 %
Test CRC 987CB3B6
Copy CRC 987CB3B6
Accurately ripped (confidence 7) [D4CF86D4]
Copy OK

Track 18

Filename F:\eac\Django Reinhardt\Disc A\18 - Believe It, Beloved.wav

Pre-gap length 0:00:04.00

Peak level 37.8 %
Extraction speed 9.0 X
Track quality 99.9 %
Test CRC 18C6B014
Copy CRC 18C6B014
Accurately ripped (confidence 7) [19F5742C]
Copy OK

Track 19

Filename F:\eac\Django Reinhardt\Disc A\19 - I've Found A New Baby.wav

Pre-gap length 0:00:04.00

Peak level 62.3 %
Extraction speed 10.2 X
Track quality 100.0 %
Test CRC 365ED3EE
Copy CRC 365ED3EE
Accurately ripped (confidence 7) [570F3657]
Copy OK

Track 20

Filename F:\eac\Django Reinhardt\Disc A\20 - St. Louis Blues.wav

Pre-gap length 0:00:03.74

Peak level 71.0 %
Extraction speed 10.7 X
Track quality 100.0 %
Test CRC E339680D
Copy CRC E339680D
Accurately ripped (confidence 7) [E00ACFA2]
Copy OK

Track 21

Filename F:\eac\Django Reinhardt\Disc A\21 - Crazy Rhythm.wav

Pre-gap length 0:00:04.00

Peak level 66.3 %
Extraction speed 10.5 X
Track quality 100.0 %
Test CRC F053340A
Copy CRC F053340A
Accurately ripped (confidence 7) [81A238FE]
Copy OK

Track 22

Filename F:\eac\Django Reinhardt\Disc A\22 - The Sheik Of Araby.wav

Pre-gap length 0:00:04.00

Peak level 48.8 %
Extraction speed 9.0 X
Track quality 99.9 %
Test CRC 84F4389C
Copy CRC 84F4389C
Accurately ripped (confidence 7) [3BB8EE46]
Copy OK

Track 23

Filename F:\eac\Django Reinhardt\Disc A\23 - Chasing Shadows.wav

Pre-gap length 0:00:04.00

Peak level 64.7 %
Extraction speed 11.1 X
Track quality 100.0 %
Test CRC 84C2B153
Copy CRC 84C2B153
Accurately ripped (confidence 7) [0AE3A7B4]
Copy OK

Track 24

Filename F:\eac\Django Reinhardt\Disc A\24 - I've Had My Moments.wav

Pre-gap length 0:00:04.00

Peak level 64.8 %
Extraction speed 9.7 X
Track quality 99.9 %
Test CRC 69EEF8B6
Copy CRC 69EEF8B6
Accurately ripped (confidence 7) [4A9A2809]
Copy OK

Track 25

Filename F:\eac\Django Reinhardt\Disc A\25 - Some Of These Days.wav

Pre-gap length 0:00:04.00

Peak level 55.7 %
Extraction speed 10.9 X
Track quality 100.0 %
Test CRC 4811DEF9
Copy CRC 4811DEF9
Accurately ripped (confidence 7) [C1907ECC]
Copy OK

Track 26

Filename F:\eac\Django Reinhardt\Disc A\26 - Djangology.wav

Pre-gap length 0:00:04.00

Peak level 70.8 %
Extraction speed 11.4 X
Track quality 100.0 %
Test CRC 35A8B833
Copy CRC 35A8B833
Accurately ripped (confidence 7) [3FBCF485]
Copy OK


All tracks accurately ripped

No errors occurred

End of status report

==== Log checksum BA2AB6191C96F3B3400239335B407847D336FE72B135C84875304E51731F75CA ====

[CUETools log; Date: 15.06.2019 0:43:42; Version: 2.1.4]
[CTDB TOCID: UAwWiQHizwKG4IMWwLeWtoQLKcU-] found.
Track | CTDB Status
1 | (13/13) Accurately ripped
2 | (13/13) Accurately ripped
3 | (13/13) Accurately ripped
4 | (13/13) Accurately ripped
5 | (13/13) Accurately ripped
6 | (13/13) Accurately ripped
7 | (13/13) Accurately ripped
8 | (13/13) Accurately ripped
9 | (13/13) Accurately ripped
10 | (13/13) Accurately ripped
11 | (13/13) Accurately ripped
12 | (13/13) Accurately ripped
13 | (13/13) Accurately ripped
14 | (13/13) Accurately ripped
15 | (13/13) Accurately ripped
16 | (13/13) Accurately ripped
17 | (13/13) Accurately ripped
18 | (13/13) Accurately ripped
19 | (13/13) Accurately ripped
20 | (13/13) Accurately ripped
21 | (13/13) Accurately ripped
22 | (13/13) Accurately ripped
23 | (13/13) Accurately ripped
24 | (13/13) Accurately ripped
25 | (13/13) Accurately ripped
26 | (13/13) Accurately ripped
[AccurateRip ID: 00468061-0528d765-7a11d61a] found.
Track [ CRC | V2 ] Status
01 [0ad33e4d|b75dc7b4] (07+08/15) Accurately ripped
02 [e919ea76|31875653] (07+08/15) Accurately ripped
03 [8db5738c|b12cff0f] (07+08/15) Accurately ripped
04 [6c1f9f04|f601750e] (07+08/15) Accurately ripped
05 [f504d02d|966f3ef7] (07+08/15) Accurately ripped
06 [e690181d|d699805e] (07+08/15) Accurately ripped
07 [6e5f8467|fa4e0694] (07+08/15) Accurately ripped
08 [2fe275b4|21a563ca] (07+08/15) Accurately ripped
09 [5ef8dc53|4037fc9f] (07+08/15) Accurately ripped
10 [d8de2e2e|568b5319] (07+08/15) Accurately ripped
11 [a3e854a7|2de41fed] (07+08/15) Accurately ripped
12 [8b0fc550|48fa4eb0] (07+08/15) Accurately ripped
13 [0d2c6b54|22b8f2bb] (07+08/15) Accurately ripped
14 [1437202e|22c468e0] (07+08/15) Accurately ripped
15 [ce5bd521|31736b9d] (07+08/15) Accurately ripped
16 [ca921bfd|6eb5eb2b] (07+08/15) Accurately ripped
17 [d4cf86d4|e36f1cbf] (07+08/15) Accurately ripped
18 [19f5742c|61875d57] (07+08/15) Accurately ripped
19 [570f3657|711bdedd] (07+08/15) Accurately ripped
20 [e00acfa2|50a60b58] (07+08/15) Accurately ripped
21 [81a238fe|456a298e] (07+08/15) Accurately ripped
22 [3bb8ee46|f7fc8250] (07+08/15) Accurately ripped
23 [0ae3a7b4|c2f4301f] (07+08/15) Accurately ripped
24 [4a9a2809|9325a6fd] (07+08/15) Accurately ripped
25 [c1907ecc|bfdc93df] (07+08/15) Accurately ripped
26 [3fbcf485|0f4438fa] (07+08/15) Accurately ripped

Track Peak [ CRC32 ] [W/O NULL] [ LOG ]
– 85,9 [14E5DC4E] [3C9E827C]
01 54,0 [189C2CAC] [DC69E712] CRC32
02 44,5 [2693CEFC] [FA5F10BB] CRC32
03 69,3 [8340C25D] [DD0535AE] CRC32
04 46,6 [3ACAD75F] [73F6A475] CRC32
05 58,7 [3B90762A] [D9B47526] CRC32
06 61,3 [664E85A9] [1FBFAA78] CRC32
07 57,9 [3EAE8AF3] [A773EBA5] CRC32
08 58,6 [D441B565] [6C82A973] CRC32
09 85,9 [EF30B413] [E8C3ACBA] CRC32
10 41,0 [0C041921] [50EF05A4] CRC32
11 65,7 [EEEA6783] [E115D8A8] CRC32
12 60,6 [A0FDC67F] [EFA028E0] CRC32
13 66,2 [EDD31AAE] [73D09AF5] CRC32
14 60,0 [4F09AC64] [06A06CC6] CRC32
15 66,8 [44C7C912] [EF130978] CRC32
16 73,6 [83710F23] [272FF64F] CRC32
17 59,5 [987CB3B6] [C523068F] CRC32
18 37,8 [18C6B014] [1B29121F] CRC32
19 62,3 [365ED3EE] [9B27F053] CRC32
20 71,0 [E339680D] [2CB3D1B5] CRC32
21 66,3 [F053340A] [A48555CC] CRC32
22 48,8 [84F4389C] [4B363D23] CRC32
23 64,7 [84C2B153] [7EBB5252] CRC32
24 64,8 [69EEF8B6] [4A7E413B] CRC32
25 55,7 [4811DEF9] [603C874D] CRC32
26 70,8 [35A8B833] [A0CC3E6A] CRC32

Django Reinhardt - The Classic Early Recordings [Recorded 1934-1939, 5CD Box Set] (2008)

CD 2: The London Deccas Recordings 1938 & 1939 featuring Stephane Grapelly
EAC Rip | FLAC (tracks+.cue+log) - 242 MB
Genre: Gypsy Jazz, Swing | RAR 3% Rec. | Label: JSP Records (JSP901B)

Tracklist:
01. Honeysuckle Rose (2:58)
02. Sweet Georgia Brown (3:11)
03. Night And Day (2:45)
04. My Sweet (2:58)
05. Souvenirs (2:49)
06. Daphne (3:14)
07. Black And White (3:09)
08. Stompin' At Decca (2:38)
09. Tornerai (2:36)
10. If I Had You (2:52)
11. It Had To Be You (2:58)
12. Nocturne (3:17)
13. The Flat Foot Floogie (2:59)
14. The Lambeth Walk (2:50)
15. Why Shouldn't I? (2:53)
16. I've Got My Love To Keep Me Warm (2:35)
17. Please Be Kind (2:49)
18. Louise (2:41)
19. Improvisation No. 2 (2:45)
20. Undecided (2:35)
21. HCQ Strut (3:02)
22. Don't Worry 'Bout Me (3:02)
23. The Man I Love (3:16)
24. My Sweet (3:00)
25. I've Got My Love To Keep Me Warm (2:27)
26. Improvisation No. 2 (2:43)

Total time: 01:15:03

Exact Audio Copy V1.0 beta 1 from 15. November 2010

EAC extraction logfile from 15. March 2011, 20:42

Django Reinhardt / The Classic Early Recordings - Disc B

Used drive : LITE-ON CD-RW SOHR-5238S Adapter: 6 ID: 3

Read mode : Secure
Utilize accurate stream : Yes
Defeat audio cache : Yes
Make use of C2 pointers : No

Read offset correction : 6
Overread into Lead-In and Lead-Out : No
Fill up missing offset samples with silence : Yes
Delete leading and trailing silent blocks : No
Null samples used in CRC calculations : Yes
Used interface : Installed external ASPI interface
Gap handling : Appended to previous track

Used output format : Internal WAV Routines
Sample format : 44.100 Hz; 16 Bit; Stereo


TOC of the extracted CD

Track | Start | Length | Start sector | End sector
––––––––––––––––––––––––––––-
1 | 0:00.00 | 2:57.51 | 0 | 13325
2 | 2:57.51 | 3:10.67 | 13326 | 27642
3 | 6:08.43 | 2:45.28 | 27643 | 40045
4 | 8:53.71 | 2:57.52 | 40046 | 53372
5 | 11:51.48 | 2:49.18 | 53373 | 66065
6 | 14:40.66 | 3:13.67 | 66066 | 80607
7 | 17:54.58 | 3:08.58 | 80608 | 94765
8 | 21:03.41 | 2:37.57 | 94766 | 106597
9 | 23:41.23 | 2:35.65 | 106598 | 118287
10 | 26:17.13 | 2:52.15 | 118288 | 131202
11 | 29:09.28 | 2:58.20 | 131203 | 144572
12 | 32:07.48 | 3:16.73 | 144573 | 159345
13 | 35:24.46 | 2:58.72 | 159346 | 172767
14 | 38:23.43 | 2:50.35 | 172768 | 185552
15 | 41:14.03 | 2:53.05 | 185553 | 198532
16 | 44:07.08 | 2:35.08 | 198533 | 210165
17 | 46:42.16 | 2:49.05 | 210166 | 222845
18 | 49:31.21 | 2:41.37 | 222846 | 234957
19 | 52:12.58 | 2:45.33 | 234958 | 247365
20 | 54:58.16 | 2:35.17 | 247366 | 259007
21 | 57:33.33 | 3:01.50 | 259008 | 272632
22 | 60:35.08 | 3:02.10 | 272633 | 286292
23 | 63:37.18 | 3:15.43 | 286293 | 300960
24 | 66:52.61 | 3:00.05 | 300961 | 314465
25 | 69:52.66 | 2:27.15 | 314466 | 325505
26 | 72:20.06 | 2:42.50 | 325506 | 337705


Track 1

Filename F:\eac\Django Reinhardt\Disc B\01 - Honeysuckle Rose.wav

Pre-gap length 0:00:02.00

Peak level 69.9 %
Extraction speed 5.4 X
Track quality 100.0 %
Test CRC 2051D01C
Copy CRC 2051D01C
Accurately ripped (confidence 7) [B4A5D732]
Copy OK

Track 2

Filename F:\eac\Django Reinhardt\Disc B\02 - Sweet Georgia Brown.wav

Pre-gap length 0:00:04.00

Peak level 70.5 %
Extraction speed 6.0 X
Track quality 100.0 %
Test CRC 9ECB8782
Copy CRC 9ECB8782
Accurately ripped (confidence 7) [9BC4B28E]
Copy OK

Track 3

Filename F:\eac\Django Reinhardt\Disc B\03 - Night And Day.wav

Pre-gap length 0:00:04.00

Peak level 59.1 %
Extraction speed 5.3 X
Track quality 99.9 %
Test CRC D588DA02
Copy CRC D588DA02
Accurately ripped (confidence 7) [156D92D0]
Copy OK

Track 4

Filename F:\eac\Django Reinhardt\Disc B\04 - My Sweet.wav

Pre-gap length 0:00:03.74

Peak level 84.4 %
Extraction speed 6.6 X
Track quality 100.0 %
Test CRC 9DC09649
Copy CRC 9DC09649
Accurately ripped (confidence 7) [44F1FA75]
Copy OK

Track 5

Filename F:\eac\Django Reinhardt\Disc B\05 - Souvenirs.wav

Pre-gap length 0:00:04.00

Peak level 38.5 %
Extraction speed 6.8 X
Track quality 100.0 %
Test CRC 2A9B0A67
Copy CRC 2A9B0A67
Accurately ripped (confidence 7) [06EC640D]
Copy OK

Track 6

Filename F:\eac\Django Reinhardt\Disc B\06 - Daphne.wav

Pre-gap length 0:00:04.00

Peak level 66.2 %
Extraction speed 7.4 X
Track quality 100.0 %
Test CRC 669AD1F8
Copy CRC 669AD1F8
Accurately ripped (confidence 7) [B996D87F]
Copy OK

Track 7

Filename F:\eac\Django Reinhardt\Disc B\07 - Black And White.wav

Pre-gap length 0:00:04.00

Peak level 53.7 %
Extraction speed 7.6 X
Track quality 100.0 %
Test CRC E7C5DB01
Copy CRC E7C5DB01
Accurately ripped (confidence 7) [15878D52]
Copy OK

Track 8

Filename F:\eac\Django Reinhardt\Disc B\08 - Stompin' At Decca.wav

Pre-gap length 0:00:03.74

Peak level 48.2 %
Extraction speed 7.7 X
Track quality 100.0 %
Test CRC 67DFD2F2
Copy CRC 67DFD2F2
Accurately ripped (confidence 7) [3BFFE25B]
Copy OK

Track 9

Filename F:\eac\Django Reinhardt\Disc B\09 - Tornerai.wav

Pre-gap length 0:00:03.74

Peak level 68.3 %
Extraction speed 7.9 X
Track quality 100.0 %
Test CRC 6B98C7F8
Copy CRC 6B98C7F8
Accurately ripped (confidence 7) [2B92C2DB]
Copy OK

Track 10

Filename F:\eac\Django Reinhardt\Disc B\10 - If I Had You.wav

Pre-gap length 0:00:04.00

Peak level 41.9 %
Extraction speed 8.4 X
Track quality 100.0 %
Test CRC 421C471A
Copy CRC 421C471A
Accurately ripped (confidence 7) [37E64ACA]
Copy OK

Track 11

Filename F:\eac\Django Reinhardt\Disc B\11 - It Had To Be You.wav

Pre-gap length 0:00:04.00

Peak level 68.0 %
Extraction speed 8.7 X
Track quality 100.0 %
Test CRC E91F34B0
Copy CRC E91F34B0
Accurately ripped (confidence 7) [B718033B]
Copy OK

Track 12

Filename F:\eac\Django Reinhardt\Disc B\12 - Nocturne.wav

Pre-gap length 0:00:04.00

Peak level 53.1 %
Extraction speed 9.0 X
Track quality 100.0 %
Test CRC 5CADD70C
Copy CRC 5CADD70C
Accurately ripped (confidence 7) [8394E241]
Copy OK

Track 13

Filename F:\eac\Django Reinhardt\Disc B\13 - The Flat Foot Floogie.wav

Pre-gap length 0:00:04.00

Peak level 53.3 %
Extraction speed 7.8 X
Track quality 99.9 %
Test CRC 6B39D54A
Copy CRC 6B39D54A
Accurately ripped (confidence 7) [258CFFED]
Copy OK

Track 14

Filename F:\eac\Django Reinhardt\Disc B\14 - The Lambeth Walk.wav

Pre-gap length 0:00:04.00

Peak level 46.6 %
Extraction speed 9.3 X
Track quality 100.0 %
Test CRC 7885F32A
Copy CRC 7885F32A
Accurately ripped (confidence 7) [60CDB6C6]
Copy OK

Track 15

Filename F:\eac\Django Reinhardt\Disc B\15 - Why Shouldn't I.wav

Pre-gap length 0:00:04.00

Peak level 45.1 %
Extraction speed 9.6 X
Track quality 100.0 %
Test CRC D5C9FC62
Copy CRC D5C9FC62
Accurately ripped (confidence 7) [5BC07FB7]
Copy OK

Track 16

Filename F:\eac\Django Reinhardt\Disc B\16 - I've Got My Love To Keep Me Warm.wav

Pre-gap length 0:00:03.74

Peak level 49.0 %
Extraction speed 9.4 X
Track quality 100.0 %
Test CRC 40FDC5C8
Copy CRC 40FDC5C8
Accurately ripped (confidence 7) [5A7978CA]
Copy OK

Track 17

Filename F:\eac\Django Reinhardt\Disc B\17 - Please Be Kind.wav

Pre-gap length 0:00:04.00

Peak level 50.0 %
Extraction speed 9.7 X
Track quality 100.0 %
Test CRC 3C086BC9
Copy CRC 3C086BC9
Accurately ripped (confidence 7) [14E750F4]
Copy OK

Track 18

Filename F:\eac\Django Reinhardt\Disc B\18 - Louise.wav

Pre-gap length 0:00:04.00

Peak level 37.9 %
Extraction speed 9.8 X
Track quality 100.0 %
Test CRC CD6C7716
Copy CRC CD6C7716
Accurately ripped (confidence 7) [7DE74D0E]
Copy OK

Track 19

Filename F:\eac\Django Reinhardt\Disc B\19 - Improvisation No. 2.wav

Pre-gap length 0:00:04.00

Peak level 72.1 %
Extraction speed 10.2 X
Track quality 100.0 %
Test CRC 0202C95B
Copy CRC 0202C95B
Accurately ripped (confidence 7) [DD571B3A]
Copy OK

Track 20

Filename F:\eac\Django Reinhardt\Disc B\20 - Undecided.wav

Pre-gap length 0:00:04.00

Peak level 72.0 %
Extraction speed 10.0 X
Track quality 100.0 %
Test CRC 07EB6DF6
Copy CRC 07EB6DF6
Accurately ripped (confidence 7) [C50DDB31]
Copy OK

Track 21

Filename F:\eac\Django Reinhardt\Disc B\21 - HCQ Strut.wav

Pre-gap length 0:00:04.00

Peak level 51.2 %
Extraction speed 9.1 X
Track quality 99.9 %
Test CRC A0C2F195
Copy CRC A0C2F195
Accurately ripped (confidence 7) [61081D98]
Copy OK

Track 22

Filename F:\eac\Django Reinhardt\Disc B\22 - Don't Worry 'Bout Me.wav

Pre-gap length 0:00:03.74

Peak level 64.2 %
Extraction speed 7.8 X
Track quality 100.0 %
Test CRC 529B7F09
Copy CRC 529B7F09
Accurately ripped (confidence 7) [A810B866]
Copy OK

Track 23

Filename F:\eac\Django Reinhardt\Disc B\23 - The Man I Love.wav

Pre-gap length 0:00:04.00

Peak level 57.4 %
Extraction speed 7.6 X
Track quality 99.9 %
Test CRC C6F55942
Copy CRC C6F55942
Accurately ripped (confidence 7) [40500AF6]
Copy OK

Track 24

Filename F:\eac\Django Reinhardt\Disc B\24 - My Sweet.wav

Pre-gap length 0:00:04.00

Peak level 73.5 %
Extraction speed 7.5 X
Track quality 100.0 %
Test CRC 5522CA34
Copy CRC 5522CA34
Accurately ripped (confidence 7) [911B68D5]
Copy OK

Track 25

Filename F:\eac\Django Reinhardt\Disc B\25 - I've Got My Love To Keep Me Warm.wav

Pre-gap length 0:00:04.00

Peak level 53.7 %
Extraction speed 7.3 X
Track quality 100.0 %
Test CRC 836417A2
Copy CRC 836417A2
Accurately ripped (confidence 7) [ED79C0AA]
Copy OK

Track 26

Filename F:\eac\Django Reinhardt\Disc B\26 - Improvisation No. 2.wav

Pre-gap length 0:00:04.00

Peak level 66.6 %
Extraction speed 7.5 X
Track quality 100.0 %
Test CRC 905718B4
Copy CRC 905718B4
Accurately ripped (confidence 7) [42184AF5]
Copy OK


All tracks accurately ripped

No errors occurred

End of status report

==== Log checksum CE2023D383924FA4E931EE7614DFA2E31FE979F47AB72F125283AEE9D1A37324 ====

[CUETools log; Date: 15.06.2019 0:45:10; Version: 2.1.4]
[CTDB TOCID: _Oj0ulPlwcdjtqKzSESHSI03dKw-] found.
Track | CTDB Status
1 | (11/11) Accurately ripped
2 | (11/11) Accurately ripped
3 | (11/11) Accurately ripped
4 | (11/11) Accurately ripped
5 | (11/11) Accurately ripped
6 | (11/11) Accurately ripped
7 | (11/11) Accurately ripped
8 | (11/11) Accurately ripped
9 | (11/11) Accurately ripped
10 | (11/11) Accurately ripped
11 | (11/11) Accurately ripped
12 | (11/11) Accurately ripped
13 | (11/11) Accurately ripped
14 | (11/11) Accurately ripped
15 | (11/11) Accurately ripped
16 | (11/11) Accurately ripped
17 | (11/11) Accurately ripped
18 | (11/11) Accurately ripped
19 | (11/11) Accurately ripped
20 | (11/11) Accurately ripped
21 | (11/11) Accurately ripped
22 | (11/11) Accurately ripped
23 | (11/11) Accurately ripped
24 | (11/11) Accurately ripped
25 | (11/11) Accurately ripped
26 | (11/11) Accurately ripped
[AccurateRip ID: 004642b7-051bd188-7911961a] found.
Track [ CRC | V2 ] Status
01 [b4a5d732|82606cd4] (07+06/13) Accurately ripped
02 [9bc4b28e|8f082e2b] (07+06/13) Accurately ripped
03 [156d92d0|80d0c0f3] (07+06/13) Accurately ripped
04 [44f1fa75|9395ae24] (07+06/13) Accurately ripped
05 [06ec640d|453fce8d] (07+06/13) Accurately ripped
06 [b996d87f|8771d43b] (07+06/13) Accurately ripped
07 [15878d52|6c6f046a] (07+06/13) Accurately ripped
08 [3bffe25b|34335108] (07+06/13) Accurately ripped
09 [2b92c2db|d67f5092] (07+06/13) Accurately ripped
10 [37e64aca|48f6895e] (07+06/13) Accurately ripped
11 [b718033b|e5051c4a] (07+06/13) Accurately ripped
12 [8394e241|f9c932ac] (07+06/13) Accurately ripped
13 [258cffed|2792f92a] (07+06/13) Accurately ripped
14 [60cdb6c6|c74a732a] (07+06/13) Accurately ripped
15 [5bc07fb7|00c2a65d] (07+06/13) Accurately ripped
16 [5a7978ca|fa627265] (07+06/13) Accurately ripped
17 [14e750f4|55aea9a3] (07+06/13) Accurately ripped
18 [7de74d0e|75130e28] (07+06/13) Accurately ripped
19 [dd571b3a|e55c09ee] (07+06/13) Accurately ripped
20 [c50ddb31|d0a4b2b8] (07+06/13) Accurately ripped
21 [61081d98|98b472bb] (07+06/13) Accurately ripped
22 [a810b866|bafeaecc] (07+06/13) Accurately ripped
23 [40500af6|d0387973] (07+06/13) Accurately ripped
24 [911b68d5|b282b910] (07+06/13) Accurately ripped
25 [ed79c0aa|7ff14984] (07+06/13) Accurately ripped
26 [42184af5|06bd9d80] (07+06/13) Accurately ripped

Track Peak [ CRC32 ] [W/O NULL] [ LOG ]
– 84,4 [114F4908] [BD8B61B9]
01 69,9 [2051D01C] [0B8DC2E4] CRC32
02 70,5 [9ECB8782] [6D7D8BDA] CRC32
03 59,1 [D588DA02] [A0262E86] CRC32
04 84,4 [9DC09649] [68031CCF] CRC32
05 38,5 [2A9B0A67] [AB975CFF] CRC32
06 66,2 [669AD1F8] [C236F971] CRC32
07 53,7 [E7C5DB01] [FDC37C5E] CRC32
08 48,2 [67DFD2F2] [D0D42695] CRC32
09 68,3 [6B98C7F8] [30E0F4C4] CRC32
10 41,9 [421C471A] [6672563B] CRC32
11 68,0 [E91F34B0] [DCE4680A] CRC32
12 53,1 [5CADD70C] [A3BF29D8] CRC32
13 53,3 [6B39D54A] [9704E4AF] CRC32
14 46,6 [7885F32A] [9F28017F] CRC32
15 45,1 [D5C9FC62] [EFDCCD4C] CRC32
16 48,9 [40FDC5C8] [0708F396] CRC32
17 50,0 [3C086BC9] [9B6CF4F8] CRC32
18 37,9 [CD6C7716] [B42AC6A4] CRC32
19 72,1 [0202C95B] [3EEBDA1B] CRC32
20 72,0 [07EB6DF6] [E6B3A122] CRC32
21 51,2 [A0C2F195] [2CF0D6D3] CRC32
22 64,2 [529B7F09] [C74A487D] CRC32
23 57,4 [C6F55942] [46B7E118] CRC32
24 73,5 [5522CA34] [1DB2626C] CRC32
25 53,7 [836417A2] [49ACCC6A] CRC32
26 66,6 [905718B4] [51C8C2AC] CRC32

Django Reinhardt - The Classic Early Recordings [Recorded 1934-1939, 5CD Box Set] (2008)

CD 3: The Paris Deccas Recordings 1938 & 1939 featuring Stephane Grapelly
EAC Rip | FLAC (tracks+.cue+log) - 230 MB
Genre: Gypsy Jazz, Swing | RAR 3% Rec. | Label: JSP Records (JSP901C)

Tracklist:
01. Billets Doux (2:59)
02. Swing From Paris (2:37)
03. Them There Eyes (3:06)
04. Three Little Words (2:57)
05. Appel Direct (3:04)
06. Hungaria (2:51)
07. Hungaria (2:50)
08. Jeepers Creepers (3:19)
09. Jeepers Creepers (3:18)
10. Swing '39 (3:23)
11. Japanese Sandman (2:44)
12. I Wonder Where My Baby Is Tonight (3:06)
13. I Wonder Where My Baby Is Tonight (3:12)
14. Tea For Two (2:54)
15. Tea For Two (2:57)
16. My Melancholy Baby (3:29)
17. Time On My Hands (2:46)
18. Twelfth Year (2:43)
19. Twelfth Year (2:45)
20. My Melancholy Baby (2:52)
21. Japanese Sandman (3:12)
22. Tea For Two (3:17)
23. I Wonder Where My Baby Is Tonight (2:50)
24. Hungaria (2:47)

Total time: 01:11:57

Exact Audio Copy V1.0 beta 1 from 15. November 2010

EAC extraction logfile from 15. March 2011, 21:23

Django Reinhardt / The Classic Early Recordings - Disc C

Used drive : LITE-ON CD-RW SOHR-5238S Adapter: 6 ID: 3

Read mode : Secure
Utilize accurate stream : Yes
Defeat audio cache : Yes
Make use of C2 pointers : No

Read offset correction : 6
Overread into Lead-In and Lead-Out : No
Fill up missing offset samples with silence : Yes
Delete leading and trailing silent blocks : No
Null samples used in CRC calculations : Yes
Used interface : Installed external ASPI interface
Gap handling : Appended to previous track

Used output format : Internal WAV Routines
Sample format : 44.100 Hz; 16 Bit; Stereo


TOC of the extracted CD

Track | Start | Length | Start sector | End sector
––––––––––––––––––––––––––––-
1 | 0:00.00 | 2:59.03 | 0 | 13427
2 | 2:59.03 | 2:36.73 | 13428 | 25200
3 | 5:36.01 | 3:06.15 | 25201 | 39165
4 | 8:42.16 | 2:57.20 | 39166 | 52460
5 | 11:39.36 | 3:04.01 | 52461 | 66261
6 | 14:43.37 | 2:50.48 | 66262 | 79059
7 | 17:34.10 | 2:49.48 | 79060 | 91782
8 | 20:23.58 | 3:18.40 | 91783 | 106672
9 | 23:42.23 | 3:18.22 | 106673 | 121544
10 | 27:00.45 | 3:22.71 | 121545 | 136765
11 | 30:23.41 | 2:44.34 | 136766 | 149099
12 | 33:08.00 | 3:06.24 | 149100 | 163073
13 | 36:14.24 | 3:12.08 | 163074 | 177481
14 | 39:26.32 | 2:54.21 | 177482 | 190552
15 | 42:20.53 | 2:56.57 | 190553 | 203809
16 | 45:17.35 | 3:28.57 | 203810 | 219466
17 | 48:46.17 | 2:45.48 | 219467 | 231889
18 | 51:31.65 | 2:42.64 | 231890 | 244103
19 | 54:14.54 | 2:44.62 | 244104 | 256465
20 | 56:59.41 | 2:51.72 | 256466 | 269362
21 | 59:51.38 | 3:11.58 | 269363 | 283745
22 | 63:03.21 | 3:16.60 | 283746 | 298505
23 | 66:20.06 | 2:50.36 | 298506 | 311291
24 | 69:10.42 | 2:46.70 | 311292 | 323811


Track 1

Filename F:\eac\Django Reinhardt\Disc C\01 - Billets Doux.wav

Pre-gap length 0:00:02.00

Peak level 66.1 %
Extraction speed 5.3 X
Track quality 100.0 %
Test CRC D4E6AF2B
Copy CRC D4E6AF2B
Accurately ripped (confidence 7) [0248C615]
Copy OK

Track 2

Filename F:\eac\Django Reinhardt\Disc C\02 - Swing From Paris.wav

Pre-gap length 0:00:04.00

Peak level 71.5 %
Extraction speed 5.5 X
Track quality 100.0 %
Test CRC 3CBB2B74
Copy CRC 3CBB2B74
Accurately ripped (confidence 7) [21C54874]
Copy OK

Track 3

Filename F:\eac\Django Reinhardt\Disc C\03 - Them There Eyes.wav

Pre-gap length 0:00:04.00

Peak level 71.3 %
Extraction speed 6.1 X
Track quality 100.0 %
Test CRC 67AB9DF9
Copy CRC 67AB9DF9
Accurately ripped (confidence 7) [911DA6EB]
Copy OK

Track 4

Filename F:\eac\Django Reinhardt\Disc C\04 - Three Little Words.wav

Pre-gap length 0:00:04.00

Peak level 74.5 %
Extraction speed 6.4 X
Track quality 100.0 %
Test CRC 62468340
Copy CRC 62468340
Accurately ripped (confidence 7) [6F857627]
Copy OK

Track 5

Filename F:\eac\Django Reinhardt\Disc C\05 - Appel Direct.wav

Pre-gap length 0:00:04.00

Peak level 85.1 %
Extraction speed 6.8 X
Track quality 100.0 %
Test CRC AFAC8AF3
Copy CRC AFAC8AF3
Accurately ripped (confidence 7) [1DA40C57]
Copy OK

Track 6

Filename F:\eac\Django Reinhardt\Disc C\06 - Hungaria.wav

Pre-gap length 0:00:04.00

Peak level 77.9 %
Extraction speed 7.0 X
Track quality 100.0 %
Test CRC E30F7204
Copy CRC E30F7204
Accurately ripped (confidence 7) [5DD7BC6E]
Copy OK

Track 7

Filename F:\eac\Django Reinhardt\Disc C\07 - Hungaria.wav

Pre-gap length 0:00:04.00

Peak level 76.0 %
Extraction speed 7.2 X
Track quality 100.0 %
Test CRC 25509F32
Copy CRC 25509F32
Accurately ripped (confidence 7) [FF6CA3BD]
Copy OK

Track 8

Filename F:\eac\Django Reinhardt\Disc C\08 - Jeepers Creepers.wav

Pre-gap length 0:00:04.00

Peak level 62.2 %
Extraction speed 7.8 X
Track quality 100.0 %
Test CRC 27707C74
Copy CRC 27707C74
Accurately ripped (confidence 7) [A40903BE]
Copy OK

Track 9

Filename F:\eac\Django Reinhardt\Disc C\09 - Jeepers Creepers.wav

Pre-gap length 0:00:04.00

Peak level 69.8 %
Extraction speed 8.1 X
Track quality 100.0 %
Test CRC 7FE0B67A
Copy CRC 7FE0B67A
Accurately ripped (confidence 7) [D1B25AE7]
Copy OK

Track 10

Filename F:\eac\Django Reinhardt\Disc C\10 - Swing '39.wav

Pre-gap length 0:00:04.00

Peak level 86.9 %
Extraction speed 8.3 X
Track quality 100.0 %
Test CRC 863FA286
Copy CRC 863FA286
Accurately ripped (confidence 7) [D90EE991]
Copy OK

Track 11

Filename F:\eac\Django Reinhardt\Disc C\11 - Japanese Sandman.wav

Pre-gap length 0:00:04.00

Peak level 67.3 %
Extraction speed 8.4 X
Track quality 100.0 %
Test CRC 7B7130E6
Copy CRC 7B7130E6
Accurately ripped (confidence 7) [11117568]
Copy OK

Track 12

Filename F:\eac\Django Reinhardt\Disc C\12 - I Wonder Where My Baby Is Tonight.wav

Pre-gap length 0:00:04.00

Peak level 71.8 %
Extraction speed 8.7 X
Track quality 100.0 %
Test CRC 4E740B87
Copy CRC 4E740B87
Accurately ripped (confidence 7) [731C6B26]
Copy OK

Track 13

Filename F:\eac\Django Reinhardt\Disc C\13 - I Wonder Where My Baby Is Tonight.wav

Pre-gap length 0:00:04.00

Peak level 100.0 %
Extraction speed 9.1 X
Track quality 100.0 %
Test CRC BAD34708
Copy CRC BAD34708
Accurately ripped (confidence 7) [0EE4F4F4]
Copy OK

Track 14

Filename F:\eac\Django Reinhardt\Disc C\14 - Tea For Two.wav

Pre-gap length 0:00:04.00

Peak level 72.8 %
Extraction speed 9.2 X
Track quality 100.0 %
Test CRC C348B702
Copy CRC C348B702
Accurately ripped (confidence 7) [0230E387]
Copy OK

Track 15

Filename F:\eac\Django Reinhardt\Disc C\15 - Tea For Two.wav

Pre-gap length 0:00:04.00

Peak level 82.0 %
Extraction speed 9.4 X
Track quality 100.0 %
Test CRC 5002FAD5
Copy CRC 5002FAD5
Accurately ripped (confidence 7) [6E03F96D]
Copy OK

Track 16

Filename F:\eac\Django Reinhardt\Disc C\16 - My Melancholy Baby.wav

Pre-gap length 0:00:04.00

Peak level 69.6 %
Extraction speed 9.9 X
Track quality 100.0 %
Test CRC A9EE9DEA
Copy CRC A9EE9DEA
Accurately ripped (confidence 7) [519340DA]
Copy OK

Track 17

Filename F:\eac\Django Reinhardt\Disc C\17 - Time On My Hands.wav

Pre-gap length 0:00:04.00

Peak level 76.5 %
Extraction speed 9.8 X
Track quality 100.0 %
Test CRC 54BE37E7
Copy CRC 54BE37E7
Accurately ripped (confidence 7) [64DCED27]
Copy OK

Track 18

Filename F:\eac\Django Reinhardt\Disc C\18 - Twelfth Year.wav

Pre-gap length 0:00:04.00

Peak level 65.7 %
Extraction speed 9.9 X
Track quality 100.0 %
Test CRC A27BF1CA
Copy CRC A27BF1CA
Accurately ripped (confidence 7) [1B4FF4E7]
Copy OK

Track 19

Filename F:\eac\Django Reinhardt\Disc C\19 - Twelfth Year.wav

Pre-gap length 0:00:03.74

Peak level 61.5 %
Extraction speed 10.2 X
Track quality 100.0 %
Test CRC 2735F6E4
Copy CRC 2735F6E4
Accurately ripped (confidence 7) [01FEF299]
Copy OK

Track 20

Filename F:\eac\Django Reinhardt\Disc C\20 - My Melancholy Baby.wav

Pre-gap length 0:00:04.00

Peak level 45.4 %
Extraction speed 10.4 X
Track quality 100.0 %
Test CRC 44CAF2B5
Copy CRC 44CAF2B5
Accurately ripped (confidence 7) [D18E98A9]
Copy OK

Track 21

Filename F:\eac\Django Reinhardt\Disc C\21 - Japanese Sandman.wav

Pre-gap length 0:00:04.00

Peak level 69.4 %
Extraction speed 10.6 X
Track quality 100.0 %
Test CRC 8F5E1EBD
Copy CRC 8F5E1EBD
Accurately ripped (confidence 7) [B26CD3F8]
Copy OK

Track 22

Filename F:\eac\Django Reinhardt\Disc C\22 - Tea For Two.wav

Pre-gap length 0:00:04.00

Peak level 67.3 %
Extraction speed 10.7 X
Track quality 100.0 %
Test CRC 0A621C87
Copy CRC 0A621C87
Accurately ripped (confidence 7) [79C00D50]
Copy OK

Track 23

Filename F:\eac\Django Reinhardt\Disc C\23 - I Wonder Where My Baby Is Tonight.wav

Pre-gap length 0:00:04.00

Peak level 87.6 %
Extraction speed 10.5 X
Track quality 100.0 %
Test CRC E4129C33
Copy CRC E4129C33
Accurately ripped (confidence 7) [671D58F0]
Copy OK

Track 24

Filename F:\eac\Django Reinhardt\Disc C\24 - Hungaria.wav

Pre-gap length 0:00:04.00

Peak level 52.4 %
Extraction speed 7.3 X
Track quality 100.0 %
Test CRC BB244A5F
Copy CRC BB244A5F
Accurately ripped (confidence 7) [2EF533E5]
Copy OK


All tracks accurately ripped

No errors occurred

End of status report

==== Log checksum 7BD334B243BF35FEE032984BF912065A7CFF0AF7353D920694BAF3F41C5C3329 ====

[CUETools log; Date: 15.06.2019 0:45:36; Version: 2.1.4]
[CTDB TOCID: xkyIxWnm7mrymVLbn3CHi4ySQb4-] found.
Track | CTDB Status
1 | (10/10) Accurately ripped
2 | (10/10) Accurately ripped
3 | (10/10) Accurately ripped
4 | (10/10) Accurately ripped
5 | (10/10) Accurately ripped
6 | (10/10) Accurately ripped
7 | (10/10) Accurately ripped
8 | (10/10) Accurately ripped
9 | (10/10) Accurately ripped
10 | (10/10) Accurately ripped
11 | (10/10) Accurately ripped
12 | (10/10) Accurately ripped
13 | (10/10) Accurately ripped
14 | (10/10) Accurately ripped
15 | (10/10) Accurately ripped
16 | (10/10) Accurately ripped
17 | (10/10) Accurately ripped
18 | (10/10) Accurately ripped
19 | (10/10) Accurately ripped
20 | (10/10) Accurately ripped
21 | (10/10) Accurately ripped
22 | (10/10) Accurately ripped
23 | (10/10) Accurately ripped
24 | (10/10) Accurately ripped
[AccurateRip ID: 003ddfe2-043243cb-6010dd18] found.
Track [ CRC | V2 ] Status
01 [0248c615|e1b2536e] (07+06/13) Accurately ripped
02 [21c54874|d48abd4f] (07+06/13) Accurately ripped
03 [911da6eb|99f88896] (08+06/14) Accurately ripped
04 [6f857627|655c6e8b] (07+06/13) Accurately ripped
05 [1da40c57|c91fea8e] (07+06/13) Accurately ripped
06 [5dd7bc6e|1e4d1209] (07+06/13) Accurately ripped
07 [ff6ca3bd|1f8bf38f] (07+06/13) Accurately ripped
08 [a40903be|c11e35b8] (07+06/13) Accurately ripped
09 [d1b25ae7|cc238065] (07+06/13) Accurately ripped
10 [d90ee991|968c9ceb] (07+06/13) Accurately ripped
11 [11117568|694d5841] (07+06/13) Accurately ripped
12 [731c6b26|6b632504] (07+06/13) Accurately ripped
13 [0ee4f4f4|a4d2a65d] (07+06/13) Accurately ripped
14 [0230e387|301395a4] (07+06/13) Accurately ripped
15 [6e03f96d|4bbfba71] (07+06/13) Accurately ripped
16 [519340da|4cec6fc3] (07+06/13) Accurately ripped
17 [64dced27|c56eb302] (07+06/13) Accurately ripped
18 [1b4ff4e7|36c1416e] (07+06/13) Accurately ripped
19 [01fef299|e942b9aa] (07+06/13) Accurately ripped
20 [d18e98a9|c672ca4c] (07+06/13) Accurately ripped
21 [b26cd3f8|eb1b791a] (07+06/13) Accurately ripped
22 [79c00d50|2f375b67] (07+06/13) Accurately ripped
23 [671d58f0|79193555] (07+06/13) Accurately ripped
24 [2ef533e5|069b8471] (07+06/13) Accurately ripped

Track Peak [ CRC32 ] [W/O NULL] [ LOG ]
– 100,0 [0956EB20] [7372512F]
01 66,1 [D4E6AF2B] [4C7C2A62] CRC32
02 71,5 [3CBB2B74] [A52175C2] CRC32
03 71,3 [67AB9DF9] [A6AC9A32] CRC32
04 74,5 [62468340] [A3CCA6E7] CRC32
05 85,1 [AFAC8AF3] [6B0FF226] CRC32
06 77,9 [E30F7204] [EFE9E094] CRC32
07 76,0 [25509F32] [B1AA6A5F] CRC32
08 62,2 [27707C74] [B8755B4D] CRC32
09 69,8 [7FE0B67A] [B24234D8] CRC32
10 86,9 [863FA286] [71FB594C] CRC32
11 67,3 [7B7130E6] [78533991] CRC32
12 71,8 [4E740B87] [F15F2D5E] CRC32
13 100,0 [BAD34708] [4AF6ACDD] CRC32
14 72,8 [C348B702] [1A21E8DE] CRC32
15 82,0 [5002FAD5] [56315326] CRC32
16 69,6 [A9EE9DEA] [71B4A225] CRC32
17 76,5 [54BE37E7] [D227FEC1] CRC32
18 65,7 [A27BF1CA] [54564EDA] CRC32
19 61,5 [2735F6E4] [F3C9FB42] CRC32
20 45,4 [44CAF2B5] [66582D2A] CRC32
21 69,4 [8F5E1EBD] [81444934] CRC32
22 67,3 [0A621C87] [469DC9B1] CRC32
23 87,6 [E4129C33] [4F9046F6] CRC32
24 52,4 [BB244A5F] [FE412C64] CRC32

Django Reinhardt - The Classic Early Recordings [Recorded 1934-1939, 5CD Box Set] (2008)

CD 4: Paris Recordings 1935 & 1936 featuring Stephane Grapelly
EAC Rip | FLAC (tracks+.cue+log) - 144 MB
Genre: Gypsy Jazz, Swing | RAR 3% Rec. | Label: JSP Records (JSP901D)

Tracklist:
01. Blue Moon (3:20)
02. Avalon (3:07)
03. What A Difference A Day Made (3:26)
04. Stardust (3:16)
05. St. Louis Blues (3:34)
06. Limehouse Blues (3:15)
07. I Got Rhythm (3:01)
08. I've Found A New Baby (3:08)
09. It Was So Beautiful (2:56)
10. China Boy (3:05)
11. Moon Glow (3:06)
12. It Don't Mean A Thing (3:08)
13. I'se A-Muggin' (3:10)
14. I Can't Give You Anything But Love (3:27)
15. Oriental Shuffle (2:44)
16. After You've Gone (3:11)
17. Are You In The Mood? (2:55)
18. Limehouse Blues (2:51)
19. Nagasaki (2:54)
20. Swing Guitars (2:30)
21. Georgia On My Mind (3:19)
22. Shine (3:00)
23. In The Still Of The Night (3:09)
24. Sweet Chorus (2:45)

Total time: 01:14:18

Exact Audio Copy V1.0 beta 1 from 15. November 2010

EAC extraction logfile from 15. March 2011, 22:05

Django Reinhardt / The Classic Early Recordings - Disc D

Used drive : LITE-ON CD-RW SOHR-5238S Adapter: 6 ID: 3

Read mode : Secure
Utilize accurate stream : Yes
Defeat audio cache : Yes
Make use of C2 pointers : No

Read offset correction : 6
Overread into Lead-In and Lead-Out : No
Fill up missing offset samples with silence : Yes
Delete leading and trailing silent blocks : No
Null samples used in CRC calculations : Yes
Used interface : Installed external ASPI interface
Gap handling : Appended to previous track

Used output format : Internal WAV Routines
Sample format : 44.100 Hz; 16 Bit; Stereo


TOC of the extracted CD

Track | Start | Length | Start sector | End sector
––––––––––––––––––––––––––––-
1 | 0:00.00 | 3:20.29 | 0 | 15028
2 | 3:20.29 | 3:06.68 | 15029 | 29046
3 | 6:27.22 | 3:26.10 | 29047 | 44506
4 | 9:53.32 | 3:15.67 | 44507 | 59198
5 | 13:09.24 | 3:34.15 | 59199 | 75263
6 | 16:43.39 | 3:14.53 | 75264 | 89866
7 | 19:58.17 | 3:01.07 | 89867 | 103448
8 | 22:59.24 | 3:08.03 | 103449 | 117551
9 | 26:07.27 | 2:55.72 | 117552 | 130748
10 | 29:03.24 | 3:05.28 | 130749 | 144651
11 | 32:08.52 | 3:06.30 | 144652 | 158631
12 | 35:15.07 | 3:07.57 | 158632 | 172713
13 | 38:22.64 | 3:09.68 | 172714 | 186956
14 | 41:32.57 | 3:26.62 | 186957 | 202468
15 | 44:59.44 | 2:44.05 | 202469 | 214773
16 | 47:43.49 | 3:11.08 | 214774 | 229106
17 | 50:54.57 | 2:54.50 | 229107 | 242206
18 | 53:49.32 | 2:50.52 | 242207 | 255008
19 | 56:40.09 | 2:54.25 | 255009 | 268083
20 | 59:34.34 | 2:29.65 | 268084 | 279323
21 | 62:04.24 | 3:18.60 | 279324 | 294233
22 | 65:23.09 | 3:00.13 | 294234 | 307746
23 | 68:23.22 | 3:09.20 | 307747 | 321941
24 | 71:32.42 | 2:45.35 | 321942 | 334351


Track 1

Filename F:\eac\Django Reinhardt\Disc D\01 - Blue Moon.wav

Pre-gap length 0:00:02.00

Peak level 66.4 %
Extraction speed 5.6 X
Track quality 100.0 %
Test CRC 024CF916
Copy CRC 024CF916
Accurately ripped (confidence 6) [51E14493]
Copy OK

Track 2

Filename F:\eac\Django Reinhardt\Disc D\02 - Avalon.wav

Pre-gap length 0:00:04.00

Peak level 73.0 %
Extraction speed 5.9 X
Track quality 100.0 %
Test CRC D31B010A
Copy CRC D31B010A
Accurately ripped (confidence 6) [67A06A98]
Copy OK

Track 3

Filename F:\eac\Django Reinhardt\Disc D\03 - What A Difference A Day Made.wav

Pre-gap length 0:00:04.00

Peak level 48.2 %
Extraction speed 6.5 X
Track quality 100.0 %
Test CRC 4035CAF5
Copy CRC 4035CAF5
Accurately ripped (confidence 6) [FD852945]
Copy OK

Track 4

Filename F:\eac\Django Reinhardt\Disc D\04 - Stardust.wav

Pre-gap length 0:00:04.00

Peak level 53.9 %
Extraction speed 5.8 X
Track quality 99.9 %
Test CRC C716524C
Copy CRC C716524C
Accurately ripped (confidence 6) [4FB89656]
Copy OK

Track 5

Filename F:\eac\Django Reinhardt\Disc D\05 - St. Louis Blues.wav

Pre-gap length 0:00:04.00

Peak level 76.7 %
Extraction speed 6.4 X
Track quality 99.9 %
Test CRC 3C2F280C
Copy CRC 3C2F280C
Accurately ripped (confidence 6) [04EC4D24]
Copy OK

Track 6

Filename F:\eac\Django Reinhardt\Disc D\06 - Limehouse Blues.wav

Pre-gap length 0:00:04.00

Peak level 71.8 %
Extraction speed 7.6 X
Track quality 100.0 %
Test CRC 3B7BDB6A
Copy CRC 3B7BDB6A
Accurately ripped (confidence 6) [CF9D4AE1]
Copy OK

Track 7

Filename F:\eac\Django Reinhardt\Disc D\07 - I Got Rhythm.wav

Pre-gap length 0:00:04.00

Peak level 84.1 %
Extraction speed 7.7 X
Track quality 100.0 %
Test CRC 9367639A
Copy CRC 9367639A
Accurately ripped (confidence 6) [6D7177E6]
Copy OK

Track 8

Filename F:\eac\Django Reinhardt\Disc D\08 - I've Found A New Baby.wav

Pre-gap length 0:00:04.00

Peak level 50.2 %
Extraction speed 8.1 X
Track quality 100.0 %
Test CRC 441931A1
Copy CRC 441931A1
Accurately ripped (confidence 6) [9220DE64]
Copy OK

Track 9

Filename F:\eac\Django Reinhardt\Disc D\09 - It Was So Beautiful.wav

Pre-gap length 0:00:04.00

Peak level 90.5 %
Extraction speed 7.0 X
Track quality 99.9 %
Test CRC 423D2A45
Copy CRC 423D2A45
Accurately ripped (confidence 6) [ACB3B130]
Copy OK

Track 10

Filename F:\eac\Django Reinhardt\Disc D\10 - China Boy.wav

Pre-gap length 0:00:04.00

Peak level 95.1 %
Extraction speed 8.7 X
Track quality 100.0 %
Test CRC CB6710E0
Copy CRC CB6710E0
Accurately ripped (confidence 6) [9283791D]
Copy OK

Track 11

Filename F:\eac\Django Reinhardt\Disc D\11 - Moon Glow.wav

Pre-gap length 0:00:04.01

Peak level 79.7 %
Extraction speed 9.0 X
Track quality 100.0 %
Test CRC 4D285D49
Copy CRC 4D285D49
Accurately ripped (confidence 6) [60C9535E]
Copy OK

Track 12

Filename F:\eac\Django Reinhardt\Disc D\12 - It Don't Mean A Thing.wav

Pre-gap length 0:00:03.74

Peak level 73.7 %
Extraction speed 9.2 X
Track quality 100.0 %
Test CRC 115FDC37
Copy CRC 115FDC37
Accurately ripped (confidence 6) [3C3AC7A3]
Copy OK

Track 13

Filename F:\eac\Django Reinhardt\Disc D\13 - I'se A-Muggin'.wav

Pre-gap length 0:00:03.74

Peak level 55.6 %
Extraction speed 8.1 X
Track quality 99.9 %
Test CRC 4F2BEC95
Copy CRC 4F2BEC95
Accurately ripped (confidence 6) [56F9AB2F]
Copy OK

Track 14

Filename F:\eac\Django Reinhardt\Disc D\14 - I Can't Give You Anything But Love.wav

Pre-gap length 0:00:04.00

Peak level 54.9 %
Extraction speed 9.9 X
Track quality 100.0 %
Test CRC 3FD4C690
Copy CRC 3FD4C690
Accurately ripped (confidence 6) [D5853C9E]
Copy OK

Track 15

Filename F:\eac\Django Reinhardt\Disc D\15 - Oriental Shuffle.wav

Pre-gap length 0:00:04.00

Peak level 71.1 %
Extraction speed 9.6 X
Track quality 100.0 %
Test CRC 4741B5AD
Copy CRC 4741B5AD
Accurately ripped (confidence 6) [061251B9]
Copy OK

Track 16

Filename F:\eac\Django Reinhardt\Disc D\16 - After You've Gone.wav

Pre-gap length 0:00:03.74

Peak level 78.0 %
Extraction speed 10.2 X
Track quality 100.0 %
Test CRC 0D5E0E46
Copy CRC 0D5E0E46
Accurately ripped (confidence 6) [D64D7529]
Copy OK

Track 17

Filename F:\eac\Django Reinhardt\Disc D\17 - Are You In The Mood.wav

Pre-gap length 0:00:04.00

Peak level 77.7 %
Extraction speed 8.6 X
Track quality 99.9 %
Test CRC 31973E90
Copy CRC 31973E90
Accurately ripped (confidence 6) [A8DD7C9A]
Copy OK

Track 18

Filename F:\eac\Django Reinhardt\Disc D\18 - Limehouse Blues.wav

Pre-gap length 0:00:04.00

Peak level 69.8 %
Extraction speed 6.2 X
Track quality 99.9 %
Test CRC F8159E14
Copy CRC F8159E14
Accurately ripped (confidence 6) [24F0A27E]
Copy OK

Track 19

Filename F:\eac\Django Reinhardt\Disc D\19 - Nagasaki.wav

Pre-gap length 0:00:04.00

Peak level 49.3 %
Extraction speed 6.0 X
Track quality 99.9 %
Test CRC 8F8E7ABD
Copy CRC 8F8E7ABD
Accurately ripped (confidence 6) [968D5BEA]
Copy OK

Track 20

Filename F:\eac\Django Reinhardt\Disc D\20 - Swing Guitars.wav

Pre-gap length 0:00:03.74

Peak level 52.2 %
Extraction speed 6.9 X
Track quality 100.0 %
Test CRC 3FFB654B
Copy CRC 3FFB654B
Accurately ripped (confidence 6) [479646E5]
Copy OK

Track 21

Filename F:\eac\Django Reinhardt\Disc D\21 - Georgia On My Mind.wav

Pre-gap length 0:00:04.00

Peak level 62.3 %
Extraction speed 7.5 X
Track quality 100.0 %
Test CRC 9B8A5484
Copy CRC 9B8A5484
Accurately ripped (confidence 6) [B90B749C]
Copy OK

Track 22

Filename F:\eac\Django Reinhardt\Disc D\22 - Shine.wav

Pre-gap length 0:00:04.00

Peak level 59.5 %
Extraction speed 7.4 X
Track quality 100.0 %
Test CRC 31346B64
Copy CRC 31346B64
Accurately ripped (confidence 6) [0AF42B9D]
Copy OK

Track 23

Filename F:\eac\Django Reinhardt\Disc D\23 - In The Still Of The Night.wav

Pre-gap length 0:00:03.74

Peak level 48.8 %
Extraction speed 4.6 X
Track quality 99.9 %
Test CRC 033A3335
Copy CRC 033A3335
Accurately ripped (confidence 6) [F10D72C1]
Copy OK

Track 24

Filename F:\eac\Django Reinhardt\Disc D\24 - Sweet Chorus.wav

Pre-gap length 0:00:04.00

Peak level 36.6 %
Extraction speed 3.1 X
Track quality 100.0 %
Test CRC 680F5B4F
Copy CRC 680F5B4F
Accurately ripped (confidence 6) [23824FFB]
Copy OK


All tracks accurately ripped

No errors occurred

End of status report

==== Log checksum DDA0BBF4691FD42C9922E9F93488E94637C729535EAE337C3C70B026A12242CB ====

[CUETools log; Date: 15.06.2019 0:46:00; Version: 2.1.4]
[CTDB TOCID: WgyOYmRmhDhCCGfnC9tvXNkTO08-] found.
Track | CTDB Status
1 | (11/11) Accurately ripped
2 | (11/11) Accurately ripped
3 | (11/11) Accurately ripped
4 | (11/11) Accurately ripped
5 | (11/11) Accurately ripped
6 | (11/11) Accurately ripped
7 | (11/11) Accurately ripped
8 | (11/11) Accurately ripped
9 | (11/11) Accurately ripped
10 | (11/11) Accurately ripped
11 | (11/11) Accurately ripped
12 | (11/11) Accurately ripped
13 | (11/11) Accurately ripped
14 | (11/11) Accurately ripped
15 | (11/11) Accurately ripped
16 | (11/11) Accurately ripped
17 | (11/11) Accurately ripped
18 | (11/11) Accurately ripped
19 | (11/11) Accurately ripped
20 | (11/11) Accurately ripped
21 | (11/11) Accurately ripped
22 | (11/11) Accurately ripped
23 | (11/11) Accurately ripped
24 | (11/11) Accurately ripped
[AccurateRip ID: 00414283-0463f546-45116a18] found.
Track [ CRC | V2 ] Status
01 [51e14493|149883ce] (06+05/11) Accurately ripped
02 [67a06a98|3e1b2367] (06+05/11) Accurately ripped
03 [fd852945|33c95c0a] (06+05/11) Accurately ripped
04 [4fb89656|0e9baf8f] (06+05/11) Accurately ripped
05 [04ec4d24|1efba58e] (06+05/11) Accurately ripped
06 [cf9d4ae1|0a10ecc2] (06+05/11) Accurately ripped
07 [6d7177e6|c8716441] (06+05/11) Accurately ripped
08 [9220de64|957ee3ee] (06+05/11) Accurately ripped
09 [acb3b130|9df301ae] (06+05/11) Accurately ripped
10 [9283791d|1a2d4967] (06+05/11) Accurately ripped
11 [60c9535e|69c14b20] (06+05/11) Accurately ripped
12 [3c3ac7a3|a22e0c02] (06+05/11) Accurately ripped
13 [56f9ab2f|1b94c674] (06+05/11) Accurately ripped
14 [d5853c9e|28cc225a] (06+05/11) Accurately ripped
15 [061251b9|bb4b2159] (06+05/11) Accurately ripped
16 [d64d7529|52e09b51] (06+05/11) Accurately ripped
17 [a8dd7c9a|5f9d300d] (06+05/11) Accurately ripped
18 [24f0a27e|8a87b5f8] (06+05/11) Accurately ripped
19 [968d5bea|e955dc21] (06+05/11) Accurately ripped
20 [479646e5|c1f5ec27] (06+05/11) Accurately ripped
21 [b90b749c|f4f01e20] (06+05/11) Accurately ripped
22 [0af42b9d|725b72f9] (06+05/11) Accurately ripped
23 [f10d72c1|db1fc939] (06+05/11) Accurately ripped
24 [23824ffb|fcb4bdbb] (06+05/11) Accurately ripped

Track Peak [ CRC32 ] [W/O NULL] [ LOG ]
– 95,1 [2CCD0A5C] [66D7A14D]
01 66,4 [024CF916] [0313B852] CRC32
02 73,0 [D31B010A] [02EF85D0] CRC32
03 48,1 [4035CAF5] [EE8DFC12] CRC32
04 53,9 [C716524C] [09018907] CRC32
05 76,7 [3C2F280C] [4C98642C] CRC32
06 71,8 [3B7BDB6A] [82BD3648] CRC32
07 84,1 [9367639A] [B8BFCE75] CRC32
08 50,2 [441931A1] [348EC6DE] CRC32
09 90,5 [423D2A45] [790BE643] CRC32
10 95,1 [CB6710E0] [97E919FC] CRC32
11 79,7 [4D285D49] [F4C005FF] CRC32
12 73,7 [115FDC37] [3AC2A6E4] CRC32
13 55,6 [4F2BEC95] [672F211A] CRC32
14 54,9 [3FD4C690] [8865F620] CRC32
15 71,1 [4741B5AD] [04253BD6] CRC32
16 78,0 [0D5E0E46] [B65FEF52] CRC32
17 77,7 [31973E90] [F219BEDD] CRC32
18 69,8 [F8159E14] [2E82BDF2] CRC32
19 49,3 [8F8E7ABD] [B7FB7EB6] CRC32
20 52,2 [3FFB654B] [FB1D4116] CRC32
21 62,3 [9B8A5484] [B9D01E19] CRC32
22 59,5 [31346B64] [41B3ACBB] CRC32
23 48,8 [033A3335] [A2FD3F36] CRC32
24 36,6 [680F5B4F] [38AC748D] CRC32

Django Reinhardt - The Classic Early Recordings [Recorded 1934-1939, 5CD Box Set] (2008)

CD 5: The Garnet Clark and 1937 HMV Sessions
EAC Rip | FLAC (tracks+.cue+log) - 202 MB
Genre: Gypsy Jazz, Swing | RAR 3% Rec. | Label: JSP Records (JSP901E)

Tracklist:
01. Exactly Like You (2:33)
02. Charleston (2:56)
03. You're Driving Me Crazy (2:58)
04. Tears (2:42)
05. Solitude (3:13)
06. Hot Lips (3:08)
07. Ain't Misbehavin' (2:58)
08. Rose Room (2:49)
09. Body And Soul (3:30)
10. When Day Is Done (3:17)
11. Runnin' Wild (2:58)
12. Chicago (3:30)
13. Liebestraum No. 3 (3:24)
14. Miss Annabelle Lee (2:52)
15. A Little Love, A Little Kiss (3:24)
16. Mystery Pacific (2:25)
17. In A Sentimental Mood (3:07)
18. The Sheik Of Araby (3:09)
19. Improvisation (3:02)
20. Parfum (3:04)
21. Alabamy Bound (2:53)
22. Rosetta (2:44)
23. Stardust (2:36)
24. The Object Of My Affection (2:49)

Total time: 01:12:02

Exact Audio Copy V1.0 beta 1 from 15. November 2010

EAC extraction logfile from 15. March 2011, 22:47

Django Reinhardt / The Classic Early Recordings - Disc E

Used drive : LITE-ON CD-RW SOHR-5238S Adapter: 6 ID: 3

Read mode : Secure
Utilize accurate stream : Yes
Defeat audio cache : Yes
Make use of C2 pointers : No

Read offset correction : 6
Overread into Lead-In and Lead-Out : No
Fill up missing offset samples with silence : Yes
Delete leading and trailing silent blocks : No
Null samples used in CRC calculations : Yes
Used interface : Installed external ASPI interface
Gap handling : Appended to previous track

Used output format : Internal WAV Routines
Sample format : 44.100 Hz; 16 Bit; Stereo


TOC of the extracted CD

Track | Start | Length | Start sector | End sector
––––––––––––––––––––––––––––-
1 | 0:00.00 | 2:33.24 | 0 | 11498
2 | 2:33.24 | 2:56.22 | 11499 | 24720
3 | 5:29.46 | 2:57.47 | 24721 | 38042
4 | 8:27.18 | 2:41.69 | 38043 | 50186
5 | 11:09.12 | 3:13.20 | 50187 | 64681
6 | 14:22.32 | 3:08.10 | 64682 | 78791
7 | 17:30.42 | 2:57.44 | 78792 | 92110
8 | 20:28.11 | 2:48.52 | 92111 | 104762
9 | 23:16.63 | 3:30.23 | 104763 | 120535
10 | 26:47.11 | 3:16.53 | 120536 | 135288
11 | 30:03.64 | 2:58.26 | 135289 | 148664
12 | 33:02.15 | 3:30.18 | 148665 | 164432
13 | 36:32.33 | 3:24.00 | 164433 | 179732
14 | 39:56.33 | 2:52.27 | 179733 | 192659
15 | 42:48.60 | 3:23.42 | 192660 | 207926
16 | 46:12.27 | 2:24.41 | 207927 | 218767
17 | 48:36.68 | 3:07.21 | 218768 | 232813
18 | 51:44.14 | 3:08.46 | 232814 | 246959
19 | 54:52.60 | 3:01.69 | 246960 | 260603
20 | 57:54.54 | 3:04.21 | 260604 | 274424
21 | 60:59.00 | 2:53.31 | 274425 | 287430
22 | 63:52.31 | 2:44.16 | 287431 | 299746
23 | 66:36.47 | 2:36.36 | 299747 | 311482
24 | 69:13.08 | 2:48.42 | 311483 | 324124


Track 1

Filename F:\eac\Django Reinhardt\Disc E\01 - Exactly Like You.wav

Pre-gap length 0:00:02.00

Peak level 67.5 %
Extraction speed 5.1 X
Track quality 100.0 %
Test CRC 5CA117A5
Copy CRC 5CA117A5
Accurately ripped (confidence 7) [436FE0EF]
Copy OK

Track 2

Filename F:\eac\Django Reinhardt\Disc E\02 - Charleston.wav

Pre-gap length 0:00:04.00

Peak level 63.9 %
Extraction speed 4.8 X
Track quality 99.9 %
Test CRC 21597A97
Copy CRC 21597A97
Accurately ripped (confidence 7) [2F005E68]
Copy OK

Track 3

Filename F:\eac\Django Reinhardt\Disc E\03 - You're Driving Me Crazy.wav

Pre-gap length 0:00:04.00

Peak level 76.8 %
Extraction speed 5.2 X
Track quality 99.9 %
Test CRC 4D476589
Copy CRC 4D476589
Accurately ripped (confidence 7) [53531E92]
Copy OK

Track 4

Filename F:\eac\Django Reinhardt\Disc E\04 - Tears.wav

Pre-gap length 0:00:04.00

Peak level 61.0 %
Extraction speed 6.2 X
Track quality 100.0 %
Test CRC 689914C3
Copy CRC 689914C3
Accurately ripped (confidence 7) [CD804ADB]
Copy OK

Track 5

Filename F:\eac\Django Reinhardt\Disc E\05 - Solitude.wav

Pre-gap length 0:00:04.00

Peak level 56.8 %
Extraction speed 5.9 X
Track quality 99.9 %
Test CRC C1DF83FA
Copy CRC C1DF83FA
Accurately ripped (confidence 7) [B6BFCDF6]
Copy OK

Track 6

Filename F:\eac\Django Reinhardt\Disc E\06 - Hot Lips.wav

Pre-gap length 0:00:04.00

Peak level 65.1 %
Extraction speed 7.1 X
Track quality 100.0 %
Test CRC 71AB036F
Copy CRC 71AB036F
Accurately ripped (confidence 7) [CB5BF569]
Copy OK

Track 7

Filename F:\eac\Django Reinhardt\Disc E\07 - Ain't Misbehavin'.wav

Pre-gap length 0:00:04.00

Peak level 50.1 %
Extraction speed 7.4 X
Track quality 100.0 %
Test CRC 905F2A84
Copy CRC 905F2A84
Accurately ripped (confidence 7) [4B3408E1]
Copy OK

Track 8

Filename F:\eac\Django Reinhardt\Disc E\08 - Rose Room.wav

Pre-gap length 0:00:04.00

Peak level 52.5 %
Extraction speed 6.3 X
Track quality 99.9 %
Test CRC 7462BFAB
Copy CRC 7462BFAB
Accurately ripped (confidence 7) [1FAD2273]
Copy OK

Track 9

Filename F:\eac\Django Reinhardt\Disc E\09 - Body And Soul.wav

Pre-gap length 0:00:04.00

Peak level 48.7 %
Extraction speed 8.1 X
Track quality 100.0 %
Test CRC AE1EE86F
Copy CRC AE1EE86F
Accurately ripped (confidence 7) [4F787B7B]
Copy OK

Track 10

Filename F:\eac\Django Reinhardt\Disc E\10 - When Day Is Done.wav

Pre-gap length 0:00:04.00

Peak level 46.6 %
Extraction speed 8.3 X
Track quality 100.0 %
Test CRC 15802CE4
Copy CRC 15802CE4
Accurately ripped (confidence 7) [70ABB043]
Copy OK

Track 11

Filename F:\eac\Django Reinhardt\Disc E\11 - Runnin' Wild.wav

Pre-gap length 0:00:04.00

Peak level 42.9 %
Extraction speed 8.5 X
Track quality 100.0 %
Test CRC 35A3D31D
Copy CRC 35A3D31D
Accurately ripped (confidence 7) [B91C08B6]
Copy OK

Track 12

Filename F:\eac\Django Reinhardt\Disc E\12 - Chicago.wav

Pre-gap length 0:00:04.00

Peak level 68.2 %
Extraction speed 8.9 X
Track quality 100.0 %
Test CRC 2D58BE9C
Copy CRC 2D58BE9C
Accurately ripped (confidence 7) [EB734EFE]
Copy OK

Track 13

Filename F:\eac\Django Reinhardt\Disc E\13 - Liebestraum No. 3.wav

Pre-gap length 0:00:04.00

Peak level 70.9 %
Extraction speed 9.2 X
Track quality 100.0 %
Test CRC A8A6814E
Copy CRC A8A6814E
Accurately ripped (confidence 7) [6605CB2F]
Copy OK

Track 14

Filename F:\eac\Django Reinhardt\Disc E\14 - Miss Annabelle Lee.wav

Pre-gap length 0:00:04.00

Peak level 48.3 %
Extraction speed 7.8 X
Track quality 99.9 %
Test CRC 20353789
Copy CRC 20353789
Accurately ripped (confidence 7) [AABDE41F]
Copy OK

Track 15

Filename F:\eac\Django Reinhardt\Disc E\15 - A Little Love, A Little Kiss.wav

Pre-gap length 0:00:04.00

Peak level 76.2 %
Extraction speed 8.3 X
Track quality 99.9 %
Test CRC F6DFDBF4
Copy CRC F6DFDBF4
Accurately ripped (confidence 7) [7DB7D814]
Copy OK

Track 16

Filename F:\eac\Django Reinhardt\Disc E\16 - Mystery Pacific.wav

Pre-gap length 0:00:04.00

Peak level 77.0 %
Extraction speed 9.3 X
Track quality 100.0 %
Test CRC 316F66B4
Copy CRC 316F66B4
Accurately ripped (confidence 7) [02F01132]
Copy OK

Track 17

Filename F:\eac\Django Reinhardt\Disc E\17 - In A Sentimental Mood.wav

Pre-gap length 0:00:04.00

Peak level 59.7 %
Extraction speed 8.5 X
Track quality 99.9 %
Test CRC 76CC3A3F
Copy CRC 76CC3A3F
Accurately ripped (confidence 7) [0DB533C5]
Copy OK

Track 18

Filename F:\eac\Django Reinhardt\Disc E\18 - The Sheik Of Araby.wav

Pre-gap length 0:00:04.00

Peak level 58.0 %
Extraction speed 3.7 X
Track quality 99.9 %
Test CRC 45EE73C7
Copy CRC 45EE73C7
Accurately ripped (confidence 7) [D4C8FED5]
Copy OK

Track 19

Filename F:\eac\Django Reinhardt\Disc E\19 - Improvisation.wav

Pre-gap length 0:00:04.00

Peak level 52.4 %
Extraction speed 6.8 X
Track quality 100.0 %
Test CRC 030EBA6F
Copy CRC 030EBA6F
Accurately ripped (confidence 7) [E045E2C5]
Copy OK

Track 20

Filename F:\eac\Django Reinhardt\Disc E\20 - Parfum.wav

Pre-gap length 0:00:04.00

Peak level 67.3 %
Extraction speed 6.0 X
Track quality 99.9 %
Test CRC E52148FB
Copy CRC E52148FB
Accurately ripped (confidence 7) [B4B2B611]
Copy OK

Track 21

Filename F:\eac\Django Reinhardt\Disc E\21 - Alabamy Bound.wav

Pre-gap length 0:00:04.00

Peak level 82.0 %
Extraction speed 7.1 X
Track quality 100.0 %
Test CRC E3D3B9A5
Copy CRC E3D3B9A5
Accurately ripped (confidence 7) [132B976D]
Copy OK

Track 22

Filename F:\eac\Django Reinhardt\Disc E\22 - Rosetta.wav

Pre-gap length 0:00:04.00

Peak level 54.8 %
Extraction speed 7.2 X
Track quality 100.0 %
Test CRC 1ABA9FF1
Copy CRC 1ABA9FF1
Accurately ripped (confidence 7) [4C4595E6]
Copy OK

Track 23

Filename F:\eac\Django Reinhardt\Disc E\23 - Stardust.wav

Pre-gap length 0:00:04.00

Peak level 55.6 %
Extraction speed 2.8 X
Track quality 100.0 %
Test CRC 847AB33E
Copy CRC 847AB33E
Accurately ripped (confidence 7) [1FCBE86F]
Copy OK

Track 24

Filename F:\eac\Django Reinhardt\Disc E\24 - The Object Of My Affection.wav

Pre-gap length 0:00:04.00

Peak level 66.6 %
Extraction speed 2.0 X
Track quality 100.0 %
Test CRC B89CC31E
Copy CRC B89CC31E
Accurately ripped (confidence 7) [A3D7FDF9]
Copy OK


All tracks accurately ripped

No errors occurred

End of status report

==== Log checksum E05072149D5E0B41C67EECC2D6E069C3BA2751881AAA21EF2DD905580F655699 ====

[CUETools log; Date: 15.06.2019 0:46:26; Version: 2.1.4]
[CTDB TOCID: 84lX_Wqyuf5jMS.tYtcTEoeAIVc-] found.
Track | CTDB Status
1 | (12/12) Accurately ripped
2 | (10/12) Accurately ripped
3 | (12/12) Accurately ripped
4 | (12/12) Accurately ripped
5 | (12/12) Accurately ripped
6 | (12/12) Accurately ripped
7 | (12/12) Accurately ripped
8 | (12/12) Accurately ripped
9 | (12/12) Accurately ripped
10 | (12/12) Accurately ripped
11 | (12/12) Accurately ripped
12 | (12/12) Accurately ripped
13 | (12/12) Accurately ripped
14 | (12/12) Accurately ripped
15 | (12/12) Accurately ripped
16 | (12/12) Accurately ripped
17 | (12/12) Accurately ripped
18 | (12/12) Accurately ripped
19 | (12/12) Accurately ripped
20 | (12/12) Accurately ripped
21 | (10/12) Accurately ripped
22 | ( 9/12) Accurately ripped
23 | (10/12) Accurately ripped
24 | (10/12) Accurately ripped
[AccurateRip ID: 003e1bfe-0438f32f-7410e118] found.
Track [ CRC | V2 ] Status
01 [436fe0ef|3a3be430] (07+05/12) Accurately ripped
02 [2f005e68|e498c073] (07+05/12) Accurately ripped
03 [53531e92|6cc2b41f] (07+05/12) Accurately ripped
04 [cd804adb|4c74d208] (07+05/12) Accurately ripped
05 [b6bfcdf6|5c046510] (07+05/12) Accurately ripped
06 [cb5bf569|8ec3ec39] (07+05/12) Accurately ripped
07 [4b3408e1|0a1f4af2] (07+05/12) Accurately ripped
08 [1fad2273|d925f653] (07+05/12) Accurately ripped
09 [4f787b7b|b457ae81] (07+05/12) Accurately ripped
10 [70abb043|fa538920] (07+05/12) Accurately ripped
11 [b91c08b6|2ddc3f1d] (07+05/12) Accurately ripped
12 [eb734efe|ff51a05f] (07+05/12) Accurately ripped
13 [6605cb2f|22da1855] (07+05/12) Accurately ripped
14 [aabde41f|3f07d164] (07+05/12) Accurately ripped
15 [7db7d814|9a48173b] (07+05/12) Accurately ripped
16 [02f01132|a62a88d1] (07+05/12) Accurately ripped
17 [0db533c5|8f896404] (07+05/12) Accurately ripped
18 [d4c8fed5|9505b178] (07+05/12) Accurately ripped
19 [e045e2c5|34f3a4e4] (07+05/12) Accurately ripped
20 [b4b2b611|dddcfcfa] (07+05/12) Accurately ripped
21 [132b976d|70384926] (07+05/12) Accurately ripped
22 [4c4595e6|59ff11c3] (07+05/12) Accurately ripped
23 [1fcbe86f|3cfbdea3] (07+05/12) Accurately ripped
24 [a3d7fdf9|fa5ec57d] (07+05/12) Accurately ripped

Track Peak [ CRC32 ] [W/O NULL] [ LOG ]
– 82,0 [FA5F5247] [8C502A97]
01 67,5 [5CA117A5] [B1A93216] CRC32
02 63,9 [21597A97] [032A5F37] CRC32
03 76,8 [4D476589] [C3CA6EA4] CRC32
04 61,0 [689914C3] [BD89BBE8] CRC32
05 56,8 [C1DF83FA] [C3711A46] CRC32
06 65,1 [71AB036F] [FF9B0A3C] CRC32
07 50,1 [905F2A84] [FB10E6BC] CRC32
08 52,5 [7462BFAB] [FB97697A] CRC32
09 48,7 [AE1EE86F] [D3256A3E] CRC32
10 46,6 [15802CE4] [F566BA62] CRC32
11 42,9 [35A3D31D] [01F0EB84] CRC32
12 68,2 [2D58BE9C] [7AAB82B5] CRC32
13 70,9 [A8A6814E] [4382D15C] CRC32
14 48,3 [20353789] [7040F7B4] CRC32
15 76,2 [F6DFDBF4] [D10756AA] CRC32
16 77,0 [316F66B4] [9FB30933] CRC32
17 59,7 [76CC3A3F] [5A4C45B0] CRC32
18 58,0 [45EE73C7] [F58874F0] CRC32
19 52,4 [030EBA6F] [32BF766A] CRC32
20 67,3 [E52148FB] [6E973E4B] CRC32
21 82,0 [E3D3B9A5] [A27A2719] CRC32
22 54,8 [1ABA9FF1] [D06C2FAF] CRC32
23 55,6 [847AB33E] [2E3C1900] CRC32
24 66,6 [B89CC31E] [F9C67700] CRC32

Thanks to the original releaser

See also: