Subcategories

Dmitri Bashkirov - Piano: Haydn, Schubert, Brahms, Liszt, Grieg, Debussy, Rachmaninoff, Prokofiev and Shchedrin (2015) 2CDs

Posted By: Designol
Dmitri Bashkirov - Piano: Haydn, Schubert, Brahms, Liszt, Grieg, Debussy, Rachmaninoff, Prokofiev and Shchedrin (2015) 2CDs

Dmitri Bashkirov plays Joseph Haydn, Franz Schubert, Johannes Brahms, Franz Liszt
Edvard Grieg, Claude Debussy, Sergey Rachmaninov, Sergey Prokofiev, Radion Shchedrin

EAC | FLAC | Image (Cue&Log) ~ 582 Mb | Mp3 (CBR320) ~ 339 Mb | Scans included
Genre: Classical | Label: Melodiya | # MEL CD 1002288 | Time: 01:25:28

Firma Melodiya presents an album of the remarkable Russian pianist Dmitri Bashkirov.

"Bashkirov moved from Tbilisi to Moscow in the 1950s to study at the conservatory, and his first performance caused a real sensation", remembered the prominent organist Harry Grodberg. After he graduated the Moscow Conservatory and completed his post-graduate course under Alexander Goldenweiser, Bashkirov received the first prize of the Long-Thibault International Competition in Paris. The piano school of Heinrich Neuhaus had an unconditional influence on the young pianist.

"This is a romantic pianist … of modern formation. Both dreaminess and tenderness are characteristic of him. But what he has on the foreground when he plays is intensity of feeling", wrote one of the music critics about Dmitri Bashkirov. Combining impeccable technical virtuosity with emotional depth, brilliant artistry with the skill of a dramatist performer, he mastered an extensive concert repertoire and spent a lot of time in studio as well recording for Melodiya and later for the biggest European labels. Bashkirov played music of the romantic composers and French impressionists with particular inspiration, but his interpretations of Prokofiev were also especially impressive, and the classical harmonies of Haydn and Mozart were followed by sonorous energy of Rachmaninoff and sharp distinctness of Shchedrin.

The album includes recordings of works of Haydn, Schubert, Brahms, Liszt, Grieg, Debussy, Rachmaninoff, Prokofiev and Shchedrin made by Dmitri Bashkirov in 1957 to 1972.

Dmitri Bashkirov - Piano: Haydn, Schubert, Brahms, Liszt, Grieg, Debussy, Rachmaninoff, Prokofiev and Shchedrin (2015) 2CDs



Tracklist:

CD1:

Joseph Haydn
Sonata in E flat major, Op.69, Hob. XVI:49
1. I. Allegro (5:12)
2. II. Adagio e cantabile (8:11)
3. III. Finale. Tempo di Menuet (4:00)

Franz Schubert
Sonata No.16 in A minor, D.845
4. I. Moderato (10:14)
5. II. Andante poco mosso (8:55)
6. III. Scherzo - Allegro vivace – Un poco più lento (5:06)
7. IV. Rondo. Allegro vivace (4:41)

Johannes Brahms
Sonata No.2 in F sharp minor, Op.2
8. I. Allegro non troppo, ma energico (6:06)
9. II. Andante con espressione (5:13)
10. III. Scherzo: Allegro (3:59)
11. IV. Finale: Sostenuto - Allegro vivace (10:11)


CD2:

Franz Liszt
1. Valse oubliee No.2, S. 215/2 (5:37)
2. Consolation, S. 172/3 (4:03)

Edvard Grieg
3. Nocturne in C major, Op. 54 No. 4 from 'Lyric Pieces' (3:47)

Claude Debussy
Préludes
4. La serenade interrompue, L.117 No.9 (2:20)
5. La danse de Puck, L.117 No.11 (2:28)
6. General Lavine - eccentric, L.123 No.6 (2:36)
7. L'Isle Joyeuse, L.106 (5:50)

Alexander Scriabin
8. Six Preludes (7:00)
9. Mazurka in E minor, Op.25 No.3 (1:54)
10. Waltz in A flat major, Op.38 (5:46)

Sergei Rachmaninov
11. Moments musicaux in E minor, Op.16 No.4 (3:15)
12. Moments musicaux in C major, Op.16 No.6 (4:21)

Sergei Prokofiev
13. 9 pieces from Visions fugitives, Op.22 (Nos. 1,3,11,16,10,4,6,14,17) (8:48)
14. March from the Opera 'The Love for Three Oranges' (1:40)

Rodion Shchedrin
15. I. Allegro da sonata (4:56)
16. II. Variazioni polifonici (4:08)
17. III. Rondo-Toccata (3:42)
18. Humoresque (2:03)


Exact Audio Copy V1.1 from 23. June 2015

EAC extraction logfile from 2. January 2016, 20:12

Dmitri Bashkirov / Dmitri Bashkirov - CD1

Used drive : HL-DT-STDVDRAM GU70N Adapter: 1 ID: 0

Read mode : Secure
Utilize accurate stream : Yes
Defeat audio cache : Yes
Make use of C2 pointers : No

Read offset correction : 48
Overread into Lead-In and Lead-Out : No
Fill up missing offset samples with silence : Yes
Delete leading and trailing silent blocks : No
Null samples used in CRC calculations : Yes
Used interface : Native Win32 interface for Win NT & 2000

Used output format : User Defined Encoder
Selected bitrate : 128 kBit/s
Quality : High
Add ID3 tag : No
Command line compressor : C:\Program Files (x86)\Exact Audio Copy\Flac\flac.exe
Additional command line options : -V -8 -T "Date=%year%" -T "Genre=%genre%" %source%


TOC of the extracted CD

Track | Start | Length | Start sector | End sector
––––––––––––––––––––––––––––-
1 | 0:00.00 | 5:11.41 | 0 | 23365
2 | 5:11.41 | 8:10.65 | 23366 | 60180
3 | 13:22.31 | 3:59.59 | 60181 | 78164
4 | 17:22.15 | 10:13.33 | 78165 | 124172
5 | 27:35.48 | 8:54.62 | 124173 | 164284
6 | 36:30.35 | 5:05.52 | 164285 | 187211
7 | 41:36.12 | 4:40.70 | 187212 | 208281
8 | 46:17.07 | 6:06.07 | 208282 | 235738
9 | 52:23.14 | 5:13.14 | 235739 | 259227
10 | 57:36.28 | 3:59.26 | 259228 | 277178
11 | 61:35.54 | 10:11.24 | 277179 | 323027


Range status and errors

Selected range

Filename C:\temp\Bashkirov - Piano\CD1\Bashkirov - CD1.wav

Peak level 100.0 %
Extraction speed 2.2 X
Range quality 99.9 %
Test CRC A9922635
Copy CRC A9922635
Copy OK

No errors occurred


AccurateRip summary

Track 1 cannot be verified as accurate (confidence 1) [CE71CD65], AccurateRip returned [8048000F] (AR v2)
Track 2 accurately ripped (confidence 1) [4FDB0D52] (AR v2)
Track 3 accurately ripped (confidence 1) [F2067234] (AR v2)
Track 4 accurately ripped (confidence 1) [6F66F303] (AR v2)
Track 5 accurately ripped (confidence 1) [BB25317C] (AR v2)
Track 6 accurately ripped (confidence 1) [619865F0] (AR v2)
Track 7 accurately ripped (confidence 1) [8998448A] (AR v2)
Track 8 accurately ripped (confidence 1) [0F173E76] (AR v2)
Track 9 accurately ripped (confidence 1) [3DA1BE87] (AR v2)
Track 10 accurately ripped (confidence 1) [F8E25EBC] (AR v2)
Track 11 cannot be verified as accurate (confidence 1) [0622B600], AccurateRip returned [220632D5] (AR v2)

9 track(s) accurately ripped
2 track(s) could not be verified as accurate

Some tracks could not be verified as accurate

End of status report

==== Log checksum BC76F6732F88F78906B0E4A75B33FA13902E40813676E8783081E1FC294F397E ====

foobar2000 1.2 / Dynamic Range Meter 1.1.1
log date: 2017-06-08 03:47:04

––––––––––––––––––––––––––––––––––––––––
Analyzed: Dmitri Bashkirov / Dmitri Bashkirov - CD1
––––––––––––––––––––––––––––––––––––––––

DR Peak RMS Duration Track
––––––––––––––––––––––––––––––––––––––––
DR13 0.00 dB -20.36 dB 5:12 01-Haydn: Sonata in E flat major, Op.69, Hob.XVI:49 - I. Allegro
DR14 -5.49 dB -24.91 dB 8:11 02-Haydn: Sonata in E flat major, Op.69, Hob.XVI:49 - II. Adagio e cantabile
DR13 -4.73 dB -21.67 dB 4:00 03-Haydn: Sonata in E flat major, Op.69, Hob.XVI:49 - III. Finale. Tempo di Menuet
DR13 0.00 dB -18.58 dB 10:13 04-Schubert: Sonata No.16 in A minor, D.845 - I. Moderato
DR12 -2.87 dB -20.73 dB 8:55 05-Schubert: Sonata No.16 in A minor, D.845 - II. Andante poco mosso
DR11 -3.84 dB -20.08 dB 5:06 06-Schubert: Sonata No.16 in A minor, D.845 - III. Scherzo. Allegro vivace - Tri…
DR10 -2.70 dB -17.79 dB 4:41 07-Schubert: Sonata No.16 in A minor, D.845 - IV. Rondo. Allegro vivace
DR14 0.00 dB -19.22 dB 6:06 08-Brahms: Sonata No.2 in F sharp minor, Op.2 - I. Allegro non troppo, ma energico
DR14 -0.30 dB -22.81 dB 5:13 09-Brahms: Sonata No.2 in F sharp minor, Op.2 - II. Andante con espressione
DR14 -0.28 dB -21.38 dB 3:59 10-Brahms: Sonata No.2 in F sharp minor, Op.2 - III. Scherzo: Allegro
DR14 -0.28 dB -19.72 dB 10:11 11-Brahms: Sonata No.2 in F sharp minor, Op.2 - IV. Finale: Sostenuto - Allegro …
––––––––––––––––––––––––––––––––––––––––

Number of tracks: 11
Official DR value: DR13

Samplerate: 44100 Hz
Channels: 2
Bits per sample: 16
Bitrate: 551 kbps
Codec: FLAC
================================================================================


Exact Audio Copy V1.1 from 23. June 2015

EAC extraction logfile from 3. January 2016, 0:36

Dmitri Bashkirov / Dmitri Bashkirov - CD2

Used drive : HL-DT-STDVDRAM GU70N Adapter: 1 ID: 0

Read mode : Secure
Utilize accurate stream : Yes
Defeat audio cache : Yes
Make use of C2 pointers : No

Read offset correction : 48
Overread into Lead-In and Lead-Out : No
Fill up missing offset samples with silence : Yes
Delete leading and trailing silent blocks : No
Null samples used in CRC calculations : Yes
Used interface : Native Win32 interface for Win NT & 2000

Used output format : User Defined Encoder
Selected bitrate : 128 kBit/s
Quality : High
Add ID3 tag : No
Command line compressor : C:\Program Files (x86)\Exact Audio Copy\Flac\flac.exe
Additional command line options : -V -8 -T "Date=%year%" -T "Genre=%genre%" %source%


TOC of the extracted CD

Track | Start | Length | Start sector | End sector
––––––––––––––––––––––––––––-
1 | 0:00.00 | 5:37.13 | 0 | 25287
2 | 5:37.13 | 4:03.24 | 25288 | 43536
3 | 9:40.37 | 3:46.44 | 43537 | 60530
4 | 13:27.06 | 2:19.68 | 60531 | 71023
5 | 15:46.74 | 2:28.06 | 71024 | 82129
6 | 18:15.05 | 2:35.50 | 82130 | 93804
7 | 20:50.55 | 5:49.59 | 93805 | 120038
8 | 26:40.39 | 7:00.10 | 120039 | 151548
9 | 33:40.49 | 1:53.32 | 151549 | 160055
10 | 35:34.06 | 5:45.37 | 160056 | 185967
11 | 41:19.43 | 3:14.37 | 185968 | 200554
12 | 44:34.05 | 4:21.21 | 200555 | 220150
13 | 48:55.26 | 8:47.34 | 220151 | 259709
14 | 57:42.60 | 1:39.68 | 259710 | 267202
15 | 59:22.53 | 4:55.62 | 267203 | 289389
16 | 64:18.40 | 4:07.59 | 289390 | 307973
17 | 68:26.24 | 3:41.47 | 307974 | 324595
18 | 72:07.71 | 2:03.09 | 324596 | 333829


Range status and errors

Selected range

Filename C:\temp\Bashkirov - Piano\CD2\Bashkirov - CD2.wav

Peak level 98.7 %
Extraction speed 2.2 X
Range quality 100.0 %
Test CRC DEFF8E3D
Copy CRC DEFF8E3D
Copy OK

No errors occurred


AccurateRip summary

Track 1 accurately ripped (confidence 1) [A508ECAF] (AR v2)
Track 2 accurately ripped (confidence 1) [219DD317] (AR v2)
Track 3 accurately ripped (confidence 1) [7F1FC17C] (AR v2)
Track 4 accurately ripped (confidence 1) [E367099A] (AR v2)
Track 5 accurately ripped (confidence 1) [4B61594C] (AR v2)
Track 6 accurately ripped (confidence 1) [BFD905DD] (AR v2)
Track 7 accurately ripped (confidence 1) [6C9FD0B9] (AR v2)
Track 8 cannot be verified as accurate (confidence 1) [07A31D37], AccurateRip returned [CE1365E8] (AR v2)
Track 9 accurately ripped (confidence 1) [7CB46A8C] (AR v2)
Track 10 accurately ripped (confidence 1) [049B7FEE] (AR v2)
Track 11 accurately ripped (confidence 1) [07D834E7] (AR v2)
Track 12 accurately ripped (confidence 1) [A80A4C12] (AR v2)
Track 13 accurately ripped (confidence 1) [9142A3F0] (AR v2)
Track 14 accurately ripped (confidence 1) [083FCB99] (AR v2)
Track 15 accurately ripped (confidence 1) [F9DD628F] (AR v2)
Track 16 accurately ripped (confidence 1) [E2872164] (AR v2)
Track 17 accurately ripped (confidence 1) [554E08F0] (AR v2)
Track 18 accurately ripped (confidence 1) [8ABA45D6] (AR v2)

17 track(s) accurately ripped
1 track(s) could not be verified as accurate

Some tracks could not be verified as accurate

End of status report

==== Log checksum 762BDB85758AD49027F37811A0B84AD7A63C8F8C964CDCC80A350137AF249971 ====

foobar2000 1.2 / Dynamic Range Meter 1.1.1
log date: 2017-06-08 03:47:27

––––––––––––––––––––––––––––––––––––––––
Analyzed: Dmitri Bashkirov / Dmitri Bashkirov - CD2
––––––––––––––––––––––––––––––––––––––––

DR Peak RMS Duration Track
––––––––––––––––––––––––––––––––––––––––
DR13 -1.91 dB -22.09 dB 5:37 01-Liszt: Valse oubliee No.2, S. 215/2
DR13 -9.97 dB -28.16 dB 4:03 02-Liszt: Consolation, S. 172/3
DR14 -4.64 dB -24.90 dB 3:47 03-Grieg: Nocturne in C major, Op. 54 No. 4 from 'Lyric Pieces'
DR14 -0.11 dB -22.49 dB 2:20 04-Debussy: Preludes - La serenade interrompue, L.117 No.9
DR11 -5.97 dB -22.83 dB 2:28 05-Debussy: Preludes - La danse de Puck, L.117 No.11
DR13 -4.76 dB -22.96 dB 2:36 06-Debussy: Preludes - General Lavine - eccentric, L.123 No.6
DR13 -3.58 dB -22.12 dB 5:50 07-Debussy: Preludes - L'Isle Joyeuse, L.106
DR15 -1.24 dB -22.54 dB 7:00 08-Scriabin: Six Preludes
DR11 -6.62 dB -25.84 dB 1:53 09-Scriabin: Mazurka in E minor, Op.25 No.3
DR13 -1.34 dB -20.59 dB 5:45 10-Scriabin: Waltz in A flat major, Op.38
DR13 -2.09 dB -18.61 dB 3:14 11-Rachmaninov: Moments musicaux in E minor, Op.16 No.4
DR11 -2.37 dB -17.49 dB 4:21 12-Rachmaninov: Moments musicaux in C major, Op.16 No.6
DR13 -0.19 dB -19.25 dB 8:47 13-Prokofiev: 9 pieces from Visions fugitives, Op.22 (Nos. 1,3,11,16,10,4,6,14,17)
DR13 -0.13 dB -20.47 dB 1:40 14-Prokofiev: March from the Opera 'The Love for Three Oranges'
DR11 -1.37 dB -18.34 dB 4:56 15-Shchedrin: Piano Sonata No.1 in C major - I. Allegro da sonata
DR14 -2.26 dB -22.05 dB 4:08 16-Shchedrin: Piano Sonata No.1 in C major - II. Variazioni polifonici
DR13 -0.21 dB -17.59 dB 3:42 17-Shchedrin: Piano Sonata No.1 in C major - III. Rondo-Toccata
DR13 -7.73 dB -26.08 dB 2:03 18-Shchedrin: Humoresque
––––––––––––––––––––––––––––––––––––––––

Number of tracks: 18
Official DR value: DR13

Samplerate: 44100 Hz
Channels: 2
Bits per sample: 16
Bitrate: 554 kbps
Codec: FLAC
================================================================================

Dmitri Bashkirov - Piano: Haydn, Schubert, Brahms, Liszt, Grieg, Debussy, Rachmaninoff, Prokofiev and Shchedrin (2015) 2CDs

All thanks to original releaser - A-Z

More interesting music in My Blog