Subcategories

Dokken - Under Lock And Key (1985) [2009, Japan SHM-CD] Repost

Posted By: v3122
Dokken - Under Lock And Key (1985) [2009, Japan SHM-CD] Repost

Dokken - Under Lock And Key (1985) [2009, Japan SHM-CD]
Hard Rock | EAC Rip | Flac(Image) + Cue + Log & iPod M4A(Tracks) & MP3 CBR 320Kbps
Scans Included | Electra | WPCR-13573 | ~ 351 or 352 or 133 Mb

Sure, they may have been the kings of heavy metal Cheez Whiz, but unlike many image-conscious '80s rockers, Dokken wrote genuinely appealing songs. Frontman Don Dokken's voice carried better than most belters, and George Lynch was a ferociously gifted guitarist who could tug at the heartstrings as easily as he could burn down the bedroom. Under Lock and Key, which wasn't as combustive as Dokken's first two albums Breaking the Chains and Tooth and Nail, seemed like an effort by the band to attract a larger following. It worked. Candy metal softballs like "It's Not Love," "Unchain the Night," and "In My Dreams" were heavy enough to keep the guys rockin', but sensitive enough to attract the chicks. And isn't that what '80s metal was all about?

~ Jon Wiederhorn
Dokken - Under Lock And Key (1985) [2009, Japan SHM-CD] Repost

Dokken Biography:

Formed: 1978, Los Angeles, CA
Genres: Rock
Representative Albums: "Beast from the East", "The Definitive Rock Collection", "Under Lock and Key"
Representative Songs: "Alone Again", "In My Dreams", "Breaking the Chains"

At a time when the charts were ruled by pop-metal acts, Dokken was a major attraction throughout the 1980s. With vocalist Don Dokken's captivating stage presence and guitarist George Lynch's high-energy style, the band combined rockers such as "Kiss of Death" and power ballads such as "Alone Again" in order to create a number of best-selling albums.

Dokken's roots date back to the late '70s, when Lynch, along with drummer Mick Brown, teamed up with Don Dokken to form the Boyz. In 1981, Don moved to Germany and was signed to Carerre Records. The band, now simply known as Dokken, recorded and released Breaking the Chains, their first studio album, in 1983. While the record failed to retain a decent chart position in the United States, the group was immensely popular in Europe.

After a tour in Germany, Dokken was signed to Elektra Records, and Jeff Pilson became their first official bassist. In 1984, the band released Tooth and Nail, which featured the hit songs "Into the Fire," "Just Got Lucky," and "Alone Again." With heavy MTV and radio airplay, Dokken found themselves topping the charts worldwide, and Tooth and Nail eventually sold over one-million copies in the U.S. alone. Following a tour with the Scorpions, the group recorded Under Lock and Key in 1985, which had a similar success due to the hits "In My Dreams" and "It's Not Love." In 1987, the band released Back for the Attack, which featured a track they had written as the subtitle for the third Nightmare on Elm Street film, "Dream Warriors." The coinciding music video, which included scenes of the band interacting with the movie's characters, was their most popular ever, and Back for the Attack became Dokken's third record to reach platinum status. The album's subsequent tour resulted in a live compilation, Beast From the East, which was released shortly before the band broke up in 1988 due to Don Dokken's and Lynch's creative differences.

After the disbanding of Dokken, Don pursued a solo career with Up from the Ashes, and Lynch formed the Lynch Mob, releasing an album in 1990; both releases failed to chart. In 1992, the band reunited, but it wasn't until 1995 when they signed with Columbia Records and released Dysfunctional, which was met with harsh reviews and poor sales. Tensions once again seemed to hover around the group as they recorded the live acoustic release, One Live Night, in 1996 under the CMC label. In 1997, the band released Shadowlife, which was met with a similar response to their past two recordings. In 1998, Lynch left a second time to reunite Lynch Mob, and was replaced with Winger guitarist Reb Beach for 1999's Erase the Slate. This was followed in 2000 by another concert record, Live from the Sun, which captured the Beach lineup at Anaheim's Sun Theater. Beach left the group and was replaced by John Norum, and the group recorded Long Way Home for release in the spring of 2002. In 2003, ex-Warlock guitarist Jonathan Levin and ex-Ted Nugent and Yngwie Malmsteen bassist Barry Sparks joined the group, resulting in the release of Hell to Pay the following year. The band returned to the studio in 2008 for Lightning Strikes Again.

~ Barry Weber

Dokken - Under Lock And Key (1985):

Dokken - Under Lock And Key (1985) [2009, Japan SHM-CD] Repost

Tracklist:

01 Unchain The Night
02 The Hunter
03 In My Dreams
04 Slipping Away
05 Lightnin' Strikes Again
06 It's Not Love
07 Jaded Heart
08 Don't Lie To Me
09 Will The Sun Rise
10 Til The Living End

Dokken - Under Lock And Key (1985) [2009, Japan SHM-CD] Repost

Personnel:

Don Dokken - Vocals, Guitars
George Lynch - Guitars, Backing Vocals
Jeff Pilson - Bass, Keyboards, Guitar
Mick Brown - Drums, Backing Vocals

Exact Audio Copy V0.99 prebeta 5 from 4. May 2009

Отчёт EAC об извлечении, выполненном 15. июля 2010, 20:51

Dokken / Under Lock And Key

Дисковод: TSSTcorpDVD+-RW TS-L632H Adapter: 0 ID: 0

Режим чтения : Достоверность
Использование точного потока : Да
Отключение кэша аудио : Да
Использование указателей C2 : Нет

Коррекция смещения при чтении : 6
Способность читать области Lead-in и Lead-out : Нет
Заполнение пропущенных сэмплов тишиной : Да
Удаление блоков с тишиной в начале и конце : Нет
При вычислениях CRC использовались нулевые сэмплы : Да
Интерфейс : Встроенный Win32-интерфейс для Win NT/2000

Выходной формат : Внутренние WAV-операции
Формат сэмплов : 44.100 Гц; 16 бит; стерео


TOC извлечённого CD

Трек | Старт | Длительность | Начальный сектор | Конечный сектор
––––––––––––––––––––––––––––––––––-
1 | 0:00.00 | 5:20.22 | 0 | 24021
2 | 5:20.22 | 4:07.52 | 24022 | 42598
3 | 9:27.74 | 4:20.24 | 42599 | 62122
4 | 13:48.23 | 3:48.09 | 62123 | 79231
5 | 17:36.32 | 3:49.01 | 79232 | 96407
6 | 21:25.33 | 5:01.45 | 96408 | 119027
7 | 26:27.03 | 4:17.03 | 119028 | 138305
8 | 30:44.06 | 3:37.41 | 138306 | 154621
9 | 34:21.47 | 4:10.47 | 154622 | 173418
10 | 38:32.19 | 4:02.73 | 173419 | 191641


Характеристики диапазона извлечения и сообщения об ошибках

Выбранный диапазон

Имя файла F:\Lossless\Stranger\1991 No More Dirty Deals [RR-168]\Dokken — Under Lock And Key.wav

Пиковый уровень 100.0 %
Качество диапазона 99.9 %
CRC копии F5F10463
Копирование… OK

Ошибок не произошло


AccurateRip: сводка

Трек 1 точное извлечение (доверие 3) [B88CE5C5]
Трек 2 точное извлечение (доверие 3) [43895905]
Трек 3 точное извлечение (доверие 3) [8B5A43D1]
Трек 4 точное извлечение (доверие 3) [38D684F9]
Трек 5 точное извлечение (доверие 3) [7982C4D9]
Трек 6 точное извлечение (доверие 3) [02C85BFF]
Трек 7 точное извлечение (доверие 3) [816749B8]
Трек 8 точное извлечение (доверие 3) [DFE01A2E]
Трек 9 точное извлечение (доверие 3) [AF1B6FAE]
Трек 10 точное извлечение (доверие 3) [7D651738]

Все треки извлечены точно

Конец отчёта

foobar2000 1.1.18 / Dynamic Range Meter 1.1.1
log date: 2013-02-10 00:55:03

––––––––––––––––––––––––––––––––––––––––
Analyzed: Dokken / Under Lock and Key
––––––––––––––––––––––––––––––––––––––––

DR Peak RMS Duration Track
––––––––––––––––––––––––––––––––––––––––
DR6 0.00 dB -7.80 dB 5:20 01-Unchain the Night
DR7 0.00 dB -7.85 dB 4:08 02-The Hunter
DR7 0.00 dB -8.41 dB 4:20 03-In My Dreams
DR8 0.00 dB -10.55 dB 3:48 04-Slippin' Away
DR7 0.00 dB -8.63 dB 3:49 05-Lightnin' Strikes Again
DR7 0.00 dB -9.18 dB 5:02 06-It's Not Love
DR6 0.00 dB -8.50 dB 4:17 07-Jaded Heart
DR7 0.00 dB -8.27 dB 3:38 08-Don't Lie to Me
DR6 0.00 dB -7.74 dB 4:11 09-Will the Sun Rise
DR6 0.00 dB -7.87 dB 4:03 10-Til the Livin' End
––––––––––––––––––––––––––––––––––––––––

Number of tracks: 10
Official DR value: DR7

Samplerate: 44100 Hz
Channels: 2
Bits per sample: 16
Bitrate: 1036 kbps
Codec: FLAC

Dokken - Under Lock And Key (1985) [2009, Japan SHM-CD] Repost

All thanks go to baddco

Download Dokken - Under Lock And Key (1985):