Tags
Language
Tags

Don Ellis - Don Ellis At Fillmore (1970) [Reissue 2005] (Re-up)

Posted By: gribovar
Don Ellis - Don Ellis At Fillmore (1970) [Reissue 2005] (Re-up)

Don Ellis - Don Ellis At Fillmore (1970) [Reissue 2005]
EAC Rip | FLAC (tracks+.cue+log) - 562 MB | MP3 CBR 320 kbps (LAME 3.93) - 203 MB | Covers - 42 MB
Genre: Jazz, Big Band, Progressive Jazz | RAR 3% Rec. | Label: Wounded Bird Records (WOU 3024)

This is a crazy and consistently riotous two-disc set that features the Don Ellis Orchestra at its height. The 20-piece orchestra (with trumpeter Ellis doubling on drums along with a regular drummer and two percussionists) often used electronic devices (such as ring modulators) at the time to really distort its sound. When coupled with odd time signatures and such exuberant soloists as Ellis, trombonist Glenn Ferris, tenor saxophonist John Klemmer (showcased on the remarkable "Excursion II"), guitarist Jay Graydon, altoists Fred Selden and Lonnie Shetter, and tenor Sam Falzone, the results are quite memorable. Highlights of the date include "Final Analysis" (which contains a countless number of false endings), a bizarre rendition of "Hey Jude," and an often hilarious remake of "Pussy Wiggle Stomp." In 2005, the Wounded Bird label reissued this session on CD for the first time.
CD 1 Tracklist:
01. Final Analysis
02. Excursion II
03. The Magic Bus Ate My Doughnut
04. The Blues
05. Salvatore Sam
06. Rock Odyssey

Total time: 44:30

CD 2 Tracklist:
01. Hey Jude
02. Antea
03. Old Man's Tear
04. Great Divide
05. Pussy Wiggle Stomp

Total time: 42:00

Exact Audio Copy V0.99 prebeta 4 from 23. January 2008

EAC extraction logfile from 8. October 2009, 22:10

Don Ellis / At Fillmore (Disc 1)

Used drive : HL-DT-STDVD-RAM GH22NP20 Adapter: 0 ID: 0

Read mode : Secure
Utilize accurate stream : Yes
Defeat audio cache : Yes
Make use of C2 pointers : No

Read offset correction : 102
Overread into Lead-In and Lead-Out : No
Fill up missing offset samples with silence : Yes
Delete leading and trailing silent blocks : No
Null samples used in CRC calculations : Yes
Used interface : Installed external ASPI interface
Gap handling : Appended to previous track

Used output format : User Defined Encoder
Selected bitrate : 320 kBit/s
Quality : High
Add ID3 tag : No
Command line compressor : C:\Program Files\Exact Audio Copy\Flac\flac.exe
Additional command line options : -V -8 -T "artist=%a" -T "title=%t" -T "album=%g" -T "date=%y" -T "tracknumber=%n" -T "genre=%m" %s


TOC of the extracted CD

Track | Start | Length | Start sector | End sector
––––––––––––––––––––––––––––-
1 | 0:00.00 | 13:58.54 | 0 | 62903
2 | 13:58.54 | 5:43.03 | 62904 | 88631
3 | 19:41.57 | 2:30.21 | 88632 | 99902
4 | 22:12.03 | 7:26.18 | 99903 | 133370
5 | 29:38.21 | 5:07.31 | 133371 | 156426
6 | 34:45.52 | 9:44.39 | 156427 | 200265


Track 1

Filename D:\music\Musicgate's rips\Don Ellis - At Fillmore (1970) {2005, Wounded Bird WOU 3024}\CD1\01 - Final Analysis.wav

Pre-gap length 0:00:02.00

Peak level 95.9 %
Track quality 100.0 %
Test CRC 35E8231F
Copy CRC 35E8231F
Accurately ripped (confidence 2) [42037A07]
Copy OK

Track 2

Filename D:\music\Musicgate's rips\Don Ellis - At Fillmore (1970) {2005, Wounded Bird WOU 3024}\CD1\02 - Excursion II.wav

Peak level 96.0 %
Track quality 100.0 %
Test CRC 8D2B243A
Copy CRC 8D2B243A
Accurately ripped (confidence 2) [D5A2E866]
Copy OK

Track 3

Filename D:\music\Musicgate's rips\Don Ellis - At Fillmore (1970) {2005, Wounded Bird WOU 3024}\CD1\03 - The Magic Bus Ate My Doughnut.wav

Peak level 93.9 %
Track quality 100.0 %
Test CRC 44CD12A9
Copy CRC 44CD12A9
Accurately ripped (confidence 2) [E96D35B8]
Copy OK

Track 4

Filename D:\music\Musicgate's rips\Don Ellis - At Fillmore (1970) {2005, Wounded Bird WOU 3024}\CD1\04 - The Blues.wav

Peak level 63.9 %
Track quality 100.0 %
Test CRC 217F3DEC
Copy CRC 217F3DEC
Accurately ripped (confidence 2) [03183229]
Copy OK

Track 5

Filename D:\music\Musicgate's rips\Don Ellis - At Fillmore (1970) {2005, Wounded Bird WOU 3024}\CD1\05 - Salvatore Sam.wav

Peak level 96.9 %
Track quality 100.0 %
Test CRC 85A0FE7C
Copy CRC 85A0FE7C
Accurately ripped (confidence 2) [321D0880]
Copy OK

Track 6

Filename D:\music\Musicgate's rips\Don Ellis - At Fillmore (1970) {2005, Wounded Bird WOU 3024}\CD1\06 - Rock Odyssey.wav

Peak level 95.7 %
Track quality 100.0 %
Test CRC 598A4DEE
Copy CRC 598A4DEE
Accurately ripped (confidence 2) [B4A6B83A]
Copy OK


All tracks accurately ripped

No errors occurred

End of status report

[CUETools log; Date: 30.09.2021 18:25:50; Version: 2.1.4]
[CTDB TOCID: LK_ES_SP2LJADbRPQDSENgnFe5k-] found.
Track | CTDB Status
1 | (33/34) Accurately ripped
2 | (34/34) Accurately ripped
3 | (34/34) Accurately ripped
4 | (34/34) Accurately ripped
5 | (34/34) Accurately ripped
6 | (34/34) Accurately ripped
[AccurateRip ID: 000b507f-0039f644-470a6e06] found.
Track [ CRC | V2 ] Status
01 [42037a07|b73a57cd] (05+25/30) Accurately ripped
02 [d5a2e866|2bf5d47b] (05+25/30) Accurately ripped
03 [e96d35b8|edffb45a] (05+25/30) Accurately ripped
04 [03183229|b301deb1] (05+25/30) Accurately ripped
05 [321d0880|be9da543] (05+25/30) Accurately ripped
06 [b4a6b83a|02518681] (05+25/30) Accurately ripped

Track Peak [ CRC32 ] [W/O NULL] [ LOG ]
– 96,9 [DC3E5952] [913A1863]
01 95,9 [35E8231F] [F3BEA4D6] CRC32
02 96,0 [8D2B243A] [ED6C344A] CRC32
03 93,9 [44CD12A9] [4B570DC1] CRC32
04 63,9 [217F3DEC] [7ACADEE9] CRC32
05 96,9 [85A0FE7C] [E7E5F3A1] CRC32
06 95,7 [598A4DEE] [503D25D8] CRC32

Exact Audio Copy V0.99 prebeta 4 from 23. January 2008

EAC extraction logfile from 8. October 2009, 23:00

Don Ellis / At Fillmore (Disc 2)

Used drive : HL-DT-STDVD-RAM GH22NP20 Adapter: 0 ID: 0

Read mode : Secure
Utilize accurate stream : Yes
Defeat audio cache : Yes
Make use of C2 pointers : No

Read offset correction : 102
Overread into Lead-In and Lead-Out : No
Fill up missing offset samples with silence : Yes
Delete leading and trailing silent blocks : No
Null samples used in CRC calculations : Yes
Used interface : Installed external ASPI interface
Gap handling : Appended to previous track

Used output format : User Defined Encoder
Selected bitrate : 320 kBit/s
Quality : High
Add ID3 tag : No
Command line compressor : C:\Program Files\Exact Audio Copy\Flac\flac.exe
Additional command line options : -V -8 -T "artist=%a" -T "title=%t" -T "album=%g" -T "date=%y" -T "tracknumber=%n" -T "genre=%m" %s


TOC of the extracted CD

Track | Start | Length | Start sector | End sector
––––––––––––––––––––––––––––-
1 | 0:00.00 | 10:38.21 | 0 | 47870
2 | 10:38.21 | 5:59.05 | 47871 | 74800
3 | 16:37.26 | 4:50.30 | 74801 | 96580
4 | 21:27.56 | 8:37.37 | 96581 | 135392
5 | 30:05.18 | 11:54.67 | 135393 | 189009


Track 1

Filename D:\music\Musicgate's rips\Don Ellis - At Fillmore (1970) {2005, Wounded Bird WOU 3024}\CD2\01 - Hey Jude.wav

Pre-gap length 0:00:02.00

Peak level 96.2 %
Track quality 100.0 %
Test CRC A743889A
Copy CRC A743889A
Accurately ripped (confidence 2) [CE9A55C8]
Copy OK

Track 2

Filename D:\music\Musicgate's rips\Don Ellis - At Fillmore (1970) {2005, Wounded Bird WOU 3024}\CD2\02 - Antea.wav

Peak level 97.2 %
Track quality 100.0 %
Test CRC 184FC1FC
Copy CRC 184FC1FC
Accurately ripped (confidence 2) [4D0DCF3A]
Copy OK

Track 3

Filename D:\music\Musicgate's rips\Don Ellis - At Fillmore (1970) {2005, Wounded Bird WOU 3024}\CD2\03 - Old Man's Tear.wav

Peak level 95.9 %
Track quality 100.0 %
Test CRC F2422A70
Copy CRC F2422A70
Accurately ripped (confidence 2) [CB8E3322]
Copy OK

Track 4

Filename D:\music\Musicgate's rips\Don Ellis - At Fillmore (1970) {2005, Wounded Bird WOU 3024}\CD2\04 - Great Divide.wav

Peak level 95.7 %
Track quality 100.0 %
Test CRC FE763539
Copy CRC FE763539
Accurately ripped (confidence 2) [B0CA7F0C]
Copy OK

Track 5

Filename D:\music\Musicgate's rips\Don Ellis - At Fillmore (1970) {2005, Wounded Bird WOU 3024}\CD2\05 - Pussy Wiggle Stomp.wav

Peak level 95.8 %
Track quality 100.0 %
Test CRC 3FBAEB67
Copy CRC 3FBAEB67
Accurately ripped (confidence 2) [C346F915]
Copy OK


All tracks accurately ripped

No errors occurred

End of status report

[CUETools log; Date: 30.09.2021 18:26:28; Version: 2.1.4]
[CTDB TOCID: ytVfyyj.1uQ2I93iRiQYz9.f97s-] found.
Track | CTDB Status
1 | (34/34) Accurately ripped
2 | (34/34) Accurately ripped
3 | (34/34) Accurately ripped
4 | (34/34) Accurately ripped
5 | (34/34) Accurately ripped
[AccurateRip ID: 00084ba8-002669f7-4b09d805] found.
Track [ CRC | V2 ] Status
01 [ce9a55c8|e3362926] (05+24/29) Accurately ripped
02 [4d0dcf3a|ef58e6e1] (05+24/29) Accurately ripped
03 [cb8e3322|bf11b139] (05+24/29) Accurately ripped
04 [b0ca7f0c|ddf49be5] (04+23/27) Accurately ripped
05 [c346f915|8ad86ff8] (06+23/29) Accurately ripped

Track Peak [ CRC32 ] [W/O NULL] [ LOG ]
– 97,2 [F3AF0D3D] [DCE1DB7F]
01 96,2 [A743889A] [C41C1C45] CRC32
02 97,2 [184FC1FC] [4AEF9A29] CRC32
03 95,9 [F2422A70] [95E45AC9] CRC32
04 95,7 [FE763539] [726583F9] CRC32
05 95,8 [3FBAEB67] [68A392F3] CRC32

Thanks to Musicgate

See also:
The Don Ellis Orchestra - Electric Bath (1967) [Reissue 1994]
Don Ellis - Shock Treatment (1968) [Reissue 2001]
Don Ellis And His Orchestra - Autumn (1968) [Reissue 2007]