Tags
Language
Tags

Don Ellis - Live At Montreux (1978) [Reissue 2002] (Re-up)

Posted By: gribovar
Don Ellis - Live At Montreux (1978) [Reissue 2002] (Re-up)

Don Ellis - Live At Montreux (1978) [Reissue 2002]
EAC Rip | FLAC (tracks+.cue+log) - 479 MB | MP3 CBR 320 kbps (LAME 3.93) - 174 MB | Covers - 65 MB
Genre: Jazz, Big Band, Progressive Jazz | RAR 3% Rec. | Label: Koch Jazz (KOC CD-51410)

Don Ellis' final record as a leader (he passed away from a bad heart in Dec. 1978) is a worthwhile effort. Ellis' large orchestra (four reeds, eight brass, one keyboard, two bassists, two drummers, two percussionists and a string quartet) performs six of the leader's originals and, although none of the songs are all that memorable, there are many fine solos. The main players are trumpeter Ellis, Ted Nash on tenor, alto and clarient and trombonist Alan Kaplan.
Tracklist:
01. Open Wide
02. Loneliness
03. Future Feature
04. Go-No-Go
05. Sporting Dance
06. Niner Two
07. Lyra
08. Eros
09. Arcturus

Total time: 01:13:55

Exact Audio Copy V0.99 prebeta 4 from 23. January 2008

EAC extraction logfile from 11. October 2009, 14:03

Don Ellis / Live At Montreux

Used drive : HL-DT-STDVD-RAM GH22NP20 Adapter: 0 ID: 0

Read mode : Secure
Utilize accurate stream : Yes
Defeat audio cache : Yes
Make use of C2 pointers : No

Read offset correction : 102
Overread into Lead-In and Lead-Out : No
Fill up missing offset samples with silence : Yes
Delete leading and trailing silent blocks : No
Null samples used in CRC calculations : Yes
Used interface : Installed external ASPI interface
Gap handling : Appended to previous track

Used output format : User Defined Encoder
Selected bitrate : 320 kBit/s
Quality : High
Add ID3 tag : No
Command line compressor : C:\Program Files\Exact Audio Copy\Flac\flac.exe
Additional command line options : -V -8 -T "artist=%a" -T "title=%t" -T "album=%g" -T "date=%y" -T "tracknumber=%n" -T "genre=%m" %s


TOC of the extracted CD

Track | Start | Length | Start sector | End sector
––––––––––––––––––––––––––––-
1 | 0:00.00 | 9:41.28 | 0 | 43602
2 | 9:41.28 | 5:54.69 | 43603 | 70221
3 | 15:36.22 | 7:18.53 | 70222 | 103124
4 | 22:55.00 | 5:10.57 | 103125 | 126431
5 | 28:05.57 | 8:45.38 | 126432 | 165844
6 | 36:51.20 | 11:59.69 | 165845 | 219838
7 | 48:51.14 | 8:32.55 | 219839 | 258293
8 | 57:23.69 | 5:39.43 | 258294 | 283761
9 | 63:03.37 | 10:51.37 | 283762 | 332623


Track 1

Filename D:\music\Musicgate's rips\Don Ellis - Live At Montreux (1977) {2002, Koch KOC CD-51410}\01 - Open Wide.wav

Pre-gap length 0:00:02.00

Peak level 85.4 %
Track quality 100.0 %
Test CRC 30481B79
Copy CRC 30481B79
Cannot be verified as accurate (confidence 1) [1DDEAA3A], AccurateRip returned [1DF09507]
Copy OK

Track 2

Filename D:\music\Musicgate's rips\Don Ellis - Live At Montreux (1977) {2002, Koch KOC CD-51410}\02 - Loneliness.wav

Pre-gap length 0:00:04.08

Peak level 70.8 %
Track quality 100.0 %
Test CRC 7606FFC3
Copy CRC 7606FFC3
Cannot be verified as accurate (confidence 1) [696893B6], AccurateRip returned [AFCB89BF]
Copy OK

Track 3

Filename D:\music\Musicgate's rips\Don Ellis - Live At Montreux (1977) {2002, Koch KOC CD-51410}\03 - Future Feature.wav

Peak level 91.1 %
Track quality 100.0 %
Test CRC 8BEBB47E
Copy CRC 8BEBB47E
Cannot be verified as accurate (confidence 1) [C2E7F59F], AccurateRip returned [E4FEF156]
Copy OK

Track 4

Filename D:\music\Musicgate's rips\Don Ellis - Live At Montreux (1977) {2002, Koch KOC CD-51410}\04 - Go-No-Go.wav

Peak level 96.9 %
Track quality 100.0 %
Test CRC 6D1FC99E
Copy CRC 6D1FC99E
Cannot be verified as accurate (confidence 1) [E51CC30C], AccurateRip returned [D6A600F5]
Copy OK

Track 5

Filename D:\music\Musicgate's rips\Don Ellis - Live At Montreux (1977) {2002, Koch KOC CD-51410}\05 - Sporting Dance.wav

Pre-gap length 0:00:04.58

Peak level 100.0 %
Track quality 100.0 %
Test CRC C4E53F15
Copy CRC C4E53F15
Cannot be verified as accurate (confidence 1) [82C162EB], AccurateRip returned [3C41040A]
Copy OK

Track 6

Filename D:\music\Musicgate's rips\Don Ellis - Live At Montreux (1977) {2002, Koch KOC CD-51410}\06 - Niner Two.wav

Pre-gap length 0:00:03.44

Peak level 94.3 %
Track quality 99.9 %
Test CRC 48D2F872
Copy CRC 48D2F872
Cannot be verified as accurate (confidence 1) [B12A14CE], AccurateRip returned [A965BA21]
Copy OK

Track 7

Filename D:\music\Musicgate's rips\Don Ellis - Live At Montreux (1977) {2002, Koch KOC CD-51410}\07 - Lyra.wav

Pre-gap length 0:00:02.28

Peak level 100.0 %
Track quality 100.0 %
Test CRC 4F5D0B2F
Copy CRC 4F5D0B2F
Cannot be verified as accurate (confidence 1) [3D46228A], AccurateRip returned [8706098A]
Copy OK

Track 8

Filename D:\music\Musicgate's rips\Don Ellis - Live At Montreux (1977) {2002, Koch KOC CD-51410}\08 - Eros.wav

Peak level 100.0 %
Track quality 100.0 %
Test CRC 84CBC270
Copy CRC 84CBC270
Cannot be verified as accurate (confidence 1) [A9D32638], AccurateRip returned [BA5D5C64]
Copy OK

Track 9

Filename D:\music\Musicgate's rips\Don Ellis - Live At Montreux (1977) {2002, Koch KOC CD-51410}\09 - Arcturus.wav

Peak level 100.0 %
Track quality 99.9 %
Test CRC 83FC7144
Copy CRC 83FC7144
Cannot be verified as accurate (confidence 1) [D53D136C], AccurateRip returned [677AA9C8]
Copy OK


No tracks could be verified as accurate
You may have a different pressing from the one(s) in the database

No errors occurred

End of status report

[CUETools log; Date: 12.10.2021 15:06:47; Version: 2.1.4]
[CTDB TOCID: pWW9Gkp5y2HrGkL8jhkwbGuOPBU-] found.
Track | CTDB Status
1 | (24/24) Accurately ripped
2 | (24/24) Accurately ripped
3 | (22/24) Accurately ripped
4 | (24/24) Accurately ripped
5 | (24/24) Accurately ripped
6 | (24/24) Accurately ripped
7 | (24/24) Accurately ripped
8 | (24/24) Accurately ripped
9 | (24/24) Accurately ripped
[AccurateRip ID: 001878a2-00b4674e-8e115209] found.
Track [ CRC | V2 ] Status
01 [1ddeaa3a|0cdd4ce8] (00+06/11) Accurately ripped
02 [696893b6|e2c3cb97] (00+06/11) Accurately ripped
03 [c2e7f59f|47ea9305] (00+06/10) Accurately ripped
04 [e51cc30c|15a8aebf] (00+06/10) Accurately ripped
05 [82c162eb|ec68ccab] (00+06/11) Accurately ripped
06 [b12a14ce|fef6c246] (00+06/11) Accurately ripped
07 [3d46228a|f4122837] (00+06/11) Accurately ripped
08 [a9d32638|07b452ef] (00+06/11) Accurately ripped
09 [d53d136c|7f4d240d] (00+06/10) Accurately ripped
Offsetted by 158:
01 [1df09507] (00/11) No match (V2 was not tested)
02 [afcb89bf] (00/11) No match (V2 was not tested)
03 [e4fef156] (00/10) No match (V2 was not tested)
04 [d6a600f5] (00/10) No match (V2 was not tested)
05 [3c41040a] (00/11) No match (V2 was not tested)
06 [a965ba21] (00/11) No match (V2 was not tested)
07 [8706098a] (00/11) No match (V2 was not tested)
08 [ba5d5c64] (00/11) No match (V2 was not tested)
09 [677aa9c8] (00/10) No match (V2 was not tested)

Track Peak [ CRC32 ] [W/O NULL] [ LOG ]
– 100,0 [E0C15BBF] [786BB331]
01 85,4 [30481B79] [8CED4A30] CRC32
02 70,8 [7606FFC3] [228AB48D] CRC32
03 91,1 [8BEBB47E] [A6981846] CRC32
04 96,9 [6D1FC99E] [7AD36297] CRC32
05 100,0 [C4E53F15] [BD185FA7] CRC32
06 94,3 [48D2F872] [3AC49D7B] CRC32
07 100,0 [4F5D0B2F] [7CF262FA] CRC32
08 100,0 [84CBC270] [9894E57E] CRC32
09 100,0 [83FC7144] [AAABFC62] CRC32

Thanks to Musicgate

See also: