Tags
Language
Tags

Dorothee Oberlinger, Ensemble 1700, Vittorio Ghielmi, Il Suonar Parlante - The Passion of Musick (2014)

Posted By:
Dorothee Oberlinger, Ensemble 1700, Vittorio Ghielmi, Il Suonar Parlante - The Passion of Musick (2014)

Dorothee Oberlinger, Ensemble 1700, Vittorio Ghielmi, Il Suonar Parlante - The Passion of Musick (2014)
EAC | FLAC | Image (Cue & Log) ~ 340 Mb | Total time: 70:01 | Scans included
Classical | Label: Deutsche Harmonia Mundi | # 888 43089762 | Recorded: 2014

"The Passion of Musick" heißt eine Fantasie des schottischen Soldaten und Komponisten Tobias Hume, die der neuesten CD der Blockflötistin und mehrfachen Echo Klassik-Preisträgerin Dorothee Oberlinger ihren Namen gab. Mit ihrem Ensemble 1700, dem Ausnahmegambisten Vittorio Ghielmi und seinem Gambenquartett »Il Suonar Parlante« gewährt Oberlinger Einblicke in die vielfältige »Private musick«, die in den unruhigen Zeiten im England des 17. Jahrhundert in eleganten Salons, aber auch in Pubs und Gasthäusern erblühte. Auf der Suche nach dem vielfältigen und farbenreichen kammermusikalischen Repertoire dieser Zeit folgen die Musiker dabei auch der Fährte, die die traditionelle, keltisch geprägte Musik im barocken Kunststil Englands, Schottlands und Irlands hinterlassen hat und zeichnen ein vielfältiges Bild der Musizierpraxis der Zeit mit Werken von unter anderem Tobias Hume, Henry Purcell, Nicola Matteis, Orlando Gibbons und Matthew Locke.

Performer:
Ensemble 1700
Dorothee Oberlinger, recorder & direction
Il Suonar Parlante
Vittorio Ghielmi, viol & direction

Track List:
01. Traditional: The Duke of Norfolk
02. John Adson (1587 - 1640): Adson's Masque
03. Turlough O'Carolan (1670 - 1738): Lord Galway's Lamentation
04. Giovanni Coperario (1570 - 1626): Cupararee or Gray's Inn
Nicola Matteis (1650 - 1714):
05. Preludio in delasolre terza maggiore
06. Diverse bizzarrie sopra la veccia sarabanda o pur ciaccona
07. Vittorio Ghielmi: A Springlike Rain
John Playford(1623 - 1686):
08. Stingo
09. The English Dancing Master: Parson's Farewell
10. Traditional: The Irish Ho-Hoane
11. Tobias Hume (1569 - 1645): The passion of musick
12. Traditional: Sheena's Reel
13. Traditional: Miss McLeod's Reel
Matthew Locke (1621 - 1677): A Consort for Severall Friends - Suite in A Minor
14. I. Pavan
15. II. Almand
16. III. Courante
17. IV. Ayre
18. V. Saraband
19. VI. Jigg - Conclude Thus
20. Vittorio Ghielmi, Graciela Gibelli: Slow Air, "Hidden Rabbit"
21. Vittorio Ghielmi, Graciela Gibelli: Air, "Jumping Rabbit"
22. Henry Purcell (1664 - 1717): Two in One upon a Ground
23. Traditional: Cremonea
24. Orlando Gibbons (1583 - 1625): In Nomine
25. David Young: The Reel of Tulloch
26. Traditional: Lilliburlero
Henry Purcell:
27. Prelude, ZN773
28. The Fairy Queen, Z. 629: Dance for Chinese Man and Woman


Exact Audio Copy V1.3 from 2. September 2016

EAC extraction logfile from 30. July 2019, 15:25

Dorothee Oberlinger & Vittorio Ghielmi / The Passion of Musick

Used drive : HL-DT-STDVDRAM GP65NW60 Adapter: 1 ID: 0

Read mode : Secure
Utilize accurate stream : Yes
Defeat audio cache : Yes
Make use of C2 pointers : No

Read offset correction : 6
Overread into Lead-In and Lead-Out : No
Fill up missing offset samples with silence : Yes
Delete leading and trailing silent blocks : No
Null samples used in CRC calculations : Yes
Used interface : Native Win32 interface for Win NT & 2000

Used output format : User Defined Encoder
Selected bitrate : 1024 kBit/s
Quality : High
Add ID3 tag : No
Command line compressor : C:\Program Files (x86)\Exact Audio Copy\FLAC\FLAC.EXE
Additional command line options : -6 -V -T "ARTIST=%artist%" -T "TITLE=%title%" -T "ALBUM=%albumtitle%" -T "DATE=%year%" -T "TRACKNUMBER=%tracknr%" -T "GENRE=%genre%" -T "COMMENT=%comment%" -T "BAND=%albuminterpret%" -T "ALBUMARTIST=%albuminterpret%" -T "COMPOSER=%composer%" %haslyrics%–tag-from-file=LYRICS="%lyricsfile%"%haslyrics% -T "DISCNUMBER=%cdnumber%" -T "TOTALDISCS=%totalcds%" -T "TOTALTRACKS=%numtracks%" %hascover%–picture="%coverfile%"%hascover% %source% -o %dest%

TOC of the extracted CD

Track | Start | Length | Start sector | End sector
––––––––––––––––––––––––––––-
1 | 0:00.00 | 3:16.56 | 0 | 14755
2 | 3:16.56 | 1:40.05 | 14756 | 22260
3 | 4:56.61 | 1:23.20 | 22261 | 28505
4 | 6:20.06 | 3:04.51 | 28506 | 42356
5 | 9:24.57 | 1:25.41 | 42357 | 48772
6 | 10:50.23 | 4:19.39 | 48773 | 68236
7 | 15:09.62 | 1:22.38 | 68237 | 74424
8 | 16:32.25 | 3:04.37 | 74425 | 88261
9 | 19:36.62 | 1:51.23 | 88262 | 96609
10 | 21:28.10 | 5:44.26 | 96610 | 122435
11 | 27:12.36 | 4:19.67 | 122436 | 141927
12 | 31:32.28 | 2:22.53 | 141928 | 152630
13 | 33:55.06 | 2:02.64 | 152631 | 161844
14 | 35:57.70 | 4:07.53 | 161845 | 180422
15 | 40:05.48 | 1:34.66 | 180423 | 187538
16 | 41:40.39 | 1:09.07 | 187539 | 192720
17 | 42:49.46 | 1:37.66 | 192721 | 200061
18 | 44:27.37 | 0:31.16 | 200062 | 202402
19 | 44:58.53 | 1:12.20 | 202403 | 207822
20 | 46:10.73 | 2:16.20 | 207823 | 218042
21 | 48:27.18 | 0:59.27 | 218043 | 222494
22 | 49:26.45 | 3:11.32 | 222495 | 236851
23 | 52:38.02 | 4:02.55 | 236852 | 255056
24 | 56:40.57 | 3:31.32 | 255057 | 270913
25 | 60:12.14 | 2:23.72 | 270914 | 281710
26 | 62:36.11 | 3:20.44 | 281711 | 296754
27 | 65:56.55 | 1:07.20 | 296755 | 301799
28 | 67:04.00 | 2:54.72 | 301800 | 314921

Range status and errors

Selected range

Filename C:\Users\Grant\Desktop\Dorothee Oberlinger & Vittorio Ghielmi - The Passion of Musick.wav

Peak level 96.0 %
Extraction speed 5.2 X
Range quality 100.0 %
Test CRC 654FD888
Copy CRC 654FD888
Copy OK

No errors occurred

AccurateRip summary

Track 1 accurately ripped (confidence 20) [80C9F116] (AR v2)
Track 2 accurately ripped (confidence 21) [C1E5E38F] (AR v2)
Track 3 accurately ripped (confidence 22) [84F487B3] (AR v2)
Track 4 accurately ripped (confidence 21) [11368F92] (AR v2)
Track 5 accurately ripped (confidence 21) [DCAD24C8] (AR v2)
Track 6 accurately ripped (confidence 21) [A61B9F43] (AR v2)
Track 7 accurately ripped (confidence 22) [A60DE9AD] (AR v2)
Track 8 accurately ripped (confidence 22) [7844EC9E] (AR v2)
Track 9 accurately ripped (confidence 22) [0F8F3A79] (AR v2)
Track 10 accurately ripped (confidence 22) [11E97252] (AR v2)
Track 11 accurately ripped (confidence 22) [BAF84643] (AR v2)
Track 12 accurately ripped (confidence 22) [A9577F62] (AR v2)
Track 13 accurately ripped (confidence 21) [8515CEC9] (AR v2)
Track 14 accurately ripped (confidence 21) [EF9D93F7] (AR v2)
Track 15 accurately ripped (confidence 21) [261E51D7] (AR v2)
Track 16 accurately ripped (confidence 21) [A8C6C1B7] (AR v2)
Track 17 accurately ripped (confidence 21) [0EF80EAD] (AR v2)
Track 18 accurately ripped (confidence 21) [28B3114E] (AR v2)
Track 19 accurately ripped (confidence 21) [85E3F898] (AR v2)
Track 20 accurately ripped (confidence 22) [100802BA] (AR v2)
Track 21 accurately ripped (confidence 21) [280465A7] (AR v2)
Track 22 accurately ripped (confidence 22) [2E96710E] (AR v2)
Track 23 accurately ripped (confidence 22) [1A31F510] (AR v2)
Track 24 accurately ripped (confidence 22) [95F91A72] (AR v2)
Track 25 accurately ripped (confidence 22) [B538CF7C] (AR v2)
Track 26 accurately ripped (confidence 22) [9909F977] (AR v2)
Track 27 accurately ripped (confidence 22) [20A8D3BB] (AR v2)
Track 28 accurately ripped (confidence 21) [EEC7F369] (AR v2)

All tracks accurately ripped

End of status report

–– CUETools DB Plugin V2.1.6

[CTDB TOCID: NUiSE1bZqY5y8Si_1os43lvZQwY-] found
Submit result: NUiSE1bZqY5y8Si_1os43lvZQwY- has been confirmed
Track | CTDB Status
1 | (55/56) Accurately ripped
2 | (55/56) Accurately ripped
3 | (55/56) Accurately ripped
4 | (55/56) Accurately ripped
5 | (55/56) Accurately ripped
6 | (55/56) Accurately ripped
7 | (55/56) Accurately ripped
8 | (55/56) Accurately ripped
9 | (55/56) Accurately ripped
10 | (55/56) Accurately ripped
11 | (55/56) Accurately ripped
12 | (55/56) Accurately ripped
13 | (55/56) Accurately ripped
14 | (55/56) Accurately ripped
15 | (55/56) Accurately ripped
16 | (55/56) Accurately ripped
17 | (55/56) Accurately ripped
18 | (55/56) Accurately ripped
19 | (55/56) Accurately ripped
20 | (55/56) Accurately ripped
21 | (55/56) Accurately ripped
22 | (55/56) Accurately ripped
23 | (55/56) Accurately ripped
24 | (55/56) Accurately ripped
25 | (55/56) Accurately ripped
26 | (55/56) Accurately ripped
27 | (55/56) Accurately ripped
28 | (55/56) Accurately ripped

==== Log checksum 8B92B6C803D1ADD0D8951E5A2ECD3BCB870E8A0B935AE5D566F8AF86EEC8A2AE ====

Dorothee Oberlinger, Ensemble 1700, Vittorio Ghielmi, Il Suonar Parlante - The Passion of Musick (2014)

Thanks to the original releaser