Tags
Language
Tags

Doug Sahm - Live (1988)

Posted By: v3122
Doug Sahm - Live (1988)

Doug Sahm - Live (1988)
EAC | Flac(Image) + Cue + Log & MP3 CBR 320Kbps
Bear Tracks, BTCD 943 401 | ~ 310 or 123 Mb | Artwork(jpg) -> 6.33 Mb
Texas Blues, Country Rock

This set captures Doug Sahm and his band in the mid '70s. Longtime musical cohort Augie Meyers (who was a key member of the Sir Douglas Quintet) is on hand with his rollicking organ playing. The remainder of the quartet is comprised of a rhythm section as well as tenor sax player Rocky Morales. Raw, rocking and exuberantly engaging, the Quintet tears through a set of Sahm originals and covers that offer a full portrait of his repertoire including his '60s hits "Mendocino" and "She's About A Mover." There are also selections by Ray Price, Charley Pride, Bobby "Blue" Bland, and Hank Ballard. Their rendition of "A Whiter Shade Of Pale" is a delightful surprise that plays up the song's inherent soulful balladry. This album serves as one man's tasteful tour through the peaks of rootsy American music.

~ allmusic
Doug Sahm - Live (1988):

Doug Sahm - Live (1988)

Tracklist:

01. Dynamite Woman (03:43)
02. The Rains Came (02:52)
03. Turn On Your Love Light (03:49)
04. She's About A Mover (02:47)
05. Mendocino (03:21)
06. (Is Anybody Goin' To) San Antone (01:20)
07. Papa Ain't Salty No More (03:26)
08. The Things I Used To Do (03:25)
09. Mr. Pitiful (04:00)
10. I'll Go Crazy (02:18)
11. Next Time You See Me (04:26)
12. Kansas City (04:05)
13. A Whiter Shade Of Pale (05:07)
14. Stagger Lee (03:35)

Exact Audio Copy V1.0 beta 1 from 15. November 2010

EAC extraction logfile from 25. April 2011, 20:32

Doug Sahm / Live

Used drive : Optiarc DVD RW AD-7581S Adapter: 1 ID: 0

Read mode : Secure
Utilize accurate stream : Yes
Defeat audio cache : Yes
Make use of C2 pointers : No

Read offset correction : 6
Overread into Lead-In and Lead-Out : No
Fill up missing offset samples with silence : Yes
Delete leading and trailing silent blocks : No
Null samples used in CRC calculations : Yes
Used interface : Native Win32 interface for Win NT & 2000
Gap handling : Appended to previous track

Used output format : User Defined Encoder
Selected bitrate : 128 kBit/s
Quality : High
Add ID3 tag : No
Command line compressor : C:\Program Files (x86)\Exact Audio Copy\Flac\flac.exe
Additional command line options : -8 -V -T "ARTIST=%a" -T "TITLE=%t" -T "ALBUM=%g" -T "DATE=%y" -T "TRACKNUMBER=%n" -T "TOTALTRACKS=%x" -T "GENRE=%m" -T "ALBUMARTIST=%v" -T "ALBUM ARTIST=%v" -T "COMMENT=EAC Secure Mode, Test & Copy, AccurateRip, FLAC -8" %s


TOC of the extracted CD

Track | Start | Length | Start sector | End sector
––––––––––––––––––––––––––––-
1 | 0:00.00 | 3:44.40 | 0 | 16839
2 | 3:44.40 | 2:53.52 | 16840 | 29866
3 | 6:38.17 | 3:50.28 | 29867 | 47144
4 | 10:28.45 | 2:48.42 | 47145 | 59786
5 | 13:17.12 | 3:22.60 | 59787 | 74996
6 | 16:39.72 | 1:21.28 | 74997 | 81099
7 | 18:01.25 | 3:27.35 | 81100 | 96659
8 | 21:28.60 | 3:36.45 | 96660 | 112904
9 | 25:05.30 | 4:00.55 | 112905 | 130959
10 | 29:06.10 | 2:19.67 | 130960 | 141451
11 | 31:26.02 | 4:27.15 | 141452 | 161491
12 | 35:53.17 | 4:06.23 | 161492 | 179964
13 | 39:59.40 | 5:08.10 | 179965 | 203074
14 | 45:07.50 | 3:36.30 | 203075 | 219304
15 | 48:44.05 | 3:15.55 | 219305 | 233984


Track 1

Filename C:\Lossless Rips\Doug Sahm - Live (1988) [FLAC] {BTCD 943 401}\01 - Dynamite Woman.wav

Pre-gap length 0:00:02.00

Peak level 95.9 %
Extraction speed 2.4 X
Track quality 100.0 %
Test CRC 65AACF71
Copy CRC 65AACF71
Track not present in AccurateRip database
Copy OK

Track 2

Filename C:\Lossless Rips\Doug Sahm - Live (1988) [FLAC] {BTCD 943 401}\02 - The Rains Came.wav

Pre-gap length 0:00:01.00

Peak level 84.6 %
Extraction speed 2.1 X
Track quality 99.9 %
Test CRC 6109399F
Copy CRC 6109399F
Track not present in AccurateRip database
Copy OK

Track 3

Filename C:\Lossless Rips\Doug Sahm - Live (1988) [FLAC] {BTCD 943 401}\03 - Turn On Your Lovelight.wav

Pre-gap length 0:00:01.00

Peak level 80.5 %
Extraction speed 3.0 X
Track quality 100.0 %
Test CRC EA0050ED
Copy CRC EA0050ED
Track not present in AccurateRip database
Copy OK

Track 4

Filename C:\Lossless Rips\Doug Sahm - Live (1988) [FLAC] {BTCD 943 401}\04 - She's About A Mover.wav

Pre-gap length 0:00:01.00

Peak level 86.9 %
Extraction speed 3.1 X
Track quality 100.0 %
Test CRC 478B8EC4
Copy CRC 478B8EC4
Track not present in AccurateRip database
Copy OK

Track 5

Filename C:\Lossless Rips\Doug Sahm - Live (1988) [FLAC] {BTCD 943 401}\05 - Mendocino.wav

Pre-gap length 0:00:01.00

Peak level 93.7 %
Extraction speed 3.3 X
Track quality 100.0 %
Test CRC FD735712
Copy CRC FD735712
Track not present in AccurateRip database
Copy OK

Track 6

Filename C:\Lossless Rips\Doug Sahm - Live (1988) [FLAC] {BTCD 943 401}\06 - (Is Anybody Goin' To) San Antone.wav

Pre-gap length 0:00:01.00

Peak level 90.9 %
Extraction speed 1.8 X
Track quality 99.8 %
Test CRC CBD9A36B
Copy CRC CBD9A36B
Track not present in AccurateRip database
Copy OK

Track 7

Filename C:\Lossless Rips\Doug Sahm - Live (1988) [FLAC] {BTCD 943 401}\07 - Papa Ain't Salty No More.wav

Pre-gap length 0:00:01.00

Peak level 90.7 %
Extraction speed 3.6 X
Track quality 100.0 %
Test CRC 86D40C79
Copy CRC 86D40C79
Track not present in AccurateRip database
Copy OK

Track 8

Filename C:\Lossless Rips\Doug Sahm - Live (1988) [FLAC] {BTCD 943 401}\08 - The Things I Used To Do.wav

Pre-gap length 0:00:01.00

Peak level 90.4 %
Extraction speed 3.8 X
Track quality 100.0 %
Test CRC 373D0064
Copy CRC 373D0064
Track not present in AccurateRip database
Copy OK

Track 9

Filename C:\Lossless Rips\Doug Sahm - Live (1988) [FLAC] {BTCD 943 401}\09 - Mr Pitiful.wav

Pre-gap length 0:00:01.00

Peak level 97.8 %
Extraction speed 3.3 X
Track quality 99.9 %
Test CRC 5A88E887
Copy CRC 5A88E887
Track not present in AccurateRip database
Copy OK

Track 10

Filename C:\Lossless Rips\Doug Sahm - Live (1988) [FLAC] {BTCD 943 401}\10 - I'll Go Crazy.wav

Peak level 93.8 %
Extraction speed 3.6 X
Track quality 100.0 %
Test CRC 4203BC74
Copy CRC 4203BC74
Track not present in AccurateRip database
Copy OK

Track 11

Filename C:\Lossless Rips\Doug Sahm - Live (1988) [FLAC] {BTCD 943 401}\11 - Next Time You See Me.wav

Pre-gap length 0:00:01.00

Peak level 95.6 %
Extraction speed 4.4 X
Track quality 100.0 %
Test CRC C29DC5CE
Copy CRC C29DC5CE
Track not present in AccurateRip database
Copy OK

Track 12

Filename C:\Lossless Rips\Doug Sahm - Live (1988) [FLAC] {BTCD 943 401}\12 - Kansas City.wav

Pre-gap length 0:00:01.00

Peak level 100.0 %
Extraction speed 4.5 X
Track quality 100.0 %
Test CRC 297201CC
Copy CRC 297201CC
Track not present in AccurateRip database
Copy OK

Track 13

Filename C:\Lossless Rips\Doug Sahm - Live (1988) [FLAC] {BTCD 943 401}\13 - A Whiter Shade Of Pale.wav

Pre-gap length 0:00:01.00

Peak level 99.7 %
Extraction speed 4.1 X
Track quality 99.9 %
Test CRC 86C3592E
Copy CRC 86C3592E
Track not present in AccurateRip database
Copy OK

Track 14

Filename C:\Lossless Rips\Doug Sahm - Live (1988) [FLAC] {BTCD 943 401}\14 - Stagger Lee.wav

Pre-gap length 0:00:01.00

Peak level 100.0 %
Extraction speed 4.8 X
Track quality 100.0 %
Test CRC BC1B45C7
Copy CRC BC1B45C7
Track not present in AccurateRip database
Copy OK

Track 15

Filename C:\Lossless Rips\Doug Sahm - Live (1988) [FLAC] {BTCD 943 401}\15 - Let's Go! Let's Go! Let's Go!.wav

Pre-gap length 0:00:01.00

Peak level 96.3 %
Extraction speed 4.8 X
Track quality 100.0 %
Test CRC 59038541
Copy CRC 59038541
Track not present in AccurateRip database
Copy OK


None of the tracks are present in the AccurateRip database

No errors occurred

End of status report

==== Log checksum F3162D3FB02509D49FCAE657AC7F52C0AC6AA5FD2FCFFB2D993674AFAF7BA8B6 ====


[CUETools log; Date: 31.07.2021 18:47:46; Version: 2.1.4]
[AccurateRip ID: 001b4e5f-0137d93e-bf0c2f0f] found.
Track [ CRC | V2 ] Status
01 [a8b99cb2|b490e61b] (0+3/3) Accurately ripped
02 [57aa2f85|673c5d81] (0+3/3) Accurately ripped
03 [478e7b80|b04659a5] (0+3/3) Accurately ripped
04 [e6d34bb9|7024297d] (0+3/3) Accurately ripped
05 [b7cec957|c200429d] (0+3/3) Accurately ripped
06 [784b5b44|f899091b] (0+3/3) Accurately ripped
07 [71125ab8|71704e10] (0+3/3) Accurately ripped
08 [5fbc88b7|eb7b4117] (0+3/3) Accurately ripped
09 [cd94d338|2f186633] (0+3/3) Accurately ripped
10 [397377ae|f9618df2] (0+3/3) Accurately ripped
11 [455b0141|1d297fc3] (0+3/3) Accurately ripped
12 [c258309d|22390750] (0+3/3) Accurately ripped
13 [98f06500|881b1cf1] (0+3/3) Accurately ripped
14 [c6e32c52|012a4628] (0+3/3) Accurately ripped
15 [a14f8131|38c8ee38] (0+3/3) Accurately ripped

Track Peak [ CRC32 ] [W/O NULL] [ LOG ]
– 100,0 [7E6E05F6] [7FB6F83E]
01 95,9 [65AACF71] [F5C95B84] CRC32
02 84,6 [6109399F] [81554AE8] CRC32
03 80,5 [EA0050ED] [D725F004] CRC32
04 86,9 [478B8EC4] [6D29AC84] CRC32
05 93,7 [FD735712] [795A9F82] CRC32
06 90,9 [CBD9A36B] [0BE2D43E] CRC32
07 90,7 [86D40C79] [5604FEFF] CRC32
08 90,4 [373D0064] [5C18B4B5] CRC32
09 97,8 [5A88E887] [AD6BE3CE] CRC32
10 93,8 [4203BC74] [2CD25600] CRC32
11 95,6 [C29DC5CE] [5423DE66] CRC32
12 100,0 [297201CC] [02745470] CRC32
13 99,7 [86C3592E] [5E70210A] CRC32
14 100,0 [BC1B45C7] [7C2BCFC0] CRC32
15 96,3 [59038541] [DE39CEC0] CRC32


Doug Sahm - Live (1988)

All thanks go to the original releaser

Doug Sahm in my Blog

Download Doug Sahm - Live (1988):