Tags
Language
Tags
April 2024
Su Mo Tu We Th Fr Sa
31 1 2 3 4 5 6
7 8 9 10 11 12 13
14 15 16 17 18 19 20
21 22 23 24 25 26 27
28 29 30 1 2 3 4

Doug Carn - Adam's Apple (1974) {Black Jazz Records}

Posted By: tiburon
Doug Carn - Adam's Apple (1974) {Black Jazz Records}

Doug Carn - Adam's Apple (1974) {Black Jazz Records}
EAC 0.99pb5 | FLAC tracks level 8 | Cue+Log+M3U | Full Scans 300dpi | 297MB + 5% Recovery
MP3 CBR 320 Kbps | 103MB + 5% Recovery
Genre: Jazz, Funk, Soul

Further distanced in time from John Coltrane's spiritual new-jazz and the influential second Miles Davis quintet, Doug Carn showed a close affinity with r&b when recording his fourth and final Black Jazz album Adam's Apple. Sharing his interest in r&b was a platoon of committed, resourceful jazz musicians including young star-in-the-making Ronnie Laws, who'd worked with Earth, Wind & Fire before that band's big commercial breakthrough. Of the others, ace guitarists Nathan Page and Calvin Keys had acquired intimacy with the soulful properties of African-American music of the time performing with the premier jazz organist Jimmy Smith.
Track List
01. Chant 4:46
02. Higher Ground 5:11
03. Sweet Season 4:43
04. Sanctuary 7:39
05. Mighty Mighty 5:56
06. The Messenger 4:17
07. Adam's Apple 3:39
08. To a Wild Rose 3:40
09. Western Sunrise 5:08

musicians
Doug Carn - piano, electric piano, organ, Moog synthesizer), vocals
Ronnie Laws - tenor saxophone, soprano saxophone
Thurman Green - trombone
Nathan Page - guitar
Calvin Keys - guitar
Big Black - congas, bongos, percussion
Harold Mason - drums
Darrel Clayborn - Fender bass
Gerald Brown - acoustic bass
Joyce Greene - vocals
John Conner - vocals

Produced by Doug Carn


Exact Audio Copy V0.99 prebeta 5 from 4. May 2009

EAC extraction logfile from 19. September 2011, 21:57

Doug Carn / Adam's Apple

Used drive : Optiarc DVD RW AD-7170S Adapter: 3 ID: 0

Read mode : Secure
Utilize accurate stream : Yes
Defeat audio cache : Yes
Make use of C2 pointers : No

Read offset correction : 48
Overread into Lead-In and Lead-Out : No
Fill up missing offset samples with silence : Yes
Delete leading and trailing silent blocks : No
Null samples used in CRC calculations : Yes
Used interface : Installed external ASPI interface
Gap handling : Appended to previous track

Used output format : User Defined Encoder
Selected bitrate : 1024 kBit/s
Quality : High
Add ID3 tag : No
Command line compressor : C:\Program Files\Exact Audio Copy\FLAC\FLAC.EXE
Additional command line options : -8 -V -T "ARTIST=%a" -T "TITLE=%t" -T "ALBUM=%g" -T "DATE=%y" -T "TRACKNUMBER=%n" -T "TOTALTRACKS=%x" -T "GENRE=%m" -T "ALBUM ARTIST=%v" -T "ALBUMARTIST=%v" -T "COMMENT=EAC V0.99 prebeta 5, Secure Mode, Test & Copy, Accurat


TOC of the extracted CD

Track | Start | Length | Start sector | End sector
––––––––––––––––––––––––––––-
1 | 0:00.00 | 4:45.22 | 0 | 21396
2 | 4:45.22 | 5:10.05 | 21397 | 44651
3 | 9:55.27 | 4:39.70 | 44652 | 65646
4 | 14:35.22 | 7:37.05 | 65647 | 99926
5 | 22:12.27 | 5:53.68 | 99927 | 126469
6 | 28:06.20 | 4:14.65 | 126470 | 145584
7 | 32:21.10 | 3:39.32 | 145585 | 162041
8 | 36:00.42 | 3:40.03 | 162042 | 178544
9 | 39:40.45 | 5:08.40 | 178545 | 201684


Track 1

Filename C:\users\niko\Bureau\STOCKAGE\Musique\RIPPING\flac\Doug Carn - Adam's Apple (1974) [FLAC]\01 - Chant.wav

Pre-gap length 0:00:02.00

Peak level 98.8 %
Track quality 100.0 %
Test CRC 87AB71DA
Copy CRC 87AB71DA
Track not present in AccurateRip database
Copy OK

Track 2

Filename C:\users\niko\Bureau\STOCKAGE\Musique\RIPPING\flac\Doug Carn - Adam's Apple (1974) [FLAC]\02 - Higher Ground.wav

Pre-gap length 0:00:02.56

Peak level 98.8 %
Track quality 100.0 %
Test CRC 91AC01AF
Copy CRC 91AC01AF
Track not present in AccurateRip database
Copy OK

Track 3

Filename C:\users\niko\Bureau\STOCKAGE\Musique\RIPPING\flac\Doug Carn - Adam's Apple (1974) [FLAC]\03 - Sweet Seasons.wav

Pre-gap length 0:00:02.56

Peak level 98.8 %
Track quality 99.9 %
Test CRC 49D885A1
Copy CRC 49D885A1
Track not present in AccurateRip database
Copy OK

Track 4

Filename C:\users\niko\Bureau\STOCKAGE\Musique\RIPPING\flac\Doug Carn - Adam's Apple (1974) [FLAC]\04 - Sanctuary.wav

Pre-gap length 0:00:02.56

Peak level 98.8 %
Track quality 100.0 %
Test CRC 0CBDAEEC
Copy CRC 0CBDAEEC
Track not present in AccurateRip database
Copy OK

Track 5

Filename C:\users\niko\Bureau\STOCKAGE\Musique\RIPPING\flac\Doug Carn - Adam's Apple (1974) [FLAC]\05 - Mighty Mighty.wav

Pre-gap length 0:00:02.56

Peak level 98.8 %
Track quality 99.9 %
Test CRC 529041DF
Copy CRC 529041DF
Track not present in AccurateRip database
Copy OK

Track 6

Filename C:\users\niko\Bureau\STOCKAGE\Musique\RIPPING\flac\Doug Carn - Adam's Apple (1974) [FLAC]\06 - The Messenger.wav

Pre-gap length 0:00:02.57

Peak level 98.8 %
Track quality 100.0 %
Test CRC 59425FE9
Copy CRC 59425FE9
Track not present in AccurateRip database
Copy OK

Track 7

Filename C:\users\niko\Bureau\STOCKAGE\Musique\RIPPING\flac\Doug Carn - Adam's Apple (1974) [FLAC]\07 - Adam's Apple.wav

Pre-gap length 0:00:02.57

Peak level 91.2 %
Track quality 100.0 %
Test CRC 36327A2C
Copy CRC 36327A2C
Track not present in AccurateRip database
Copy OK

Track 8

Filename C:\users\niko\Bureau\STOCKAGE\Musique\RIPPING\flac\Doug Carn - Adam's Apple (1974) [FLAC]\08 - To A Wild Rose.wav

Pre-gap length 0:00:02.56

Peak level 93.0 %
Track quality 100.0 %
Test CRC 196380A0
Copy CRC 196380A0
Track not present in AccurateRip database
Copy OK

Track 9

Filename C:\users\niko\Bureau\STOCKAGE\Musique\RIPPING\flac\Doug Carn - Adam's Apple (1974) [FLAC]\09 - Western Sunrise.wav

Pre-gap length 0:00:02.57

Peak level 98.8 %
Track quality 100.0 %
Test CRC 91BA2A20
Copy CRC 91BA2A20
Track not present in AccurateRip database
Copy OK


None of the tracks are present in the AccurateRip database

No errors occurred

End of status report

Doug Carn - Adam's Apple (1974) {Black Jazz Records}
Doug Carn - Adam's Apple (1974) {Black Jazz Records}


Thanks to the original ripper