Tags
Language
Tags
July 2024
Su Mo Tu We Th Fr Sa
30 1 2 3 4 5 6
7 8 9 10 11 12 13
14 15 16 17 18 19 20
21 22 23 24 25 26 27
28 29 30 31 1 2 3

VA - Dr. Boogie Presents 26 Deranged And Smokin' Cool Cats (2007)

Posted By: Rtax
VA -  Dr. Boogie Presents 26 Deranged And Smokin' Cool Cats (2007)

VA - Dr. Boogie Presents 26 Deranged And Smokin' Cool Cats (2007)
EAC Rip | FLAC (tracks, cue, log) - 377 MB | MP3 CBR 320 kbps - 135 MB
57:10 | Rockabilly, Rock & Roll | Label: Sub Rosa

Rockabilly is a music genre that has a rather peculiar status in the history of modern music.
As a trend, rockabilly lasted only a few years, but it generated a near-unmatched number of recordings from hundreds of studios from as many American cities and small towns. This phenomenon can be explained partly by youth's sudden urge to express itself in a time when the USA was the richest country in the world and people were drawing maximum benefits from the spirit of entrepreneurship that was taking the whole continent by storm. Back then, you could very easily improvise yourself a record producer or label owner: all it took was a little bit of equipment and a small garage, basement, or backstore space. You started by pressing a hundred-copy run for the artist's family and friends. Sometimes, the product reached the ears of bigger label owners who would ensure its wider distribution.Rockabilly appeared in the early 1950s. This form of musical expression can be summed up as a white, typically southern, and rural kind of rock and roll born in Memphis in 1954. The lyrics are often about recurring themes in '50s American pop culture, like cars and teenage love.

Young people identified with rockabilly in large numbers, forming gangs that could terrorize a neighbourhood by facing other gangs. Leather, Brylcreem, and motorcycles big and small were the signs by which they defined themselves.
Rockabilly and its close relative rock and roll quickly evolved into other forms of rock, before vanishing almost completely in the late '50s.
There was a certain revival in the '70s, and nowadays a surprising number of young bands have picked up the torch and are keeping this important style alive, a style that brings joy and the urge to dance to a still-sizeable audience.
The energy, boldness, wildness, and talent of these young pioneers can all be found on this compilation, which rediscovers 26 of these rock adventurers.
Dr Boogie

Tracklist
1. Johnny Jay – Sugar Doll (01:59)
2. Jimmy Edwards – Love Bug Crawl (01:58)
3. Curly Coldiron – Rockin' Spot (01:55)
4. Danny Verne – Red Hot Car (02:33)
5. Eddie Cash – Doin' Allright (02:29)
6. Chuck Dallis – Good Show But No Go (02:07)
7. The Cals – Country Woman (02:24)
8. Al Urban – Gonna Be Better Times (02:19)
9. Bill Logsdon – Spitfire (02:24)
10. John Friis – Bop A Lena (02:23)
11. Ronnie Haig – Money Is The Thing Of The Past (02:24)
12. Jimmy Evans – The Joint's Really Jumpin' (01:52)
13. Jimmy Dee – Guitar Pickin' Man (02:09)
14. Johnny Knight – Rock 'N' Roll Guitars (02:07)
15. Harvey Hunt – Big Dog Little Dog (02:30)
16. Wayne Haas – Betty Ann (01:59)
17. Bill Moss – Rockabilly Hop (02:11)
18. Ronnie Allen – Juvenile Delinquent (01:57)
19. Jay Brown – Hanky Panky (02:19)
20. Gary Hodge – Not For Love Or Money (01:53)
21. Charles Senns – Gee Whee Liz (02:27)
22. Charles Page – Baby You've Been To School (02:05)
23. T.K. Hulin – Little Bitty Boy (02:23)
24. Gene Maltais – Crazy Baby (02:00)
25. Bing Day – I Can't Help It (01:50)
26. The Thrashers – Sledgehammer (02:13)
Exact Audio Copy V1.0 beta 3 from 29. August 2011

EAC extraction logfile from 24. February 2012, 9:28

Various Artists / Cool Cats

Used drive : HL-DT-STDVDRAM GH22NS50 Adapter: 3 ID: 0

Read mode : Secure
Utilize accurate stream : Yes
Defeat audio cache : Yes
Make use of C2 pointers : No

Read offset correction : 667
Overread into Lead-In and Lead-Out : No
Fill up missing offset samples with silence : Yes
Delete leading and trailing silent blocks : No
Null samples used in CRC calculations : Yes
Used interface : Native Win32 interface for Win NT & 2000
Gap handling : Appended to previous track

Used output format : User Defined Encoder
Selected bitrate : 1024 kBit/s
Quality : High
Add ID3 tag : No
Command line compressor : C:\Program Files (x86)\Exact Audio Copy\Flac\flac.exe
Additional command line options : -8 -V -T "ARTIST=%artist%" -T "TITLE=%title%" -T "ALBUM=%albumtitle%" -T "DATE=%year%" -T "TRACKNUMBER=%tracknr%" -T "GENRE=%genre%" -T "PERFORMER=%albuminterpret%" -T "COMPOSER=%composer%" %haslyrics%–tag-from-file=LYRICS="%lyricsfile%"%haslyrics% -T "ALBUMARTIST=%albumartist%" -T "DISCNUMBER=%cdnumber%" -T "TOTALDISCS=%totalcds%" -T "TOTALTRACKS=%numtracks%" -T "COMMENT=%comment%" %source% -o %dest%


TOC of the extracted CD

Track | Start | Length | Start sector | End sector
––––––––––––––––––––––––––––-
1 | 0:00.00 | 1:59.45 | 0 | 8969
2 | 1:59.45 | 1:58.61 | 8970 | 17880
3 | 3:58.31 | 1:55.46 | 17881 | 26551
4 | 5:54.02 | 2:33.42 | 26552 | 38068
5 | 8:27.44 | 2:29.56 | 38069 | 49299
6 | 10:57.25 | 2:07.56 | 49300 | 58880
7 | 13:05.06 | 2:24.67 | 58881 | 69747
8 | 15:29.73 | 2:19.59 | 69748 | 80231
9 | 17:49.57 | 2:24.62 | 80232 | 91093
10 | 20:14.44 | 2:23.14 | 91094 | 101832
11 | 22:37.58 | 2:24.70 | 101833 | 112702
12 | 25:02.53 | 1:52.09 | 112703 | 121111
13 | 26:54.62 | 2:09.54 | 121112 | 130840
14 | 29:04.41 | 2:07.30 | 130841 | 140395
15 | 31:11.71 | 2:30.50 | 140396 | 151695
16 | 33:42.46 | 1:59.10 | 151696 | 160630
17 | 35:41.56 | 2:11.00 | 160631 | 170455
18 | 37:52.56 | 1:57.57 | 170456 | 179287
19 | 39:50.38 | 2:19.67 | 179288 | 189779
20 | 42:10.30 | 1:53.04 | 189780 | 198258
21 | 44:03.34 | 2:27.70 | 198259 | 209353
22 | 46:31.29 | 2:05.42 | 209354 | 218770
23 | 48:36.71 | 2:23.71 | 218771 | 229566
24 | 51:00.67 | 2:00.57 | 229567 | 238623
25 | 53:01.49 | 1:50.69 | 238624 | 246942
26 | 54:52.43 | 2:13.39 | 246943 | 256956


Track 1

Filename D:\EACrips\Dr. Boogie Pres. Wasa Wasa\Cool Cats\01 - Johnny Jay - Sugar Doll.wav

Pre-gap length 0:00:02.00

Peak level 97.7 %
Extraction speed 0.9 X
Track quality 100.0 %
Test CRC 18F6CCB6
Copy CRC 18F6CCB6
Accurately ripped (confidence 2) [15820466] (AR v1)
Copy OK

Track 2

Filename D:\EACrips\Dr. Boogie Pres. Wasa Wasa\Cool Cats\02 - Jimmy Edwards - Love Bug Crawl.wav

Pre-gap length 0:00:02.57

Peak level 97.7 %
Extraction speed 0.9 X
Track quality 100.0 %
Test CRC 8E29B99A
Copy CRC 8E29B99A
Accurately ripped (confidence 2) [6413DFD0] (AR v1)
Copy OK

Track 3

Filename D:\EACrips\Dr. Boogie Pres. Wasa Wasa\Cool Cats\03 - Curly Coldiron - Rockin' Spot.wav

Pre-gap length 0:00:01.40

Peak level 97.7 %
Extraction speed 1.0 X
Track quality 100.0 %
Test CRC BF514DB7
Copy CRC BF514DB7
Accurately ripped (confidence 2) [77AC1732] (AR v1)
Copy OK

Track 4

Filename D:\EACrips\Dr. Boogie Pres. Wasa Wasa\Cool Cats\04 - Danny Verne - Red Hot Car.wav

Pre-gap length 0:00:02.00

Peak level 97.7 %
Extraction speed 1.0 X
Track quality 100.0 %
Test CRC 4F10B2A3
Copy CRC 4F10B2A3
Accurately ripped (confidence 2) [17B5E305] (AR v1)
Copy OK

Track 5

Filename D:\EACrips\Dr. Boogie Pres. Wasa Wasa\Cool Cats\05 - Eddie Cash - Doin' Allright.wav

Pre-gap length 0:00:02.14

Peak level 97.7 %
Extraction speed 0.9 X
Track quality 99.9 %
Test CRC 30A2BDB8
Copy CRC 30A2BDB8
Accurately ripped (confidence 2) [2FD59FDA] (AR v1)
Copy OK

Track 6

Filename D:\EACrips\Dr. Boogie Pres. Wasa Wasa\Cool Cats\06 - Chuck Dallis - Good Show But No Go.wav

Pre-gap length 0:00:01.97

Peak level 97.7 %
Extraction speed 1.1 X
Track quality 100.0 %
Test CRC D05BA35A
Copy CRC D05BA35A
Accurately ripped (confidence 2) [FD6C91C6] (AR v1)
Copy OK

Track 7

Filename D:\EACrips\Dr. Boogie Pres. Wasa Wasa\Cool Cats\07 - The Cals - Country Woman.wav

Pre-gap length 0:00:02.14

Peak level 97.7 %
Extraction speed 1.2 X
Track quality 100.0 %
Test CRC D493DD10
Copy CRC D493DD10
Accurately ripped (confidence 2) [975DC578] (AR v1)
Copy OK

Track 8

Filename D:\EACrips\Dr. Boogie Pres. Wasa Wasa\Cool Cats\08 - Al Urban - Gonna Be Better Times.wav

Pre-gap length 0:00:02.12

Peak level 97.7 %
Extraction speed 1.0 X
Track quality 99.9 %
Test CRC 490245CF
Copy CRC 490245CF
Accurately ripped (confidence 2) [3B8AD07A] (AR v1)
Copy OK

Track 9

Filename D:\EACrips\Dr. Boogie Pres. Wasa Wasa\Cool Cats\09 - Bill Logsdon - Spitfire.wav

Pre-gap length 0:00:02.00

Peak level 97.7 %
Extraction speed 1.3 X
Track quality 100.0 %
Test CRC 13B60068
Copy CRC 13B60068
Accurately ripped (confidence 2) [80575B5A] (AR v1)
Copy OK

Track 10

Filename D:\EACrips\Dr. Boogie Pres. Wasa Wasa\Cool Cats\10 - John Friis - Bop A Lena.wav

Pre-gap length 0:00:01.98

Peak level 97.7 %
Extraction speed 1.4 X
Track quality 100.0 %
Test CRC 74193055
Copy CRC 74193055
Accurately ripped (confidence 2) [49904D77] (AR v1)
Copy OK

Track 11

Filename D:\EACrips\Dr. Boogie Pres. Wasa Wasa\Cool Cats\11 - Ronnie Haig - Money Is The Thing Of The Past.wav

Pre-gap length 0:00:02.00

Peak level 97.7 %
Extraction speed 1.4 X
Track quality 100.0 %
Test CRC DDC6D681
Copy CRC DDC6D681
Accurately ripped (confidence 2) [416C204B] (AR v1)
Copy OK

Track 12

Filename D:\EACrips\Dr. Boogie Pres. Wasa Wasa\Cool Cats\12 - Jimmy Evans - The Joint's Really Jumpin'.wav

Pre-gap length 0:00:01.98

Peak level 97.7 %
Extraction speed 1.3 X
Track quality 100.0 %
Test CRC E314589E
Copy CRC E314589E
Accurately ripped (confidence 2) [AE94921F] (AR v1)
Copy OK

Track 13

Filename D:\EACrips\Dr. Boogie Pres. Wasa Wasa\Cool Cats\13 - Jimmie Dee - Guitar Pickin' Man.wav

Pre-gap length 0:00:02.00

Peak level 97.7 %
Extraction speed 1.4 X
Track quality 100.0 %
Test CRC 07655EF7
Copy CRC 07655EF7
Accurately ripped (confidence 2) [40E1074D] (AR v1)
Copy OK

Track 14

Filename D:\EACrips\Dr. Boogie Pres. Wasa Wasa\Cool Cats\14 - Johnny Knight - Rock 'N' Roll Guitars.wav

Pre-gap length 0:00:02.00

Peak level 97.7 %
Extraction speed 1.4 X
Track quality 100.0 %
Test CRC 9F596BAF
Copy CRC 9F596BAF
Accurately ripped (confidence 2) [4223C2A1] (AR v1)
Copy OK

Track 15

Filename D:\EACrips\Dr. Boogie Pres. Wasa Wasa\Cool Cats\15 - Harvey Hunt - Big Dog Little Dog.wav

Pre-gap length 0:00:02.00

Peak level 97.7 %
Extraction speed 1.5 X
Track quality 100.0 %
Test CRC D5614AAD
Copy CRC D5614AAD
Accurately ripped (confidence 2) [92234748] (AR v1)
Copy OK

Track 16

Filename D:\EACrips\Dr. Boogie Pres. Wasa Wasa\Cool Cats\16 - Betty Ann - Wayne Haas.wav

Pre-gap length 0:00:01.98

Peak level 97.7 %
Extraction speed 1.5 X
Track quality 100.0 %
Test CRC BEC9846B
Copy CRC BEC9846B
Accurately ripped (confidence 2) [62ECE328] (AR v1)
Copy OK

Track 17

Filename D:\EACrips\Dr. Boogie Pres. Wasa Wasa\Cool Cats\17 - Bill Moss - Rockabilly Hop.wav

Pre-gap length 0:00:01.98

Peak level 97.7 %
Extraction speed 1.5 X
Track quality 100.0 %
Test CRC D965B215
Copy CRC D965B215
Accurately ripped (confidence 2) [84D42368] (AR v1)
Copy OK

Track 18

Filename D:\EACrips\Dr. Boogie Pres. Wasa Wasa\Cool Cats\18 - Ronnie Allen - Juvenile Delinquent.wav

Pre-gap length 0:00:02.41

Peak level 97.7 %
Extraction speed 1.5 X
Track quality 100.0 %
Test CRC 9FA7C0BA
Copy CRC 9FA7C0BA
Accurately ripped (confidence 2) [3A64D4A7] (AR v1)
Copy OK

Track 19

Filename D:\EACrips\Dr. Boogie Pres. Wasa Wasa\Cool Cats\19 - Jay Brown - Hanky Panky.wav

Pre-gap length 0:00:01.98

Peak level 97.7 %
Extraction speed 1.7 X
Track quality 100.0 %
Test CRC 4DBB0FEC
Copy CRC 4DBB0FEC
Accurately ripped (confidence 2) [421678F8] (AR v1)
Copy OK

Track 20

Filename D:\EACrips\Dr. Boogie Pres. Wasa Wasa\Cool Cats\20 - Gary Hodge - Not For Love Or Money.wav

Pre-gap length 0:00:02.00

Peak level 97.7 %
Extraction speed 1.7 X
Track quality 100.0 %
Test CRC 8DF2FC54
Copy CRC 8DF2FC54
Accurately ripped (confidence 2) [4593F663] (AR v1)
Copy OK

Track 21

Filename D:\EACrips\Dr. Boogie Pres. Wasa Wasa\Cool Cats\21 - Charles Senns - Gee Whee Liz.wav

Pre-gap length 0:00:02.00

Peak level 97.7 %
Extraction speed 1.7 X
Track quality 100.0 %
Test CRC 6123617A
Copy CRC 6123617A
Accurately ripped (confidence 2) [CAA81E90] (AR v1)
Copy OK

Track 22

Filename D:\EACrips\Dr. Boogie Pres. Wasa Wasa\Cool Cats\22 - Charles Page - Baby You've Been To School.wav

Pre-gap length 0:00:02.00

Peak level 97.7 %
Extraction speed 1.8 X
Track quality 100.0 %
Test CRC B733FD65
Copy CRC B733FD65
Accurately ripped (confidence 2) [F51E622C] (AR v1)
Copy OK

Track 23

Filename D:\EACrips\Dr. Boogie Pres. Wasa Wasa\Cool Cats\23 - T.K. Hulin - Little Bitty Boy.wav

Pre-gap length 0:00:02.00

Peak level 97.7 %
Extraction speed 1.8 X
Track quality 100.0 %
Test CRC 3622C87F
Copy CRC 3622C87F
Accurately ripped (confidence 2) [A459BCF9] (AR v1)
Copy OK

Track 24

Filename D:\EACrips\Dr. Boogie Pres. Wasa Wasa\Cool Cats\24 - Gene Maltais - Crazy Baby.wav

Pre-gap length 0:00:02.34

Peak level 97.7 %
Extraction speed 1.7 X
Track quality 100.0 %
Test CRC 9559C646
Copy CRC 9559C646
Accurately ripped (confidence 2) [AB648479] (AR v1)
Copy OK

Track 25

Filename D:\EACrips\Dr. Boogie Pres. Wasa Wasa\Cool Cats\25 - Bing Day - I Can't Help It.wav

Pre-gap length 0:00:02.40

Peak level 97.7 %
Extraction speed 1.7 X
Track quality 100.0 %
Test CRC 49647BB7
Copy CRC 49647BB7
Accurately ripped (confidence 2) [1CD13D2C] (AR v1)
Copy OK

Track 26

Filename D:\EACrips\Dr. Boogie Pres. Wasa Wasa\Cool Cats\26 - The Trashers - Sledgehammer.wav

Pre-gap length 0:00:02.00

Peak level 97.7 %
Extraction speed 1.9 X
Track quality 100.0 %
Test CRC A8DFE002
Copy CRC A8DFE002
Accurately ripped (confidence 2) [6F5A33B7] (AR v1)
Copy OK


All tracks accurately ripped

No errors occurred

End of status report

–– CUETools DB Plugin V2.1.3

[CTDB TOCID: eikzjm_FCKdtmuheCQ6UOE0FNJI-] disk not present in database, Submit result: eikzjm_FCKdtmuheCQ6UOE0FNJI- has been uploaded


==== Log checksum D5335E8A85799712EDBD0A7394FB7165334DBF6E49032B1CADED69BF975821A1 ====