Tags
Language
Tags

Duilio Galfetti, I Barocchisti, Diego Fasolis - Vivaldi: Concerti per violino, Vol. 3 (2009)

Posted By: tirexiss
Duilio Galfetti, I Barocchisti, Diego Fasolis - Vivaldi: Concerti per violino, Vol. 3 (2009)

Duilio Galfetti, I Barocchisti, Diego Fasolis - Vivaldi: Concerti per violino, Vol. 3 (2009)
EAC | FLAC (tracks+.cue, log) | Covers Included | 70:05 | 444 MB
Genre: Classical | Label: Naïve | Catalog: OP 30474

Naïve releases the third volume dedicated to Vivaldi’s violin concertos in its ground breaking project, the Vivaldi Edition. Multi award-winning violinist Duilio Galfetti is accompanied by acclaimed early music ensemble I Barocchisti under the direction of Diego Fasolis.
Vivaldi violin scholar Olivier Fouré continues to assist Naïve in giving coherence to the awesome task of recording some 90 violin concertos written by Vivaldi. Armed with a wealth of historical knowledge of the background to these concertos, he has cleverly divided them by theme. The violin concertos in this volume have been chosen specifically to reflect the strong influence of dance on the music of the composer. The recording features two of Vivaldi’s favourite violin concertos, RV210 and RV333, several sequences from RV333 are used in other compositions, notably the slow movement which recurs in RV556. They perfectly display Vivaldi’s inimitable genius for fashioning strong musical identities in next to no time.
After obtaining his diploma in violin from the Dreilinden Conservatory of Lucerne in the class of Gunars Larsens in 1989, Duilio M. Galfetti started a long collaboration with the Milanese Baroque ensemble Il Giardino Armonico. Over this period, as an accomplished lutenist as well as violinist, he made a number of major recordings for Teldec, including Bach’s Brandenburg Concertos, and Vivaldi’s complete mandolin and lute concertos, which were enthusiastically received by the critics and won numerous awards (Diapason d’Or, Choc du Monde de la Musique, and a Gramophone Award). In 1997 Duilio Galfetti became a member of the Swiss-Italian Radio Symphony Orchestra and founded the acclaimed early music ensemble I Barocchisti with Diego Fasolis.

Duilio Galfetti, I Barocchisti, Diego Fasolis - Vivaldi: Concerti per violino, Vol. 3 (2009)

Track List:

1-3. Concerto for Violin & Strings in A Major, RV 352
4-6. Concerto for Violin & Strings in G Major, RV 307
7-9. Concerto for Violin & Strings in E Major, RV 268
10-12. Concerto for Violin & Strings in G Minor, RV 333
13-15. Concerto for Violin & Strings in D Major, RV 210
16-18. Concerto for Violin & Strings in G Major, RV 312
19-21. Concerto for Violin & Strings in A Major, RV 350

Performers:
Duilio M. Galfetti, violin
Ансамбль: I Barocchisti
Diego Fasolis, conductor

Exact Audio Copy V0.99 prebeta 4 from 23. January 2008

EAC extraction logfile from 7. July 2009, 17:36

Duilio M. Galfetti / Vivaldi

Used drive : HL-DT-STDVDRAM GSA-T20N Adapter: 1 ID: 0

Read mode : Secure
Utilize accurate stream : Yes
Defeat audio cache : Yes
Make use of C2 pointers : No

Read offset correction : 667
Overread into Lead-In and Lead-Out : No
Fill up missing offset samples with silence : Yes
Delete leading and trailing silent blocks : No
Null samples used in CRC calculations : Yes
Used interface : Installed external ASPI interface
Gap handling : Appended to previous track

Used output format : User Defined Encoder
Selected bitrate : 768 kBit/s
Quality : High
Add ID3 tag : No
Command line compressor : C:\Program Files\FLAC\flac.exe
Additional command line options : -8 -V -T "artist=%a" -T "title=%t" -T "album=%g" -T "date=%y" -T "tracknumber=%n" -T "genre=%m" %s


TOC of the extracted CD

Track | Start | Length | Start sector | End sector
––––––––––––––––––––––––––––-
1 | 0:00.00 | 2:10.63 | 0 | 9812
2 | 2:10.63 | 1:48.20 | 9813 | 17932
3 | 3:59.08 | 2:40.02 | 17933 | 29934
4 | 6:39.10 | 3:09.43 | 29935 | 44152
5 | 9:48.53 | 2:43.02 | 44153 | 56379
6 | 12:31.55 | 3:51.41 | 56380 | 73745
7 | 16:23.21 | 3:45.27 | 73746 | 90647
8 | 20:08.48 | 3:23.14 | 90648 | 105886
9 | 23:31.62 | 3:54.56 | 105887 | 123492
10 | 27:26.43 | 5:06.10 | 123493 | 146452
11 | 32:32.53 | 2:38.64 | 146453 | 158366
12 | 35:11.42 | 4:44.30 | 158367 | 179696
13 | 39:55.72 | 4:42.07 | 179697 | 200853
14 | 44:38.04 | 2:39.58 | 200854 | 212836
15 | 47:17.62 | 4:28.14 | 212837 | 232950
16 | 51:46.01 | 3:01.19 | 232951 | 246544
17 | 54:47.20 | 1:53.41 | 246545 | 255060
18 | 56:40.61 | 3:04.40 | 255061 | 268900
19 | 59:45.26 | 3:56.04 | 268901 | 286604
20 | 63:41.30 | 2:16.33 | 286605 | 296837
21 | 65:57.63 | 4:07.12 | 296838 | 315374


Track 1

Filename C:\ista\Duilio M. Galfetti\Vivaldi\01 01 - Vivaldi Concerto for Violin in A major RV 352_01_Allegro molto.wav

Pre-gap length 0:00:02.00

Peak level 99.4 %
Track quality 99.9 %
Test CRC 96657C65
Copy CRC 96657C65
Accurately ripped (confidence 2) [AE6149EF]
Copy OK

Track 2

Filename C:\ista\Duilio M. Galfetti\Vivaldi\02 02 - Vivaldi Concerto for Violin in A major RV 352_02_Largo.wav

Peak level 34.2 %
Track quality 99.9 %
Test CRC 0BC7D5B4
Copy CRC 0BC7D5B4
Accurately ripped (confidence 2) [61E6E8C7]
Copy OK

Track 3

Filename C:\ista\Duilio M. Galfetti\Vivaldi\03 03 - Vivaldi Concerto for Violin in A major RV 352_03_Allegro.wav

Peak level 99.3 %
Track quality 100.0 %
Test CRC 47131CF3
Copy CRC 47131CF3
Accurately ripped (confidence 2) [ED50876F]
Copy OK

Track 4

Filename C:\ista\Duilio M. Galfetti\Vivaldi\04 04 - Vivaldi Concero for Violin in G major RV 307_01_Allegro molto.wav

Pre-gap length 0:00:02.21

Peak level 99.4 %
Track quality 99.9 %
Test CRC 2EDA180B
Copy CRC 2EDA180B
Accurately ripped (confidence 2) [44ED0C3C]
Copy OK

Track 5

Filename C:\ista\Duilio M. Galfetti\Vivaldi\05 05 - Vivaldi Concero for Violin in G major RV 307_02_Adagio.wav

Peak level 41.6 %
Track quality 99.9 %
Test CRC AE23CACF
Copy CRC AE23CACF
Accurately ripped (confidence 2) [0867FF49]
Copy OK

Track 6

Filename C:\ista\Duilio M. Galfetti\Vivaldi\06 06 - Vivaldi Concero for Violin in G major RV 307_03_Allegro.wav

Peak level 99.3 %
Track quality 100.0 %
Test CRC CCD34D3B
Copy CRC CCD34D3B
Accurately ripped (confidence 2) [43F37C4D]
Copy OK

Track 7

Filename C:\ista\Duilio M. Galfetti\Vivaldi\07 07 - Vivaldi Concero for Violin in D major RV 268_01_Allegro.wav

Pre-gap length 0:00:02.20

Peak level 77.0 %
Track quality 100.0 %
Test CRC 13F1EB62
Copy CRC 13F1EB62
Accurately ripped (confidence 2) [A7714980]
Copy OK

Track 8

Filename C:\ista\Duilio M. Galfetti\Vivaldi\08 08 - Vivaldi Concero for Violin in D major RV 268_02_Largo.wav

Peak level 70.7 %
Track quality 99.9 %
Test CRC CAB9AAC9
Copy CRC CAB9AAC9
Accurately ripped (confidence 2) [5C3921E0]
Copy OK

Track 9

Filename C:\ista\Duilio M. Galfetti\Vivaldi\09 09 - Vivaldi Concero for Violin in D major RV 268_03_Allegro.wav

Peak level 99.4 %
Track quality 99.9 %
Test CRC FB5A85B3
Copy CRC FB5A85B3
Accurately ripped (confidence 2) [F17B755D]
Copy OK

Track 10

Filename C:\ista\Duilio M. Galfetti\Vivaldi\10 10 - Vivaldi Concero for Violin in G major RV 333_01_Allegro.wav

Pre-gap length 0:00:02.21

Peak level 99.2 %
Track quality 100.0 %
Test CRC 93D0539B
Copy CRC 93D0539B
Accurately ripped (confidence 2) [8CD3C352]
Copy OK

Track 11

Filename C:\ista\Duilio M. Galfetti\Vivaldi\11 11 - Vivaldi Concero for Violin in G major RV 333_02_Andante cantabile.wav

Peak level 48.9 %
Track quality 100.0 %
Test CRC 047EB9CA
Copy CRC 047EB9CA
Accurately ripped (confidence 2) [5763FF88]
Copy OK

Track 12

Filename C:\ista\Duilio M. Galfetti\Vivaldi\12 12 - Vivaldi Concero for Violin in G major RV 333_03_Allegro.wav

Peak level 99.4 %
Track quality 100.0 %
Test CRC A975AAB0
Copy CRC A975AAB0
Accurately ripped (confidence 2) [CD8ACE49]
Copy OK

Track 13

Filename C:\ista\Duilio M. Galfetti\Vivaldi\13 13 - Vivaldi Concero for Violin in D major RV 210_01_Allegro.wav

Pre-gap length 0:00:02.20

Peak level 99.1 %
Track quality 100.0 %
Test CRC 44378CCD
Copy CRC 44378CCD
Accurately ripped (confidence 2) [9D5D3D91]
Copy OK

Track 14

Filename C:\ista\Duilio M. Galfetti\Vivaldi\14 14 - Vivaldi Concero for Violin in D major RV 210_02_Largo.wav

Peak level 46.3 %
Track quality 100.0 %
Test CRC BDF31660
Copy CRC BDF31660
Accurately ripped (confidence 2) [64826BBB]
Copy OK

Track 15

Filename C:\ista\Duilio M. Galfetti\Vivaldi\15 15 - Vivaldi Concero for Violin in D major RV 210_03_Allegro.wav

Peak level 98.9 %
Track quality 100.0 %
Test CRC 455FAEBA
Copy CRC 455FAEBA
Accurately ripped (confidence 2) [82AEA593]
Copy OK

Track 16

Filename C:\ista\Duilio M. Galfetti\Vivaldi\16 16 - Vivaldi Concero for Violin in G major RV 312_01_Allegro molto.wav

Pre-gap length 0:00:02.21

Peak level 98.1 %
Track quality 100.0 %
Test CRC 7D502496
Copy CRC 7D502496
Accurately ripped (confidence 2) [0F0312AB]
Copy OK

Track 17

Filename C:\ista\Duilio M. Galfetti\Vivaldi\17 17 - Vivaldi Concero for Violin in G major RV 312_02_Larghetto.wav

Peak level 93.1 %
Track quality 99.9 %
Test CRC C05C80D1
Copy CRC C05C80D1
Accurately ripped (confidence 2) [BA93672F]
Copy OK

Track 18

Filename C:\ista\Duilio M. Galfetti\Vivaldi\18 18 - Vivaldi Concero for Violin in G major RV 312_03_Allegro.wav

Peak level 99.4 %
Track quality 100.0 %
Test CRC 9FE18DF5
Copy CRC 9FE18DF5
Accurately ripped (confidence 2) [7D583DD1]
Copy OK

Track 19

Filename C:\ista\Duilio M. Galfetti\Vivaldi\19 19 - Vivaldi Concero for Violin in A major RV 350_01_Allegro molto.wav

Pre-gap length 0:00:02.20

Peak level 99.4 %
Track quality 100.0 %
Test CRC 0A700AFA
Copy CRC 0A700AFA
Accurately ripped (confidence 2) [160D4429]
Copy OK

Track 20

Filename C:\ista\Duilio M. Galfetti\Vivaldi\20 20 - Vivaldi Concero for Violin in A major RV 350_02_Largo.wav

Peak level 42.4 %
Track quality 100.0 %
Test CRC AD1D81A0
Copy CRC AD1D81A0
Accurately ripped (confidence 2) [014E047A]
Copy OK

Track 21

Filename C:\ista\Duilio M. Galfetti\Vivaldi\21 21 - Vivaldi Concero for Violin in A major RV 350_03_Allegro.wav

Peak level 99.2 %
Track quality 100.0 %
Test CRC 1E8019E1
Copy CRC 1E8019E1
Accurately ripped (confidence 2) [EF5FD038]
Copy OK


All tracks accurately ripped

No errors occurred

End of status report

Thanks to the Original ripper (unknown)!

Download: