Subcategories

Duke Ellington - Reminiscing In Tempo (1991)

Posted By: Designol
Duke Ellington - Reminiscing In Tempo (1991)

Duke Ellington - Reminiscing In Tempo (1991)
EAC | FLAC | Tracks (Cue&Log) ~ 241 Mb (incl 5%) | Mp3 (CBR320) ~ 190 Mb (incl 5%) | Scans included
Genre: Jazz, Big Band, Swing | Label: Columbia/Legacy | # CK 48654 | Time: 01:16:41

Just the fact that Ellington's extended masterpiece "Reminiscing in Tempo" is included here in its original and continuous form is reason enough to pick up this compilation. Initially recorded in 1935, "Reminiscing" was the first thoroughly composed jazz piece and one that not only demonstrated Ellington's knack for longer forms, but also featured practically all of his singular soloists. Upon its first release, the 13-minute piece was broken up over a few 78s, later making its way into EP form. Currently, the Classics label includes it on one of its Chronological discs, but spread over four distinct tracks. So, this 1991 Columbia release might be the only way to get this great work in its seamless form as it was originally recorded. Collector's concerns aside, this CD was the audio companion to an Ellington documentary aired on PBS. Predictably, it provides something of an overview of Ellington's career, beginning with a recording of "The Mooche" from his Cotton Club days in the late '20s up through a version of "Black Beauty" from 1960. Featured extensively are tracks from the '30s, including classics like "It Don't Mean a Thing (If It Ain't Got That Swing)" and "Sophisticated Lady." Original gems from the watershed '40s years are here too, including "Mood Indigo" and the somewhat obscure but beautiful "On a Turquoise Cloud" from 1947. Unfortunately, since this is Columbia and not RCA, the versions of "Cotton Tail," "Don't Get Around Much Anymore" (originally entitled "Never No Lament"), and "Take The 'A' Train" are not the well-known Blanton-Webster studio recordings from 1940, but inferior versions from various soundtracks recorded in Hollywood the same year. Bringing up collector's concerns again, though, these "alternate" tracks might be a plus and certainly figure in here with the Okeh versions of the '20s material (as opposed to the more popular Bluebeard/Victor releases) and an alternate take of Mahalia Jackson's incredible vocal performance of "Come Sunday," as performed with the Ellington band in 1956. So, on one hand this disc offers a fine introduction to Ellington's catalog since, in its breadth, it gives the listener a chance to decide which period appeals the most and, as such, an entry point to the bandleader's vast body of work. For those who want to dig right into the essential core, though, it's best to pick up the early-'20s material on various Bluebird reissues, as well as RCA's three-disc Blanton-Webster Band set of recordings from 1940.

Review by Stephen Cook, Allmusic.com

Duke Ellington - Reminiscing In Tempo (1991)



Tracklist:

01. The Mooche (03:14)
02. Old Man Blues (03:07)
03. Rockin' In Rhythm (03:16)
04. It Don't Mean A Thing (If It Ain't Got That Swing) (03:11)
05. Sophisticated Lady (03:11)
06. Merry-Go-Round (03:00)
07. Reminiscing In Tempo (12:55)
08. The Laborers (02:40)
09. New East St. Louis Toodle-oo (03:01)
10. Prologue To The Black And Tan Fantasy (02:36)
11. The New Black And Tan Fantasy (02:43)
12. Grievin' (03:38)
13. Mood Indigo (02:44)
14. Cotton Tail (03:05)
15. Don't Get Around Much Anymore (02:56)
16. Take The 'A' Train (02:56)
17. On A Turquoise Cloud (03:24)
18. I Got It Bad And That Ain't Good (03:39)
19. Come Sunday (07:58)
20. Black Beauty (03:16)


Exact Audio Copy V1.1 from 23. June 2015

EAC extraction logfile from 24. October 2016, 20:19

Duke Ellington / Reminiscing In Tempo

Used drive : PBDS CD-ROM DH-48N1S Adapter: 1 ID: 0

Read mode : Secure
Utilize accurate stream : Yes
Defeat audio cache : Yes
Make use of C2 pointers : No

Read offset correction : 6
Overread into Lead-In and Lead-Out : No
Fill up missing offset samples with silence : Yes
Delete leading and trailing silent blocks : No
Null samples used in CRC calculations : Yes
Used interface : Native Win32 interface for Win NT & 2000
Gap handling : Appended to previous track

Used output format : User Defined Encoder
Selected bitrate : 768 kBit/s
Quality : High
Add ID3 tag : No
Command line compressor : C:\Program Files (x86)\Exact Audio Copy\FLAC\FLAC.EXE
Additional command line options : -8 -V -T "ARTIST=%artist%" -T "TITLE=%title%" -T "ALBUM=%albumtitle%" -T "DATE=%year%" -T "TRACKNUMBER=%tracknr%" -T "GENRE=%genre%" -T "PERFORMER=%albuminterpret%" -T "COMPOSER=%composer%" %haslyrics%–tag-from-file=LYRICS="%lyricsfile%"%haslyrics% -T "ALBUMARTIST=%albumartist%" -T "DISCNUMBER=%cdnumber%" -T "TOTALDISCS=%totalcds%" -T "TOTALTRACKS=%numtracks%" -T "COMMENT=%comment%" %source% -o %dest%


TOC of the extracted CD

Track | Start | Length | Start sector | End sector
––––––––––––––––––––––––––––-
1 | 0:00.00 | 3:14.02 | 0 | 14551
2 | 3:14.02 | 3:07.63 | 14552 | 28639
3 | 6:21.65 | 3:16.67 | 28640 | 43406
4 | 9:38.57 | 3:11.28 | 43407 | 57759
5 | 12:50.10 | 3:11.57 | 57760 | 72141
6 | 16:01.67 | 3:00.23 | 72142 | 85664
7 | 19:02.15 | 12:55.35 | 85665 | 143824
8 | 31:57.50 | 2:40.35 | 143825 | 155859
9 | 34:38.10 | 3:01.42 | 155860 | 169476
10 | 37:39.52 | 2:36.73 | 169477 | 181249
11 | 40:16.50 | 2:43.10 | 181250 | 193484
12 | 42:59.60 | 3:38.02 | 193485 | 209836
13 | 46:37.62 | 2:44.35 | 209837 | 222171
14 | 49:22.22 | 3:05.45 | 222172 | 236091
15 | 52:27.67 | 2:56.38 | 236092 | 249329
16 | 55:24.30 | 2:56.45 | 249330 | 262574
17 | 58:21.00 | 3:24.52 | 262575 | 277926
18 | 61:45.52 | 3:39.63 | 277927 | 294414
19 | 65:25.40 | 7:58.50 | 294415 | 330314
20 | 73:24.15 | 3:16.42 | 330315 | 345056


Track 1

Filename C:\EACRips\01 - The Mooche.wav

Pre-gap length 0:00:02.00

Peak level 78.6 %
Extraction speed 4.3 X
Track quality 100.0 %
Test CRC AF027FEF
Copy CRC AF027FEF
Accurately ripped (confidence 4) [3DBD589C] (AR v2)
Copy OK

Track 2

Filename C:\EACRips\02 - Old Man Blues.wav

Pre-gap length 0:00:02.82

Peak level 65.7 %
Extraction speed 4.2 X
Track quality 100.0 %
Test CRC 21E861E0
Copy CRC 21E861E0
Accurately ripped (confidence 3) [F43B09D4] (AR v2)
Copy OK

Track 3

Filename C:\EACRips\03 - Rockin' In Rhythm.wav

Pre-gap length 0:00:02.84

Peak level 81.0 %
Extraction speed 4.2 X
Track quality 99.9 %
Test CRC C49DEBEF
Copy CRC C49DEBEF
Accurately ripped (confidence 4) [0C34477E] (AR v2)
Copy OK

Track 4

Filename C:\EACRips\04 - It Don't Mean A Thing (If It Ain't Got That Swing).wav

Pre-gap length 0:00:02.82

Peak level 89.1 %
Extraction speed 5.4 X
Track quality 100.0 %
Test CRC 91451EC5
Copy CRC 91451EC5
Accurately ripped (confidence 4) [EED189C1] (AR v2)
Copy OK

Track 5

Filename C:\EACRips\05 - Sophisticated Lady.wav

Pre-gap length 0:00:02.84

Peak level 82.5 %
Extraction speed 5.6 X
Track quality 100.0 %
Test CRC C3C2DB62
Copy CRC C3C2DB62
Accurately ripped (confidence 4) [BAA8E152] (AR v2)
Copy OK

Track 6

Filename C:\EACRips\06 - Merry-Go-Round.wav

Pre-gap length 0:00:02.82

Peak level 79.4 %
Extraction speed 5.8 X
Track quality 100.0 %
Test CRC C495D006
Copy CRC C495D006
Accurately ripped (confidence 4) [41134634] (AR v2)
Copy OK

Track 7

Filename C:\EACRips\07 - Reminiscing In Tempo.wav

Pre-gap length 0:00:02.80

Peak level 83.6 %
Extraction speed 7.3 X
Track quality 100.0 %
Test CRC 68193B58
Copy CRC 68193B58
Accurately ripped (confidence 4) [18281D9C] (AR v2)
Copy OK

Track 8

Filename C:\EACRips\08 - The Laborers.wav

Pre-gap length 0:00:02.86

Peak level 78.8 %
Extraction speed 6.0 X
Track quality 100.0 %
Test CRC 8AD308FA
Copy CRC 8AD308FA
Accurately ripped (confidence 4) [D63F8517] (AR v2)
Copy OK

Track 9

Filename C:\EACRips\09 - New East St. Louis Toodle-oo.wav

Pre-gap length 0:00:02.84

Peak level 84.1 %
Extraction speed 5.9 X
Track quality 99.9 %
Test CRC 23458DB7
Copy CRC 23458DB7
Accurately ripped (confidence 3) [43DC9BF4] (AR v2)
Copy OK

Track 10

Filename C:\EACRips\10 - Prologue To The Black And Tan Fantasy.wav

Pre-gap length 0:00:02.82

Peak level 84.2 %
Extraction speed 7.1 X
Track quality 100.0 %
Test CRC 3D3F2678
Copy CRC 3D3F2678
Accurately ripped (confidence 4) [7F1C8491] (AR v2)
Copy OK

Track 11

Filename C:\EACRips\11 - The New Black And Tan Fantasy.wav

Pre-gap length 0:00:02.84

Peak level 83.9 %
Extraction speed 7.3 X
Track quality 100.0 %
Test CRC 1F562E34
Copy CRC 1F562E34
Accurately ripped (confidence 4) [CFD11AC5] (AR v2)
Copy OK

Track 12

Filename C:\EACRips\12 - Grievin'.wav

Pre-gap length 0:00:02.84

Peak level 86.1 %
Extraction speed 7.9 X
Track quality 100.0 %
Test CRC 7EF9B0F0
Copy CRC 7EF9B0F0
Accurately ripped (confidence 3) [376C3D83] (AR v2)
Copy OK

Track 13

Filename C:\EACRips\13 - Mood Indigo.wav

Pre-gap length 0:00:02.82

Peak level 53.8 %
Extraction speed 7.8 X
Track quality 100.0 %
Test CRC 5BBEA04D
Copy CRC 5BBEA04D
Accurately ripped (confidence 4) [A71E03E8] (AR v2)
Copy OK

Track 14

Filename C:\EACRips\14 - Cotton Tail.wav

Pre-gap length 0:00:02.82

Peak level 79.4 %
Extraction speed 6.7 X
Track quality 99.9 %
Test CRC EB271740
Copy CRC EB271740
Accurately ripped (confidence 4) [201BABB6] (AR v2)
Copy OK

Track 15

Filename C:\EACRips\15 - Don't Get Around Much Anymore.wav

Pre-gap length 0:00:02.82

Peak level 81.4 %
Extraction speed 8.1 X
Track quality 100.0 %
Test CRC B5EC8548
Copy CRC B5EC8548
Accurately ripped (confidence 3) [5E6E4D84] (AR v2)
Copy OK

Track 16

Filename C:\EACRips\16 - Take The 'A' Train.wav

Pre-gap length 0:00:02.84

Peak level 87.2 %
Extraction speed 6.8 X
Track quality 99.9 %
Test CRC 700A63AE
Copy CRC 700A63AE
Accurately ripped (confidence 3) [E32ADE46] (AR v2)
Copy OK

Track 17

Filename C:\EACRips\17 - On A Turquoise Cloud.wav

Pre-gap length 0:00:02.84

Peak level 69.6 %
Extraction speed 8.6 X
Track quality 100.0 %
Test CRC 562F05A9
Copy CRC 562F05A9
Accurately ripped (confidence 3) [242012AB] (AR v2)
Copy OK

Track 18

Filename C:\EACRips\18 - I Got It Bad And That Ain't Good.wav

Pre-gap length 0:00:02.76

Peak level 69.2 %
Extraction speed 8.9 X
Track quality 100.0 %
Test CRC 4AF2FFED
Copy CRC 4AF2FFED
Accurately ripped (confidence 3) [93C451B5] (AR v2)
Copy OK

Track 19

Filename C:\EACRips\19 - Come Sunday.wav

Pre-gap length 0:00:02.84

Peak level 64.5 %
Extraction speed 9.9 X
Track quality 100.0 %
Test CRC 535ACF3F
Copy CRC 535ACF3F
Accurately ripped (confidence 3) [9D6218F0] (AR v2)
Copy OK

Track 20

Filename C:\EACRips\20 - Black Beauty.wav

Pre-gap length 0:00:02.84

Peak level 73.6 %
Extraction speed 7.7 X
Track quality 99.9 %
Test CRC 43536AD4
Copy CRC 43536AD4
Accurately ripped (confidence 4) [23811597] (AR v1)
Copy OK


All tracks accurately ripped

No errors occurred

End of status report

–– CUETools DB Plugin V2.1.6

[CTDB TOCID: x6M9N0pfr1kedE9iiJGjeO9J9zE-] found
Submit result: x6M9N0pfr1kedE9iiJGjeO9J9zE- has been confirmed
Track | CTDB Status
1 | (1/1) Accurately ripped
2 | (1/1) Accurately ripped
3 | (1/1) Accurately ripped
4 | (1/1) Accurately ripped
5 | (1/1) Accurately ripped
6 | (1/1) Accurately ripped
7 | (1/1) Accurately ripped
8 | (1/1) Accurately ripped
9 | (1/1) Accurately ripped
10 | (1/1) Accurately ripped
11 | (1/1) Accurately ripped
12 | (1/1) Accurately ripped
13 | (1/1) Accurately ripped
14 | (1/1) Accurately ripped
15 | (1/1) Accurately ripped
16 | (1/1) Accurately ripped
17 | (1/1) Accurately ripped
18 | (1/1) Accurately ripped
19 | (1/1) Accurately ripped
20 | (1/1) Accurately ripped


==== Log checksum 1D225C274E35997DE3B5C1B1F43FF027648370FB518008C60753229BFB24151E ====

foobar2000 1.2 / Dynamic Range Meter 1.1.1
log date: 2016-11-04 20:04:01

––––––––––––––––––––––––––––––––––––––––
Analyzed: Duke Ellington / Reminiscing In Tempo
––––––––––––––––––––––––––––––––––––––––

DR Peak RMS Duration Track
––––––––––––––––––––––––––––––––––––––––
DR13 -2.09 dB -19.19 dB 3:14 01-The Mooche
DR12 -3.64 dB -19.20 dB 3:08 02-Old Man Blues
DR13 -1.83 dB -18.33 dB 3:17 03-Rockin' In Rhythm
DR13 -1.00 dB -16.96 dB 3:11 04-It Don't Mean A Thing (If It Ain't Got That Swing)
DR10 -1.66 dB -15.30 dB 3:12 05-Sophisticated Lady
DR14 -2.00 dB -18.68 dB 3:00 06-Merry-Go-Round
DR14 -1.55 dB -19.09 dB 12:55 07-Reminiscing In Tempo
DR15 -2.06 dB -20.15 dB 2:40 08-The Laborers
DR12 -1.50 dB -15.67 dB 3:02 09-New East St. Louis Toodle-oo
DR12 -1.49 dB -17.58 dB 2:37 10-Prologue To The Black And Tan Fantasy
DR13 -1.52 dB -21.04 dB 2:43 11-The New Black And Tan Fantasy
DR15 -1.30 dB -18.14 dB 3:38 12-Grievin'
DR10 -5.38 dB -18.46 dB 2:44 13-Mood Indigo
DR11 -2.00 dB -15.58 dB 3:06 14-Cotton Tail
DR9 -1.78 dB -13.39 dB 2:57 15-Don't Get Around Much Anymore
DR11 -1.18 dB -15.22 dB 2:57 16-Take The 'A' Train
DR10 -3.14 dB -18.54 dB 3:25 17-On A Turquoise Cloud
DR13 -3.19 dB -20.00 dB 3:40 18-I Got It Bad And That Ain't Good
DR12 -3.81 dB -20.84 dB 7:59 19-Come Sunday
DR12 -2.66 dB -21.54 dB 3:17 20-Black Beauty
––––––––––––––––––––––––––––––––––––––––

Number of tracks: 20
Official DR value: DR12

Samplerate: 44100 Hz
Channels: 2
Bits per sample: 16
Bitrate: 725 kbps
Codec: FLAC
================================================================================

Duke Ellington - Reminiscing In Tempo (1991)

All thanks to original releaser - robman62

More interesting music in My Blog