Tags
Language
Tags

Duke Ellington - Masterpieces 1926-1949 [4CD Box Set] (2001)

Posted By: gribovar
Duke Ellington - Masterpieces 1926-1949 [4CD Box Set] (2001)

Duke Ellington - Masterpieces 1926-1949 [4CD Box Set] (2001)
EAC Rip | FLAC (tracks+.cue+log) - 611 MB | Covers - 268 MB
Genre: Jazz, Big Band, Swing | RAR 3% Rec. | Label: Proper Records (PROPERBOX 25)

The Genius of Duke Ellington, bandleader extraordinaire, pianist and greatest American composer of the 20th century is celebrated in the 93 ducal masterpieces featured in this 4 CD box set. Ellington's achievements as composer, arranger, pianist and bandleader touch a bewildering variety of levels, producing music that has never been surpassed, music that has been a constant inspiration to numerous other musicians, and those who truly appreciate Ellington's achievements.
CD 1 Tracklist (Mood Indigo):
01. East St. Louis Toodle (Ellington, Miley) 1926
02. Birmingham Breakdown (Ellington) 1926
03. Black And Tan Fantasy (Ellington, Miley) 1927
04. Black Beauty (Ellington) 1928
05. The Mooche (Ellington, Mills) 1928
06. Awful Sad (Ellington) 1928
07. The Blues With A Feelin (Ellington) 1928
08. Misty Mornin' (Ellington, Whetsol) 1928
09. Flaming Youth (Ellington) 1929
10. Hot Feet (Fields, McHugh) 1929
11. Double Check Stomp (Bigard, Braud, Hodges) 1930
12. Ring Dem Bells (Ellington, Mills) 1930
13. Old Man Blues (Ellington) 1930
14. Mood Indigo (Ellington, Bigard, Mills) 1930
15. Rockin' In Rhythm (Ellington, Carney) 1930
16. Echoes Of The Jungle (Willams, Mills) 1931
17. The Mystery Song (Ellington, Mills) 1931
18. It Don't Mean A Thing (If It Ain't Got That Swing) (Ellington, Mills) 1932
19. Lazy Rhapsody (Ellington, Mills, Gaskill) 1932
20. Creole Love Call (Ellington, Miley) 1932
21. Blue Ramble (Ellington) 1932
22. Ducky Wucky (Ellington, Bigard) 1932
23. Eerie Moan (Wiley, Young) 1933
24. Sophisticated Lady (Ellington, Parish) 1933

Total time: 01:16:32

CD 2 Tracklist (In A Sentimental Mood):
01. Slippery Horn (Ellington) 1933
02. Drop Me Off At Harlem (Ellington, Carney) 1933
03. Daybreak Express (Ellington) 1933
04. Delta Serenade (Ellington) 1934
05. Stompy Jones (Ellington) 1934
06. Solitude (Ellington, De Lange, Mills) 1934
07. Blue Feeling (Ellington) 1934
08. Saddest Tale (Ellington) 1934
09. Moonglow (Hudson, De Lange, Mills) 1934
10. In A Sentimental Mood (Ellington, Kurtz, Mills) 1934
11. Showboat Shuffle (Ellington) 1935
12. Reminiscing in Tempo, pts 1,2,3,4 (Ellington) 1935
13. Clarinet Lament (Barney's Concerto) (Ellington, Bigard) 1936
14. Echos of Harlem (Cootie's Concerto) (Ellington) 1936
15. Black Butterfly (Ellington, Mills, Carruthers) 1936
16. Caravan (Ellington, Tizol) 1937
17. Azure (Ellington, Mills) 1937
18. Diminuendo In Blue (Ellington) 1937
19. Crescendo In Blue (Ellington) 1937
20. Steppin' Into Swing Society (Ellington, Nemo) 1938
21. Lost I Meditation (Tizol, Ellington, Mills) 1938

Total time: 01:15:10

CD 3 Tracklist (Ko-Ko):
01. I Let A Song Go Out Of My Heart (Ellington, Mills, Nemo) 1938
02. Rose Of The Rio Grande ( Leslie, Warren, Gorman) 1938
03. Pyramid (Tizol) 1938
04. Prelude To A Kiss (Ellington, Gordon, Mills) 1938
05. Blue Light (Transbluency) (Ellington) 1938
06. Boy Meets Horn (Ellington, Stewart, Mills) 1938
07. Slap Happy (Ellington) 1938
08. Serenade To Sweden (Ellington) 1939
09. The Sergeant Was Shy (Ellington) 1939
10. Jack The Bear (Ellington) 1940
11. Ko-Ko (Ellington) 1940
12. Congo Brava (Ellington, Tizol) 1940
13. Concerto For Cootie (Ellington) 1940
14. Cotton Tail (Ellington) 1940
15. Never No Lament (Ellington) 1940
16. Dusk (Ellington) 1940
17. Bojangles (A Portrait Of Bill Robinson) (Ellington) 1940
18. A Portrait Of Bert Williams (Ellington) 1940
19. Harlem Air-Shaft (Ellington) 1940
20. All Too Soon (Ellington) 1940
21. Sepia Panorama (Ellington) 1940
22. In A Mellotone (Ellington) 1940
23. Warm Valley (Ellington) 1940
24. Across The Track Blues (Ellington) 1940
25. Day Dream (Strayhorn, Ellington) 1940

Total time: 01:17:32

CD 4 Tracklist (Take The A-Train):
01. Pussy Willow (Ellington) 1940
02. The Sidewalks New York ( Lawlor, Blake) 1940
03. Take The 'A' Train (Strayhorn) 1941
04. Blue Serge (M. Ellington) 1941
05. Just A-Settin' And A-Rockin' (Ellington, Strayhorn, Gaines) 1941
06. I Got It Bad (And That Ain't Good) (Ellington, Webster) 1941
07. Clementine (Strayhorn) 1941
08. Jump For Joy (Ellington, Webster, Kuller) 1941
09. Chelsea Bridge (Strayhorn) 1941
10. Raincheck (Strayhorn) 1941
11. Perdido (Tizol) 1942
12. The 'C' Jam Blues (Ellington) 1942
13. Moon Mist (M. Ellington) 1942
14. What Am I Here For? (Ellington) 1942
15. Main Stem (Ellington) 1942
16. Johnny Come Lately (Strayhorn) 1942
17. I'm Beginning To See The Light (Ellington, James, Hodges, George) 1944
18. Transbluency (Ellington, Brown) 1946
19. Lady Of The Lavender Mist (Ellington) 1947
20. Sultry Serenade (Ellington) 1947
21. Air Conditioned Jungle (Ellington) 1947
22. The Clothed Woman (Ellington) 1947
23. Snibor (Strayhorn) 1949

Total time: 01:12:42

EAC extraction logfile from 14. May 2007, 14:22 for CD
Duke Ellington / Masterpieces 1926-1949 - CD 1 Mood Indigo

Used drive : LITE-ON DVDRW SOHW-832S Adapter: 1 ID: 0
Read mode : Secure with NO C2, accurate stream, disable cache
Read offset correction : 12
Overread into Lead-In and Lead-Out : No

Used output format : D:\Program Files\FLAC\flac.exe (User Defined Encoder)
320 kBit/s
Additional command line options : -8 -V -T "ARTIST=%a" -T "TITLE=%t" -T "ALBUM=%g" -T "DATE=%y" -T "TRACKNUMBER=%n" -T "GENRE=%m" -T "COMMENT=EAC Flac 1.1.4 -8" %s

Other options :
Fill up missing offset samples with silence : Yes
Delete leading and trailing silent blocks : No
Native Win32 interface for Win NT & 2000


Track 1
Filename C:\Rip\01 - East St. Louis Toodle-oo.wav

Pre-gap length 0:00:02.00

Peak level 94.3 %
Track quality 100.0 %
Test CRC 1D9E4024
Copy CRC 1D9E4024
Copy OK

Track 2
Filename C:\Rip\02 - Birmingham Breakdown.wav

Pre-gap length 0:00:02.53

Peak level 94.2 %
Track quality 100.0 %
Test CRC 22F81452
Copy CRC 22F81452
Copy OK

Track 3
Filename C:\Rip\03 - Black And Tan Fantasy.wav

Pre-gap length 0:00:02.53

Peak level 84.5 %
Track quality 100.0 %
Test CRC 735BF641
Copy CRC 735BF641
Copy OK

Track 4
Filename C:\Rip\04 - Black Beauty.wav

Pre-gap length 0:00:02.53

Peak level 94.3 %
Track quality 100.0 %
Test CRC DA977510
Copy CRC DA977510
Copy OK

Track 5
Filename C:\Rip\05 - The Mooche.wav

Pre-gap length 0:00:02.53

Peak level 90.2 %
Track quality 100.0 %
Test CRC 666A1A54
Copy CRC 666A1A54
Copy OK

Track 6
Filename C:\Rip\06 - Awful Sad.wav

Pre-gap length 0:00:02.53

Peak level 87.9 %
Track quality 100.0 %
Test CRC CFAEBA05
Copy CRC CFAEBA05
Copy OK

Track 7
Filename C:\Rip\07 - The Blues With A Feelin'.wav

Pre-gap length 0:00:02.53

Peak level 94.3 %
Track quality 99.9 %
Test CRC 4C0CB192
Copy CRC 4C0CB192
Copy OK

Track 8
Filename C:\Rip\08 - Misty Mornin'.wav

Pre-gap length 0:00:02.53

Peak level 92.3 %
Track quality 100.0 %
Test CRC 2C35E584
Copy CRC 2C35E584
Copy OK

Track 9
Filename C:\Rip\09 - Flaming Youth.wav

Pre-gap length 0:00:02.53

Peak level 94.3 %
Track quality 99.9 %
Test CRC 40FAB3BB
Copy CRC 40FAB3BB
Copy OK

Track 10
Filename C:\Rip\10 - Hot Feet.wav

Pre-gap length 0:00:02.53

Peak level 90.2 %
Track quality 100.0 %
Test CRC 415DBC1D
Copy CRC 415DBC1D
Copy OK

Track 11
Filename C:\Rip\11 - Double Check Stomp.wav

Pre-gap length 0:00:02.53

Peak level 94.3 %
Track quality 100.0 %
Test CRC AD0D2FCA
Copy CRC AD0D2FCA
Copy OK

Track 12
Filename C:\Rip\12 - Ring Dem Bells.wav

Pre-gap length 0:00:02.53

Peak level 94.3 %
Track quality 100.0 %
Test CRC 70D8D995
Copy CRC 70D8D995
Copy OK

Track 13
Filename C:\Rip\13 - Old Man Blues.wav

Pre-gap length 0:00:02.53

Peak level 82.2 %
Track quality 100.0 %
Test CRC 8557AD0B
Copy CRC 8557AD0B
Copy OK

Track 14
Filename C:\Rip\14 - Mood Indigo.wav

Pre-gap length 0:00:02.53

Peak level 91.7 %
Track quality 100.0 %
Test CRC EBE49BDC
Copy CRC EBE49BDC
Copy OK

Track 15
Filename C:\Rip\15 - Rockin' In Rhythm.wav

Pre-gap length 0:00:02.53

Peak level 94.3 %
Track quality 99.9 %
Test CRC 78E23AAC
Copy CRC 78E23AAC
Copy OK

Track 16
Filename C:\Rip\16 - Echoes Of The Jungle.wav

Pre-gap length 0:00:02.53

Peak level 94.3 %
Track quality 100.0 %
Test CRC 719ABC0B
Copy CRC 719ABC0B
Copy OK

Track 17
Filename C:\Rip\17 - The Mystery Song.wav

Pre-gap length 0:00:02.53

Peak level 94.3 %
Track quality 99.9 %
Test CRC 9B0A8A99
Copy CRC 9B0A8A99
Copy OK

Track 18
Filename C:\Rip\18 - It Don't Mean A Thing (If It Ain't Got That Swing).wav

Pre-gap length 0:00:02.53

Peak level 94.3 %
Track quality 100.0 %
Test CRC 05CB8634
Copy CRC 05CB8634
Copy OK

Track 19
Filename C:\Rip\19 - Lazy Rhapsody.wav

Pre-gap length 0:00:02.53

Peak level 94.3 %
Track quality 100.0 %
Test CRC 8C9D90B3
Copy CRC 8C9D90B3
Copy OK

Track 20
Filename C:\Rip\20 - Creole Love Call.wav

Pre-gap length 0:00:02.53

Peak level 94.3 %
Track quality 100.0 %
Test CRC E301821F
Copy CRC E301821F
Copy OK

Track 21
Filename C:\Rip\21 - Blue Ramble.wav

Pre-gap length 0:00:02.53

Peak level 94.3 %
Track quality 100.0 %
Test CRC CFD64D7E
Copy CRC CFD64D7E
Copy OK

Track 22
Filename C:\Rip\22 - Ducky Wucky.wav

Pre-gap length 0:00:02.53

Peak level 94.2 %
Track quality 99.9 %
Test CRC 1195EF10
Copy CRC 1195EF10
Copy OK

Track 23
Filename C:\Rip\23 - Eerie Moan.wav

Pre-gap length 0:00:02.53

Peak level 94.3 %
Track quality 100.0 %
Test CRC 5A5FEEFD
Copy CRC 5A5FEEFD
Copy OK

Track 24
Filename C:\Rip\24 - Sophisticated Lady.wav

Pre-gap length 0:00:02.53

Peak level 67.8 %
Track quality 100.0 %
Test CRC E97106BB
Copy CRC E97106BB
Copy OK

No errors occured


End of status report

[CUETools log; Date: 25.01.2019 2:16:52; Version: 2.1.4]
[CTDB TOCID: kReuO.Fr9M4hyS4a7MTTon_L.eE-] found.
Track | CTDB Status
1 | (20/20) Accurately ripped
2 | (20/20) Accurately ripped
3 | (20/20) Accurately ripped
4 | (20/20) Accurately ripped
5 | (20/20) Accurately ripped
6 | (20/20) Accurately ripped
7 | (20/20) Accurately ripped
8 | (20/20) Accurately ripped
9 | (20/20) Accurately ripped
10 | (20/20) Accurately ripped
11 | (20/20) Accurately ripped
12 | (20/20) Accurately ripped
13 | (20/20) Accurately ripped
14 | (20/20) Accurately ripped
15 | (20/20) Accurately ripped
16 | (20/20) Accurately ripped
17 | (20/20) Accurately ripped
18 | (20/20) Accurately ripped
19 | (20/20) Accurately ripped
20 | (20/20) Accurately ripped
21 | (20/20) Accurately ripped
22 | (20/20) Accurately ripped
23 | (20/20) Accurately ripped
24 | (20/20) Accurately ripped
[AccurateRip ID: 003ff4eb-045a7da3-7611f018] found.
Track [ CRC | V2 ] Status
01 [df3dba2d|598ff024] (06+10/24) Accurately ripped
02 [3a4e95ff|f8f4f56a] (06+10/24) Accurately ripped
03 [9e836bd3|fe667e8e] (06+10/24) Accurately ripped
04 [f14964cc|a6502ac5] (06+10/24) Accurately ripped
05 [46a85385|328db560] (06+10/24) Accurately ripped
06 [287bfaea|773ea7a4] (06+10/24) Accurately ripped
07 [25a9fd4e|b77268c0] (06+10/24) Accurately ripped
08 [9f44353e|40dfdbbf] (06+10/24) Accurately ripped
09 [09bdc711|2bafd707] (06+10/24) Accurately ripped
10 [431c32e8|75eb59a1] (06+10/24) Accurately ripped
11 [ad4891c2|921ffe2c] (06+10/24) Accurately ripped
12 [4837da12|cd3af77e] (06+10/24) Accurately ripped
13 [adcfd098|c07ef55e] (06+10/24) Accurately ripped
14 [2f8282bd|49c139ca] (06+10/24) Accurately ripped
15 [c6dcd7c2|32b35d21] (06+10/24) Accurately ripped
16 [d21f7597|92995aaf] (06+10/24) Accurately ripped
17 [5e7e6597|4b9d0a73] (06+10/24) Accurately ripped
18 [c775ed83|db98108c] (06+10/24) Accurately ripped
19 [c46e7c75|030438bc] (06+10/24) Accurately ripped
20 [bb7a1b78|3c19b283] (06+10/24) Accurately ripped
21 [d4b88641|cf3d9b35] (06+10/24) Accurately ripped
22 [31c3852e|259c99fb] (06+10/24) Accurately ripped
23 [b60782a6|bf724e8e] (06+10/24) Accurately ripped
24 [a60a9637|8ea97f6e] (06+10/24) Accurately ripped
Offsetted by -664:
01 [9f4fc835] (02/24) Accurately ripped
02 [1735fcdf] (02/24) Accurately ripped
03 [9b89a643] (02/24) Accurately ripped
04 [5710f184] (02/24) Accurately ripped
05 [b25d82fd] (02/24) Accurately ripped
06 [16e70f2a] (02/24) Accurately ripped
07 [b3d0371e] (02/24) Accurately ripped
08 [5c88322e] (02/24) Accurately ripped
09 [e1246d99] (02/24) Accurately ripped
10 [570aa398] (02/24) Accurately ripped
11 [15d02a82] (02/24) Accurately ripped
12 [6be482b2] (02/24) Accurately ripped
13 [5bb2b4a8] (02/24) Accurately ripped
14 [5385a045] (02/24) Accurately ripped
15 [9e529822] (02/24) Accurately ripped
16 [8a59fe07] (02/24) Accurately ripped
17 [dbd41f97] (02/24) Accurately ripped
18 [c05578cb] (02/24) Accurately ripped
19 [cab203fd] (02/24) Accurately ripped
20 [7caa9a90] (02/24) Accurately ripped
21 [5eedf679] (02/24) Accurately ripped
22 [83f99a4e] (02/24) Accurately ripped
23 [e5db5dbe] (02/24) Accurately ripped
24 [b45348bf] (02/24) Accurately ripped
Offsetted by -18:
01 [65fd7213] (02/24) Accurately ripped
02 [301a41a7] (02/24) Accurately ripped
03 [0371dae7] (02/24) Accurately ripped
04 [c9a2d9f6] (02/24) Accurately ripped
05 [945f5bbf] (02/24) Accurately ripped
06 [bf23e51a] (02/24) Accurately ripped
07 [3fe1006a] (02/24) Accurately ripped
08 [ac1ba432] (02/24) Accurately ripped
09 [511f6757] (02/24) Accurately ripped
10 [dc533dac] (02/24) Accurately ripped
11 [cb1ae552] (02/24) Accurately ripped
12 [c3c9a40a] (02/24) Accurately ripped
13 [bc8cb664] (02/24) Accurately ripped
14 [eca17043] (02/24) Accurately ripped
15 [e49b688a] (02/24) Accurately ripped
16 [61e9872b] (02/24) Accurately ripped
17 [4b87a917] (02/24) Accurately ripped
18 [f89dea59] (02/24) Accurately ripped
19 [4874f17b] (02/24) Accurately ripped
20 [989e1eea] (02/24) Accurately ripped
21 [1b8d400b] (02/24) Accurately ripped
22 [6abd4686] (02/24) Accurately ripped
23 [ec87db18] (02/24) Accurately ripped
24 [c795cf7d] (02/24) Accurately ripped

Track Peak [ CRC32 ] [W/O NULL] [ LOG ]
– 94,3 [B33B27B7] [E98B5E7B]
01 94,3 [1D9E4024] [792ECABA] CRC32
02 94,2 [22F81452] [8E6DA208] CRC32
03 84,5 [735BF641] [822C9CFB] CRC32
04 94,3 [DA977510] [404B05BB] CRC32
05 90,2 [666A1A54] [781C3289] CRC32
06 87,9 [CFAEBA05] [2AD17ADB] CRC32
07 94,3 [4C0CB192] [D312BE7C] CRC32
08 92,3 [2C35E584] [2A8400C1] CRC32
09 94,3 [40FAB3BB] [716D2BBD] CRC32
10 90,2 [415DBC1D] [291505AC] CRC32
11 94,3 [AD0D2FCA] [0010BB3F] CRC32
12 94,3 [70D8D995] [D54072EB] CRC32
13 82,2 [8557AD0B] [07215BC6] CRC32
14 91,7 [EBE49BDC] [B4E12E77] CRC32
15 94,3 [78E23AAC] [095E94B2] CRC32
16 94,3 [719ABC0B] [79518D9B] CRC32
17 94,3 [9B0A8A99] [87FE6748] CRC32
18 94,3 [05CB8634] [D0C0CD88] CRC32
19 94,3 [8C9D90B3] [0ADDACBF] CRC32
20 94,3 [E301821F] [9D64DC98] CRC32
21 94,3 [CFD64D7E] [F7534781] CRC32
22 94,2 [1195EF10] [DCD3E086] CRC32
23 94,3 [5A5FEEFD] [3A6EA46B] CRC32
24 67,8 [E97106BB] [636F2EB1] CRC32

EAC extraction logfile from 14. May 2007, 16:59 for CD
Duke Ellington / Masterpieces 1926-1949 - CD 2 In A Sentimental Mood

Used drive : LITE-ON DVDRW SOHW-832S Adapter: 1 ID: 0
Read mode : Secure with NO C2, accurate stream, disable cache
Read offset correction : 12
Overread into Lead-In and Lead-Out : No

Used output format : D:\Program Files\FLAC\flac.exe (User Defined Encoder)
320 kBit/s
Additional command line options : -8 -V -T "ARTIST=%a" -T "TITLE=%t" -T "ALBUM=%g" -T "DATE=%y" -T "TRACKNUMBER=%n" -T "GENRE=%m" -T "COMMENT=EAC Flac 1.1.4 -8" %s

Other options :
Fill up missing offset samples with silence : Yes
Delete leading and trailing silent blocks : No
Native Win32 interface for Win NT & 2000


Track 1
Filename C:\Rip\01 - Slippery Horn.wav

Pre-gap length 0:00:02.00

Peak level 94.2 %
Track quality 99.9 %
Test CRC 990FB85B
Copy CRC 990FB85B
Copy OK

Track 2
Filename C:\Rip\02 - Drop Me Off At Harlem.wav

Pre-gap length 0:00:02.53

Peak level 94.2 %
Track quality 100.0 %
Test CRC 3477AA6E
Copy CRC 3477AA6E
Copy OK

Track 3
Filename C:\Rip\03 - Daybreak Express.wav

Pre-gap length 0:00:02.53

Peak level 94.2 %
Track quality 99.9 %
Test CRC 7CC60719
Copy CRC 7CC60719
Copy OK

Track 4
Filename C:\Rip\04 - Delta Serenade.wav

Pre-gap length 0:00:02.53

Peak level 93.9 %
Track quality 100.0 %
Test CRC AF3855EA
Copy CRC AF3855EA
Copy OK

Track 5
Filename C:\Rip\05 - Stompy Jones.wav

Pre-gap length 0:00:02.53

Peak level 94.3 %
Track quality 100.0 %
Test CRC 2D06692B
Copy CRC 2D06692B
Copy OK

Track 6
Filename C:\Rip\06 - Solitude.wav

Pre-gap length 0:00:02.53

Peak level 73.2 %
Track quality 100.0 %
Test CRC 34612ABA
Copy CRC 34612ABA
Copy OK

Track 7
Filename C:\Rip\07 - Blue Feeling.wav

Pre-gap length 0:00:02.53

Peak level 93.5 %
Track quality 100.0 %
Test CRC FA92C38E
Copy CRC FA92C38E
Copy OK

Track 8
Filename C:\Rip\08 - Saddest Tale.wav

Pre-gap length 0:00:02.53

Peak level 94.2 %
Track quality 99.9 %
Test CRC FFCE42AD
Copy CRC FFCE42AD
Copy OK

Track 9
Filename C:\Rip\09 - Moonglow.wav

Pre-gap length 0:00:02.53

Peak level 94.2 %
Track quality 100.0 %
Test CRC 2BC38B1B
Copy CRC 2BC38B1B
Copy OK

Track 10
Filename C:\Rip\10 - In A Sentimental Mood.wav

Pre-gap length 0:00:02.53

Peak level 94.2 %
Track quality 100.0 %
Test CRC 4B9D0870
Copy CRC 4B9D0870
Copy OK

Track 11
Filename C:\Rip\11 - Showboat Shuffle.wav

Pre-gap length 0:00:02.53

Peak level 85.9 %
Track quality 99.9 %
Test CRC 603A1CC8
Copy CRC 603A1CC8
Copy OK

Track 12
Filename C:\Rip\12 - Reminiscing in Tempo, pts 1,2,3,4.wav

Pre-gap length 0:00:02.53

Peak level 94.3 %
Track quality 100.0 %
Test CRC F5E43CBF
Copy CRC F5E43CBF
Copy OK

Track 13
Filename C:\Rip\13 - Clarinet Lament (Barney's Concerto).wav

Pre-gap length 0:00:02.53

Peak level 93.3 %
Track quality 100.0 %
Test CRC 61C5A1CE
Copy CRC 61C5A1CE
Copy OK

Track 14
Filename C:\Rip\14 - Echos of Harlem (Cootie's Concerto).wav

Pre-gap length 0:00:02.53

Peak level 94.0 %
Track quality 100.0 %
Test CRC F81935ED
Copy CRC F81935ED
Copy OK

Track 15
Filename C:\Rip\15 - Black Butterfly.wav

Pre-gap length 0:00:02.53

Peak level 94.2 %
Track quality 100.0 %
Test CRC 9A509B5D
Copy CRC 9A509B5D
Copy OK

Track 16
Filename C:\Rip\16 - Caravan.wav

Pre-gap length 0:00:02.53

Peak level 94.3 %
Track quality 99.9 %
Test CRC 88A4F524
Copy CRC 88A4F524
Copy OK

Track 17
Filename C:\Rip\17 - Azure.wav

Pre-gap length 0:00:02.53

Peak level 83.5 %
Track quality 100.0 %
Test CRC F6E5E684
Copy CRC F6E5E684
Copy OK

Track 18
Filename C:\Rip\18 - Diminuendo In Blue.wav

Pre-gap length 0:00:02.53

Peak level 94.3 %
Track quality 99.9 %
Test CRC 0E06F7FD
Copy CRC 0E06F7FD
Copy OK

Track 19
Filename C:\Rip\19 - Crescendo In Blue.wav

Pre-gap length 0:00:02.53

Peak level 94.1 %
Track quality 100.0 %
Test CRC 2FAE7B3E
Copy CRC 2FAE7B3E
Copy OK

Track 20
Filename C:\Rip\20 - Steppin' Into Swing Society.wav

Pre-gap length 0:00:02.53

Peak level 94.2 %
Track quality 100.0 %
Test CRC 53556B6A
Copy CRC 53556B6A
Copy OK

Track 21
Filename C:\Rip\21 - Lost I Meditation.wav

Pre-gap length 0:00:02.53

Peak level 94.2 %
Track quality 99.9 %
Test CRC 1C2D87A7
Copy CRC 1C2D87A7
Copy OK

No errors occured


End of status report

[CUETools log; Date: 25.01.2019 2:17:20; Version: 2.1.4]
[CTDB TOCID: ARn7bOWHv2mNQjort.gfF.oLBzI-] found.
Track | CTDB Status
1 | (21/21) Accurately ripped
2 | (21/21) Accurately ripped
3 | (21/21) Accurately ripped
4 | (21/21) Accurately ripped
5 | (21/21) Accurately ripped
6 | (21/21) Accurately ripped
7 | (21/21) Accurately ripped
8 | (21/21) Accurately ripped
9 | (21/21) Accurately ripped
10 | (21/21) Accurately ripped
11 | (21/21) Accurately ripped
12 | (21/21) Accurately ripped
13 | (21/21) Accurately ripped
14 | (20/21) Accurately ripped
15 | (21/21) Accurately ripped
16 | (21/21) Accurately ripped
17 | (21/21) Accurately ripped
18 | (21/21) Accurately ripped
19 | (21/21) Accurately ripped
20 | (21/21) Accurately ripped
21 | (21/21) Accurately ripped
[AccurateRip ID: 00389a88-0371a992-35119d15] found.
Track [ CRC | V2 ] Status
01 [a91ea613|341511d6] (06+10/25) Accurately ripped
02 [5116f3f2|6015c59e] (06+10/25) Accurately ripped
03 [a6e9e70d|e767677b] (06+10/25) Accurately ripped
04 [20fa2a76|65aa6b54] (06+10/25) Accurately ripped
05 [2ca687d7|f4bfac62] (06+10/25) Accurately ripped
06 [e1d7cc35|30a098b9] (06+10/25) Accurately ripped
07 [4b174bba|cccdd37f] (06+10/25) Accurately ripped
08 [9449c077|0755ae86] (06+10/25) Accurately ripped
09 [a6477eba|75baca46] (06+10/25) Accurately ripped
10 [40b500a1|9e52a9eb] (06+10/25) Accurately ripped
11 [925cc498|b9e47423] (06+10/25) Accurately ripped
12 [7eb52036|59544101] (06+10/25) Accurately ripped
13 [7cca73e1|ef3b56ca] (06+10/25) Accurately ripped
14 [d18c50d4|04652acc] (06+10/25) Accurately ripped
15 [679b23c8|4b1d6ba6] (06+10/25) Accurately ripped
16 [94658f2e|32409c9f] (06+10/25) Accurately ripped
17 [4900aeac|d05a0656] (06+10/24) Accurately ripped
18 [5ec413c4|0ac362d4] (06+10/25) Accurately ripped
19 [8811d606|ef75583e] (06+10/25) Accurately ripped
20 [7cb351bf|0eb8a62d] (06+10/25) Accurately ripped
21 [a7107973|ca3a2ca5] (06+10/25) Accurately ripped
Offsetted by -664:
01 [41785d6b] (04/25) Accurately ripped
02 [80531c22] (04/25) Accurately ripped
03 [59dbda9d] (04/25) Accurately ripped
04 [724d521e] (04/25) Accurately ripped
05 [1874db57] (04/25) Accurately ripped
06 [f0f315c5] (04/25) Accurately ripped
07 [ff1ba3f2] (04/25) Accurately ripped
08 [b22936bf] (04/25) Accurately ripped
09 [161ec8d2] (04/25) Accurately ripped
10 [04f91e01] (04/25) Accurately ripped
11 [827fd690] (04/25) Accurately ripped
12 [9cad4856] (04/25) Accurately ripped
13 [0c9b3b41] (04/25) Accurately ripped
14 [60d3cd1c] (04/25) Accurately ripped
15 [13737448] (04/25) Accurately ripped
16 [04c7dc56] (04/25) Accurately ripped
17 [30f29ccc] (03/24) Accurately ripped
18 [33f083d4] (04/25) Accurately ripped
19 [71d1e446] (04/25) Accurately ripped
20 [16235c97] (04/25) Accurately ripped
21 [332b20e3] (04/25) Accurately ripped

Track Peak [ CRC32 ] [W/O NULL] [ LOG ]
– 94,3 [489CFD03] [CFA53C1C]
01 94,2 [990FB85B] [028DE3CB] CRC32
02 94,2 [3477AA6E] [CF8DBE22] CRC32
03 94,2 [7CC60719] [2B11EC6E] CRC32
04 93,9 [AF3855EA] [C26361F0] CRC32
05 94,3 [2D06692B] [3403D1D9] CRC32
06 73,2 [34612ABA] [F448879E] CRC32
07 93,5 [FA92C38E] [A5D5786A] CRC32
08 94,2 [FFCE42AD] [CA59C57F] CRC32
09 94,2 [2BC38B1B] [DBD95D42] CRC32
10 94,2 [4B9D0870] [980C732B] CRC32
11 85,9 [603A1CC8] [8F03AABB] CRC32
12 94,3 [F5E43CBF] [7DBA327D] CRC32
13 93,3 [61C5A1CE] [F583EB3E] CRC32
14 94,0 [F81935ED] [B4CB3ECE] CRC32
15 94,2 [9A509B5D] [46D8EEDF] CRC32
16 94,3 [88A4F524] [623ED31D] CRC32
17 83,5 [F6E5E684] [2972ECCE] CRC32
18 94,3 [0E06F7FD] [A78771E6] CRC32
19 94,1 [2FAE7B3E] [E24866A8] CRC32
20 94,2 [53556B6A] [559B6187] CRC32
21 94,2 [1C2D87A7] [16F4F38C] CRC32

EAC extraction logfile from 14. May 2007, 18:43 for CD
Duke Ellington / Masterpieces 1926-1949 - CD 3 Ko-Ko

Used drive : LITE-ON DVDRW SOHW-832S Adapter: 1 ID: 0
Read mode : Secure with NO C2, accurate stream, disable cache
Read offset correction : 12
Overread into Lead-In and Lead-Out : No

Used output format : D:\Program Files\FLAC\flac.exe (User Defined Encoder)
320 kBit/s
Additional command line options : -8 -V -T "ARTIST=%a" -T "TITLE=%t" -T "ALBUM=%g" -T "DATE=%y" -T "TRACKNUMBER=%n" -T "GENRE=%m" -T "COMMENT=EAC Flac 1.1.4 -8" %s

Other options :
Fill up missing offset samples with silence : Yes
Delete leading and trailing silent blocks : No
Native Win32 interface for Win NT & 2000


Track 1
Filename C:\Rip\01 - I Let A Song Go Out Of My Heart.wav

Pre-gap length 0:00:02.00

Peak level 94.2 %
Track quality 99.9 %
Test CRC D3ED46E8
Copy CRC D3ED46E8
Copy OK

Track 2
Filename C:\Rip\02 - Rose Of The Rio Grande.wav

Peak level 94.3 %
Track quality 100.0 %
Test CRC 5BECBEBB
Copy CRC 5BECBEBB
Copy OK

Track 3
Filename C:\Rip\03 - Pyramid.wav

Peak level 91.1 %
Track quality 100.0 %
Test CRC 99B18966
Copy CRC 99B18966
Copy OK

Track 4
Filename C:\Rip\04 - Prelude To A Kiss.wav

Peak level 94.2 %
Track quality 100.0 %
Test CRC 9B653891
Copy CRC 9B653891
Copy OK

Track 5
Filename C:\Rip\05 - Blue Light (Transbluency).wav

Peak level 82.1 %
Track quality 100.0 %
Test CRC CA816AB7
Copy CRC CA816AB7
Copy OK

Track 6
Filename C:\Rip\06 - Boy Meets Horn.wav

Peak level 76.5 %
Track quality 100.0 %
Test CRC C2CFF258
Copy CRC C2CFF258
Copy OK

Track 7
Filename C:\Rip\07 - Slap Happy.wav

Peak level 93.7 %
Track quality 100.0 %
Test CRC C48D16C8
Copy CRC C48D16C8
Copy OK

Track 8
Filename C:\Rip\08 - Serenade To Sweden.wav

Peak level 94.2 %
Track quality 100.0 %
Test CRC 33382BD8
Copy CRC 33382BD8
Copy OK

Track 9
Filename C:\Rip\09 - The Sergeant Was Shy.wav

Peak level 94.3 %
Track quality 100.0 %
Test CRC 475DAC48
Copy CRC 475DAC48
Copy OK

Track 10
Filename C:\Rip\10 - Jack The Bear.wav

Peak level 68.6 %
Track quality 99.9 %
Test CRC 8960389E
Copy CRC 8960389E
Copy OK

Track 11
Filename C:\Rip\11 - Ko-Ko.wav

Peak level 84.0 %
Track quality 99.9 %
Test CRC 154163A9
Copy CRC 154163A9
Copy OK

Track 12
Filename C:\Rip\12 - Congo Brava.wav

Peak level 71.6 %
Track quality 100.0 %
Test CRC 5E9F2428
Copy CRC 5E9F2428
Copy OK

Track 13
Filename C:\Rip\13 - Concerto For Cootie.wav

Peak level 84.0 %
Track quality 100.0 %
Test CRC DD20C3D3
Copy CRC DD20C3D3
Copy OK

Track 14
Filename C:\Rip\14 - Cotton Tail.wav

Peak level 76.7 %
Track quality 100.0 %
Test CRC 7C0B1933
Copy CRC 7C0B1933
Copy OK

Track 15
Filename C:\Rip\15 - Never No Lament.wav

Peak level 78.2 %
Track quality 100.0 %
Test CRC 1D27EA27
Copy CRC 1D27EA27
Copy OK

Track 16
Filename C:\Rip\16 - Dusk.wav

Peak level 78.0 %
Track quality 100.0 %
Test CRC 9CD8107B
Copy CRC 9CD8107B
Copy OK

Track 17
Filename C:\Rip\17 - Bojangles (A Portrait Of Bill Robinson).wav

Peak level 85.2 %
Track quality 100.0 %
Test CRC 875DDD0E
Copy CRC 875DDD0E
Copy OK

Track 18
Filename C:\Rip\18 - A Portrait Of Bert Williams.wav

Peak level 76.5 %
Track quality 100.0 %
Test CRC 2F0AF4A4
Copy CRC 2F0AF4A4
Copy OK

Track 19
Filename C:\Rip\19 - Harlem Air-Shaft.wav

Peak level 94.2 %
Track quality 99.9 %
Test CRC C2B9AE81
Copy CRC C2B9AE81
Copy OK

Track 20
Filename C:\Rip\20 - All Too Soon.wav

Peak level 94.2 %
Track quality 100.0 %
Test CRC 87259005
Copy CRC 87259005
Copy OK

Track 21
Filename C:\Rip\21 - Sepia Panorama.wav

Peak level 93.8 %
Track quality 100.0 %
Test CRC 5B72A26C
Copy CRC 5B72A26C
Copy OK

Track 22
Filename C:\Rip\22 - In A Mellotone.wav

Peak level 93.6 %
Track quality 100.0 %
Test CRC 1DCFAEC2
Copy CRC 1DCFAEC2
Copy OK

Track 23
Filename C:\Rip\23 - Warm Valley.wav

Peak level 84.2 %
Track quality 99.9 %
Test CRC CA70BCC5
Copy CRC CA70BCC5
Copy OK

Track 24
Filename C:\Rip\24 - Across The Track Blues.wav

Peak level 91.7 %
Track quality 100.0 %
Test CRC 53058895
Copy CRC 53058895
Copy OK

Track 25
Filename C:\Rip\25 - Day Dream.wav

Peak level 88.5 %
Track quality 100.0 %
Test CRC 84C691B0
Copy CRC 84C691B0
Copy OK

No errors occured


End of status report

[CUETools log; Date: 25.01.2019 2:18:13; Version: 2.1.4]
[CTDB TOCID: bC0eiuwMnGEYpKwdZCl3PumwCYA-] found.
Track | CTDB Status
1 | (21/21) Accurately ripped
2 | (21/21) Accurately ripped
3 | (21/21) Accurately ripped
4 | (21/21) Accurately ripped
5 | (21/21) Accurately ripped
6 | (21/21) Accurately ripped
7 | (21/21) Accurately ripped
8 | (21/21) Accurately ripped
9 | (21/21) Accurately ripped
10 | (21/21) Accurately ripped
11 | (21/21) Accurately ripped
12 | (21/21) Accurately ripped
13 | (21/21) Accurately ripped
14 | (20/21) Accurately ripped
15 | (21/21) Accurately ripped
16 | (21/21) Accurately ripped
17 | (21/21) Accurately ripped
18 | (21/21) Accurately ripped
19 | (21/21) Accurately ripped
20 | (21/21) Accurately ripped
21 | (21/21) Accurately ripped
22 | (21/21) Accurately ripped
23 | (21/21) Accurately ripped
24 | (21/21) Accurately ripped
25 | (21/21) Accurately ripped
[AccurateRip ID: 00441def-04d00f54-82122c19] found.
Track [ CRC | V2 ] Status
01 [b3d63487|e12a6a8b] (12+15/27) Accurately ripped
02 [033e99aa|fd262afb] (12+15/27) Accurately ripped
03 [f7566d08|faa2381b] (12+15/27) Accurately ripped
04 [843c9c1e|435895b9] (11+15/26) Accurately ripped
05 [0c30673f|cc5f79a7] (12+15/27) Accurately ripped
06 [3e852472|7a185810] (12+15/27) Accurately ripped
07 [1ad5ff3c|176ca06e] (12+15/27) Accurately ripped
08 [a6e98c1d|c7ea51de] (11+15/26) Accurately ripped
09 [f080ed6e|bd8a92c1] (12+15/27) Accurately ripped
10 [ad1af4f2|658fb19e] (12+15/27) Accurately ripped
11 [064cbb43|a1888b4f] (12+15/27) Accurately ripped
12 [e9c66ebe|11199fc7] (12+15/27) Accurately ripped
13 [17206408|437098e5] (12+15/27) Accurately ripped
14 [a4b99dc0|4fa4fba8] (12+15/27) Accurately ripped
15 [3aeca231|170ad405] (12+15/27) Accurately ripped
16 [90880526|8758c7bf] (12+15/27) Accurately ripped
17 [a82fa014|3b2874e5] (12+15/27) Accurately ripped
18 [f4a1fb38|fcf8d172] (11+15/26) Accurately ripped
19 [b9b42720|b826f739] (11+15/26) Accurately ripped
20 [71e9d05f|c82fa374] (11+15/26) Accurately ripped
21 [2f979de6|cebde682] (12+15/27) Accurately ripped
22 [efc67338|d8b93d21] (11+15/26) Accurately ripped
23 [018d2081|5f617a57] (11+15/26) Accurately ripped
24 [17c616e3|449e0329] (11+15/26) Accurately ripped
25 [ea3f6aa7|c058816d] (11+15/26) Accurately ripped

Track Peak [ CRC32 ] [W/O NULL] [ LOG ]
– 94,3 [506B9F77] [5A5B7169]
01 94,2 [D3ED46E8] [E936C627] CRC32
02 94,3 [5BECBEBB] [36B617AD] CRC32
03 91,1 [99B18966] [EF5D1CBA] CRC32
04 94,2 [9B653891] [F23ADF27] CRC32
05 82,1 [CA816AB7] [F2CB16CC] CRC32
06 76,5 [C2CFF258] [5AE4819C] CRC32
07 93,7 [C48D16C8] [FAE99B08] CRC32
08 94,2 [33382BD8] [67C40481] CRC32
09 94,3 [475DAC48] [F6F198EC] CRC32
10 68,6 [8960389E] [E6604E8D] CRC32
11 84,0 [154163A9] [F14705A2] CRC32
12 71,6 [5E9F2428] [7858612D] CRC32
13 84,0 [DD20C3D3] [991D1588] CRC32
14 76,7 [7C0B1933] [A7309852] CRC32
15 78,2 [1D27EA27] [8CD7AFCA] CRC32
16 78,0 [9CD8107B] [AD097967] CRC32
17 85,2 [875DDD0E] [035AB0A6] CRC32
18 76,5 [2F0AF4A4] [F83280E9] CRC32
19 94,2 [C2B9AE81] [24225A30] CRC32
20 94,2 [87259005] [DB7BDF47] CRC32
21 93,8 [5B72A26C] [5020DD35] CRC32
22 93,6 [1DCFAEC2] [AD6B811A] CRC32
23 84,2 [CA70BCC5] [A7C924F4] CRC32
24 91,7 [53058895] [FBFC8AA7] CRC32
25 88,5 [84C691B0] [E178848B] CRC32

EAC extraction logfile from 14. May 2007, 20:02 for CD
Duke Ellington / Masterpieces 1926-1949 - CD 4 Take The A-Train

Used drive : LITE-ON DVDRW SOHW-832S Adapter: 1 ID: 0
Read mode : Secure with NO C2, accurate stream, disable cache
Read offset correction : 12
Overread into Lead-In and Lead-Out : No

Used output format : D:\Program Files\FLAC\flac.exe (User Defined Encoder)
320 kBit/s
Additional command line options : -8 -V -T "ARTIST=%a" -T "TITLE=%t" -T "ALBUM=%g" -T "DATE=%y" -T "TRACKNUMBER=%n" -T "GENRE=%m" -T "COMMENT=EAC Flac 1.1.4 -8" %s

Other options :
Fill up missing offset samples with silence : Yes
Delete leading and trailing silent blocks : No
Native Win32 interface for Win NT & 2000


Track 1
Filename C:\Rip\01 - Pussy Willow.wav

Pre-gap length 0:00:02.00

Peak level 94.3 %
Track quality 99.9 %
Test CRC 6BCADA4D
Copy CRC 6BCADA4D
Copy OK

Track 2
Filename C:\Rip\02 - The Sidewalks New York.wav

Peak level 94.2 %
Track quality 100.0 %
Test CRC 5B01ABBC
Copy CRC 5B01ABBC
Copy OK

Track 3
Filename C:\Rip\03 - Take The 'A' Train.wav

Peak level 92.5 %
Track quality 99.9 %
Test CRC BF96FC46
Copy CRC BF96FC46
Copy OK

Track 4
Filename C:\Rip\04 - Blue Serge.wav

Peak level 68.9 %
Track quality 100.0 %
Test CRC 4FBC12B6
Copy CRC 4FBC12B6
Copy OK

Track 5
Filename C:\Rip\05 - Just A-Settin' And A-Rockin'.wav

Peak level 79.6 %
Track quality 100.0 %
Test CRC 849E4A83
Copy CRC 849E4A83
Copy OK

Track 6
Filename C:\Rip\06 - I Got It Bad (And That Ain't Good).wav

Peak level 87.7 %
Track quality 100.0 %
Test CRC CD667659
Copy CRC CD667659
Copy OK

Track 7
Filename C:\Rip\07 - Clementine.wav

Peak level 94.3 %
Track quality 100.0 %
Test CRC E97CFA28
Copy CRC E97CFA28
Copy OK

Track 8
Filename C:\Rip\08 - Jump For Joy.wav

Peak level 81.0 %
Track quality 100.0 %
Test CRC 2017CD56
Copy CRC 2017CD56
Copy OK

Track 9
Filename C:\Rip\09 - Chelsea Bridge.wav

Peak level 75.8 %
Track quality 100.0 %
Test CRC 1943AA26
Copy CRC 1943AA26
Copy OK

Track 10
Filename C:\Rip\10 - Raincheck.wav

Peak level 64.7 %
Track quality 100.0 %
Test CRC 5559A142
Copy CRC 5559A142
Copy OK

Track 11
Filename C:\Rip\11 - Perdido.wav

Peak level 94.2 %
Track quality 99.9 %
Test CRC A34553BF
Copy CRC A34553BF
Copy OK

Track 12
Filename C:\Rip\12 - The 'C' Jam Blues.wav

Peak level 91.5 %
Track quality 99.9 %
Test CRC 0D33768B
Copy CRC 0D33768B
Copy OK

Track 13
Filename C:\Rip\13 - Moon Mist.wav

Peak level 79.4 %
Track quality 100.0 %
Test CRC 20915BB9
Copy CRC 20915BB9
Copy OK

Track 14
Filename C:\Rip\14 - What Am I Here For .wav

Peak level 82.9 %
Track quality 100.0 %
Test CRC BECCA7BC
Copy CRC BECCA7BC
Copy OK

Track 15
Filename C:\Rip\15 - Main Stem.wav

Peak level 84.0 %
Track quality 100.0 %
Test CRC 3F9386CB
Copy CRC 3F9386CB
Copy OK

Track 16
Filename C:\Rip\16 - Johnny Come Lately.wav

Peak level 94.3 %
Track quality 99.9 %
Test CRC 3A0C0732
Copy CRC 3A0C0732
Copy OK

Track 17
Filename C:\Rip\17 - I'm Beginning To See The Light.wav

Peak level 94.2 %
Track quality 100.0 %
Test CRC 1F742400
Copy CRC 1F742400
Copy OK

Track 18
Filename C:\Rip\18 - Transbluency.wav

Peak level 84.0 %
Track quality 100.0 %
Test CRC C0EDB7F0
Copy CRC C0EDB7F0
Copy OK

Track 19
Filename C:\Rip\19 - Lady Of The Lavender Mist.wav

Peak level 94.3 %
Track quality 100.0 %
Test CRC 63719E78
Copy CRC 63719E78
Copy OK

Track 20
Filename C:\Rip\20 - Sultry Serenade.wav

Peak level 94.3 %
Track quality 99.9 %
Test CRC CEA9D377
Copy CRC CEA9D377
Copy OK

Track 21
Filename C:\Rip\21 - Air Conditioned Jungle.wav

Peak level 94.3 %
Track quality 100.0 %
Test CRC 1C5F65AC
Copy CRC 1C5F65AC
Copy OK

Track 22
Filename C:\Rip\22 - The Clothed Woman.wav

Peak level 94.3 %
Track quality 99.9 %
Test CRC 1F37DBA4
Copy CRC 1F37DBA4
Copy OK

Track 23
Filename C:\Rip\23 - Snibor.wav

Peak level 76.3 %
Track quality 100.0 %
Test CRC 86616FB9
Copy CRC 86616FB9
Copy OK

No errors occured


End of status report

[CUETools log; Date: 25.01.2019 2:18:55; Version: 2.1.4]
[CTDB TOCID: AwVmLiG8vvJG_rHg.he2.rUWngM-] found.
Track | CTDB Status
1 | (20/20) Accurately ripped
2 | (20/20) Accurately ripped
3 | (20/20) Accurately ripped
4 | (20/20) Accurately ripped
5 | (20/20) Accurately ripped
6 | (20/20) Accurately ripped
7 | (20/20) Accurately ripped
8 | (20/20) Accurately ripped
9 | (20/20) Accurately ripped
10 | (20/20) Accurately ripped
11 | (20/20) Accurately ripped
12 | (20/20) Accurately ripped
13 | (20/20) Accurately ripped
14 | (20/20) Accurately ripped
15 | (20/20) Accurately ripped
16 | (20/20) Accurately ripped
17 | (20/20) Accurately ripped
18 | (20/20) Accurately ripped
19 | (20/20) Accurately ripped
20 | (20/20) Accurately ripped
21 | (20/20) Accurately ripped
22 | (20/20) Accurately ripped
23 | (20/20) Accurately ripped
[AccurateRip ID: 003d3247-03efe302-60110a17] found.
Track [ CRC | V2 ] Status
01 [4dc0383f|79ca8c97] (12+15/27) Accurately ripped
02 [d7f99aa5|ebd5fa5a] (11+15/26) Accurately ripped
03 [486e37b9|15f75d61] (12+15/27) Accurately ripped
04 [6fd706c2|3495ad48] (12+15/27) Accurately ripped
05 [225a6e96|32fa37ff] (12+15/27) Accurately ripped
06 [3a83014b|528a78ef] (12+15/27) Accurately ripped
07 [6a629a91|2a551537] (12+15/27) Accurately ripped
08 [3061b844|7c030666] (12+15/27) Accurately ripped
09 [797dfbe4|b6736525] (12+15/27) Accurately ripped
10 [785cf658|33272785] (12+15/27) Accurately ripped
11 [504a3b77|f7d7d3cf] (12+15/27) Accurately ripped
12 [bf059308|fe783daa] (12+15/27) Accurately ripped
13 [a17ba3d1|02d9431c] (12+15/27) Accurately ripped
14 [9e4e8794|12c71734] (12+15/27) Accurately ripped
15 [b9a0ad15|85efce0d] (12+15/27) Accurately ripped
16 [56e13367|9b57c965] (12+15/27) Accurately ripped
17 [c02f99ab|b732240b] (12+15/27) Accurately ripped
18 [c4db439a|bd97c89e] (12+15/27) Accurately ripped
19 [7cc61db1|70bd729f] (12+15/27) Accurately ripped
20 [03a500f0|bd959f56] (12+15/27) Accurately ripped
21 [389fe708|3e2273e9] (12+15/27) Accurately ripped
22 [c944f5e5|8854babd] (12+15/27) Accurately ripped
23 [1542e86a|cf6ca0e2] (11+15/26) Accurately ripped

Track Peak [ CRC32 ] [W/O NULL] [ LOG ]
– 94,3 [5E29D344] [EBDE814D]
01 94,3 [6BCADA4D] [A3AF72C9] CRC32
02 94,2 [5B01ABBC] [D573CCEC] CRC32
03 92,5 [BF96FC46] [21CDABE6] CRC32
04 68,9 [4FBC12B6] [868DCA6E] CRC32
05 79,6 [849E4A83] [5911A5DC] CRC32
06 87,7 [CD667659] [5E7DA033] CRC32
07 94,3 [E97CFA28] [DB5EE188] CRC32
08 81,0 [2017CD56] [4F280E9F] CRC32
09 75,8 [1943AA26] [18AAE768] CRC32
10 64,7 [5559A142] [CB64032B] CRC32
11 94,2 [A34553BF] [EBF49548] CRC32
12 91,5 [0D33768B] [76F3F372] CRC32
13 79,4 [20915BB9] [AF890DA8] CRC32
14 82,9 [BECCA7BC] [739E3B17] CRC32
15 84,0 [3F9386CB] [13EF78E7] CRC32
16 94,3 [3A0C0732] [61F7D0A7] CRC32
17 94,2 [1F742400] [6C9E86C1] CRC32
18 84,0 [C0EDB7F0] [487541FB] CRC32
19 94,3 [63719E78] [0745A929] CRC32
20 94,3 [CEA9D377] [9103E485] CRC32
21 94,3 [1C5F65AC] [F009E136] CRC32
22 94,3 [1F37DBA4] [BB5F39E6] CRC32
23 76,3 [86616FB9] [62EB60DF] CRC32

Thanks to the original releaser

See also:

Duke Ellington - Duke Ellington at the Bal Masque (1958)
Duke Ellington and His Orchest...nd Beige (1958) [Reissue 1999]
Duke Ellington - Jazz Party (1959)
Duke Ellington & Johnny Ho... By Side (1959) [Reissue 1999]
Duke Ellington And His Orchest...amp; 2 / Suite Thursday (1960)
Duke Ellington - Soul Call (1967) [Reissue 1999]
Duke Ellington - Orchestral Works (1970) [Reissue 1989]
Duke Ellington - The Afro-Eurasian Eclipse (1971)
Duke Ellington - Love You Madly (1974) [Reissue 2002]
Duke Ellington - Recollections...Band Era (1974) [Reissue 2012]
Duke Ellington - The Best of Duke Ellington (1980) [Reissue 1991]
Ella Fitzgerald & Duke Ell...Stockholm Concert, 1966 (1984)
Duke Ellington and His Orchestra - Harlem [Recorded 1964] (1985)
Duke Ellington - In the Uncommon Market [Recorded 1963-1966] (1986)
Duke Ellington - Great Original Performances 1927-1934 (1986)
The Duke Ellington Small Bands - The Intimacy Of The Blues (1986)
Duke Ellington - Compact Jazz:...ds [Recorded 1953-1966] (1987)
Duke Ellington - Swing 1930 to 1938 (1989)
Duke Ellington and His Orchestra - Early Ellington (1927-1934) (1989)
Duke Ellington - 40 Great Jazz Performances [3CD] (1990)
Duke Ellington and His Orchestra - 1927-1928 (1990)
Duke Ellington and His Orchestra - 1928 (1990)
Duke Ellington and His Orchestra - 1928-1929 (1990)
Duke Ellington and His Orchestra - 1929-1930 (1991)
Duke Ellington - Standards: Li... Pleyel [Recorded 1969] (1991)
Duke Ellington - Never-Before-Released Recordings (1965-1972) (1991)
Duke Ellington & His Orche...irthday, Duke! Vol. 1-5 (1992)
Duke Ellington and His Orchestra - 1932-1933 (1992)
Duke Ellington and His Orchestra - 1933 (1992)
Duke Ellington and His Orchestra - 1937 Vol. 2 (1993)
Duke Ellington and His Orchestra - 1938 (1993)
Duke Ellington and His Orchestra - 1938 Vol. 3 (1993)
Duke Ellington and His Orchestra - 1939 (1994)
Duke Ellington and His Orchestra - 1939 Vol. 2 (1994)
Duke Ellington - Le Jazz de A à Z [Recorded 1940-1945] (1994)
Duke Ellington - Duke Ellingto...ts [Recorded 1932-1959] (1995)
Duke Ellington - Cornell University [Recorded 1948] (1995)
Duke Ellington - New York Concert [Recorded 1964] (1995)
Duke Ellington and His Orchestra - 1940 (1995)
Duke Ellington and His Orchestra - 1940 Vol. 2 (1995)
Duke Ellington and His Orchestra - 1941 (1995)
Duke Ellington and His Orchestra - 1942-1944 (1996)
Duke Ellington and His Orchestra - 1944-1945 (1996)
Duke Ellington and His Orchestra - 1945 (1996)
Duke Ellington - This Is Jazz [Recorded 1927-1959] (1996)
Duke Ellington - Sophisticated Lady [Recorded 1940-1946] (1996)
Duke Ellington and His Orchestra - 1945 Vol. 2 (1997)
Duke Ellington - Jazz Masters 1953-1955 (1997)
Duke Ellington - Jazz Profile [Recorded 1953-1971] (1997)
Duke Ellington and His Orchestra - 1945-1946 (1998)
Duke Ellington - This Is Jazz ...ds [Recorded 1935-1964] (1998)
Duke Ellington - Live in Mexico [Recorded 1968] (1998)
Duke Ellington - The Duke in Washington [Recorded 1943-1969] (1999)
Duke Ellington - Love Songs [Recorded 1941-1963] (2001)
Duke Ellington - Alhambra - Oct. 29th, 1958 [2CD] (2002)
Duke Ellington - Never No Lame...1940-1942, 3CD Box Set] (2003)
Duke Ellington - The Essential...on [Recorded 1927-1960] (2005)
Duke Ellington And His Orchest...h, Switzerland 2.5.1950 (2007)
Duke Ellington - Columbia Jazz Profiles [Recorded 1931-1960] (2008)
Duke Ellington - Live in Warsaw October 30, 1971 (2009)
Duke Ellington Orchestra - Big...tuttgart, March 6, 1967 (2011)
Duke Ellington & Ella Fitz...oncerto [Recorded 1966] (1993)