Tags
Language
Tags

Duke Ellington - The Private Collection [10CD Box Set] (1996)

Posted By: gribovar
Duke Ellington - The Private Collection [10CD Box Set] (1996)

Duke Ellington - The Private Collection [10CD Box Set] (1996)
EAC Rip | FLAC (tracks+.cue+log) - 3,62 GB | MP3 CBR 320 kbps (LAME 3.93) - 1,69 GB | Covers included
Genre: Jazz, Big Band | RAR 3% Rec. | Label: Kaz Records (PBXCD 010)

This 10CD Box set was released posthumously and actually includes recordings from Ellington's private collection. They are mainly studio recordings which he produced at his own expense, but two volumes cover a couple of dance dates at military bases in California. The whole set is essential as it includes some compositions which are not recorded elsewhere (such as The Degas Suite and The River) and generally excellent performances.

Duke Ellington - The Private Collection [10CD Box Set] (1996)

CD 1: Duke Ellington - The Private Collection Vol. 1: Studio Sessions, Chicago 1956
EAC Rip | FLAC (tracks+.cue+log) - 321 MB | MP3 CBR 320 kbps (LAME 3.93) - 149 MB | Covers (19 MB) included
Genre: Jazz, Big Band | RAR 3% Rec. | Label: Kaz Records (KAZ CD 501)

Tracklist:
01. March 19th Blues
02. Feet Bone
03. In A Sentimental Mood
04. Discontented
05. Jump For Joy
06. Just Scratchin' the Surface
07. Prelude To A Kiss
08. Miss Lucy
09. Uncontrieved
10. Satin Doll
11. Do Not Disturb
12. Love You Madly
13. Short Sheet Cluster
14. Moon Mist
15. Long Time Blues

Total time: 54:39

Exact Audio Copy V0.99 prebeta 4 from 23. January 2008

EAC extraction logfile from 13. December 2008, 20:50

Duke Ellington / The Private Collection, Vol.1 - Studio Sessions, Chicago 1956

Used drive : PLEXTOR DVD-ROM PX-116A2 Adapter: 0 ID: 1

Read mode : Secure
Utilize accurate stream : Yes
Defeat audio cache : Yes
Make use of C2 pointers : No

Read offset correction : 102
Overread into Lead-In and Lead-Out : No
Fill up missing offset samples with silence : Yes
Delete leading and trailing silent blocks : No
Null samples used in CRC calculations : Yes
Used interface : Installed external ASPI interface
Gap handling : Appended to previous track

Used output format : User Defined Encoder
Selected bitrate : 128 kBit/s
Quality : High
Add ID3 tag : No
Command line compressor : C:\Program Files\FLAC\flac.exe
Additional command line options : -8 -V -T "ARTIST=%a" -T "TITLE=%t" -T "ALBUM=%g" -T "DATE=%y" -T "TRACKNUMBER=%n" -T "GENRE=%m" -T "COMMENT=EAC FLAC -8" %s


TOC of the extracted CD

Track | Start | Length | Start sector | End sector
––––––––––––––––––––––––––––-
1 | 0:00.32 | 5:27.60 | 32 | 24616
2 | 5:28.17 | 2:42.05 | 24617 | 36771
3 | 8:10.22 | 3:05.50 | 36772 | 50696
4 | 11:15.72 | 3:02.08 | 50697 | 64354
5 | 14:18.05 | 1:52.50 | 64355 | 72804
6 | 16:10.55 | 3:05.67 | 72805 | 86746
7 | 19:16.47 | 3:29.20 | 86747 | 102441
8 | 22:45.67 | 3:16.50 | 102442 | 117191
9 | 26:02.42 | 5:12.60 | 117192 | 140651
10 | 31:15.27 | 2:34.23 | 140652 | 152224
11 | 33:49.50 | 2:46.60 | 152225 | 164734
12 | 36:36.35 | 3:22.05 | 164735 | 179889
13 | 39:58.40 | 2:35.60 | 179890 | 191574
14 | 42:34.25 | 3:27.22 | 191575 | 207121
15 | 46:01.47 | 8:38.15 | 207122 | 245986


Track 1

Filename C:\torrenting\Duke Ellington - The Private Collection, Vol.1 (1996) [FLAC] (Studio Sessions, Chicago 1956)\01 - March 19th Blues.wav

Pre-gap length 0:00:02.42

Peak level 100.0 %
Track quality 100.0 %
Test CRC 16094DEF
Copy CRC 16094DEF
Track not present in AccurateRip database
Copy OK

Track 2

Filename C:\torrenting\Duke Ellington - The Private Collection, Vol.1 (1996) [FLAC] (Studio Sessions, Chicago 1956)\02 - Feet Bone.wav

Pre-gap length 0:00:02.13

Peak level 100.0 %
Track quality 100.0 %
Test CRC DB1C60F6
Copy CRC DB1C60F6
Track not present in AccurateRip database
Copy OK

Track 3

Filename C:\torrenting\Duke Ellington - The Private Collection, Vol.1 (1996) [FLAC] (Studio Sessions, Chicago 1956)\03 - In a Sentimental Mood.wav

Pre-gap length 0:00:01.40

Peak level 88.9 %
Track quality 100.0 %
Test CRC E96A718C
Copy CRC E96A718C
Track not present in AccurateRip database
Copy OK

Track 4

Filename C:\torrenting\Duke Ellington - The Private Collection, Vol.1 (1996) [FLAC] (Studio Sessions, Chicago 1956)\04 - Discontented.wav

Pre-gap length 0:00:00.96

Peak level 98.9 %
Track quality 100.0 %
Test CRC FCD4C32E
Copy CRC FCD4C32E
Track not present in AccurateRip database
Copy OK

Track 5

Filename C:\torrenting\Duke Ellington - The Private Collection, Vol.1 (1996) [FLAC] (Studio Sessions, Chicago 1956)\05 - Jump for Joy.wav

Pre-gap length 0:00:01.70

Peak level 88.6 %
Track quality 100.0 %
Test CRC 6C61C55A
Copy CRC 6C61C55A
Track not present in AccurateRip database
Copy OK

Track 6

Filename C:\torrenting\Duke Ellington - The Private Collection, Vol.1 (1996) [FLAC] (Studio Sessions, Chicago 1956)\06 - Just Scratchin' the Surface.wav

Pre-gap length 0:00:01.90

Peak level 91.0 %
Track quality 100.0 %
Test CRC 45326D86
Copy CRC 45326D86
Track not present in AccurateRip database
Copy OK

Track 7

Filename C:\torrenting\Duke Ellington - The Private Collection, Vol.1 (1996) [FLAC] (Studio Sessions, Chicago 1956)\07 - Prelude to a Kiss.wav

Pre-gap length 0:00:01.09

Peak level 80.1 %
Track quality 100.0 %
Test CRC 200C2630
Copy CRC 200C2630
Track not present in AccurateRip database
Copy OK

Track 8

Filename C:\torrenting\Duke Ellington - The Private Collection, Vol.1 (1996) [FLAC] (Studio Sessions, Chicago 1956)\08 - Miss Lucy.wav

Pre-gap length 0:00:01.86

Peak level 97.2 %
Track quality 100.0 %
Test CRC F84A8099
Copy CRC F84A8099
Track not present in AccurateRip database
Copy OK

Track 9

Filename C:\torrenting\Duke Ellington - The Private Collection, Vol.1 (1996) [FLAC] (Studio Sessions, Chicago 1956)\09 - Uncontrieved.wav

Pre-gap length 0:00:00.96

Peak level 97.7 %
Track quality 99.9 %
Test CRC DD4A98AE
Copy CRC DD4A98AE
Track not present in AccurateRip database
Copy OK

Track 10

Filename C:\torrenting\Duke Ellington - The Private Collection, Vol.1 (1996) [FLAC] (Studio Sessions, Chicago 1956)\10 - Satin Doll.wav

Pre-gap length 0:00:01.49

Peak level 91.8 %
Track quality 100.0 %
Test CRC 7375A391
Copy CRC 7375A391
Track not present in AccurateRip database
Copy OK

Track 11

Filename C:\torrenting\Duke Ellington - The Private Collection, Vol.1 (1996) [FLAC] (Studio Sessions, Chicago 1956)\11 - Do Not Disturb.wav

Pre-gap length 0:00:02.60

Peak level 50.7 %
Track quality 100.0 %
Test CRC 0CA4C38E
Copy CRC 0CA4C38E
Track not present in AccurateRip database
Copy OK

Track 12

Filename C:\torrenting\Duke Ellington - The Private Collection, Vol.1 (1996) [FLAC] (Studio Sessions, Chicago 1956)\12 - Love You Madly.wav

Pre-gap length 0:00:01.06

Peak level 99.9 %
Track quality 100.0 %
Test CRC C0B35BC8
Copy CRC C0B35BC8
Track not present in AccurateRip database
Copy OK

Track 13

Filename C:\torrenting\Duke Ellington - The Private Collection, Vol.1 (1996) [FLAC] (Studio Sessions, Chicago 1956)\13 - Short Street Cluster.wav

Pre-gap length 0:00:00.80

Peak level 100.0 %
Track quality 100.0 %
Test CRC D1CF51FA
Copy CRC D1CF51FA
Track not present in AccurateRip database
Copy OK

Track 14

Filename C:\torrenting\Duke Ellington - The Private Collection, Vol.1 (1996) [FLAC] (Studio Sessions, Chicago 1956)\14 - Moon Mist.wav

Pre-gap length 0:00:01.40

Peak level 72.4 %
Track quality 100.0 %
Test CRC F9A01293
Copy CRC F9A01293
Track not present in AccurateRip database
Copy OK

Track 15

Filename C:\torrenting\Duke Ellington - The Private Collection, Vol.1 (1996) [FLAC] (Studio Sessions, Chicago 1956)\15 - Long Time Blues.wav

Pre-gap length 0:00:01.53

Peak level 100.0 %
Track quality 100.0 %
Test CRC ACE378A1
Copy CRC ACE378A1
Track not present in AccurateRip database
Copy OK


None of the tracks are present in the AccurateRip database

No errors occurred

End of status report

[CUETools log; Date: 03.03.2020 20:58:34; Version: 2.1.4]
Pregap length 00:00:32.
[CTDB TOCID: JdHSUd6XdywyOzd8yupzqkGkPWI-] found.
Track | CTDB Status
1 | (6/6) Accurately ripped
2 | (6/6) Accurately ripped
3 | (6/6) Accurately ripped
4 | (6/6) Accurately ripped
5 | (6/6) Accurately ripped
6 | (6/6) Accurately ripped
7 | (6/6) Accurately ripped
8 | (6/6) Accurately ripped
9 | (6/6) Accurately ripped
10 | (6/6) Accurately ripped
11 | (6/6) Accurately ripped
12 | (6/6) Accurately ripped
13 | (6/6) Accurately ripped
14 | (6/6) Accurately ripped
15 | (6/6) Accurately ripped
[AccurateRip ID: 001c0b15-013c3745-d60ccf0f] found.
Track [ CRC | V2 ] Status
01 [12a7157d|a3ec0c8d] (0+9/9) Accurately ripped
02 [f1733708|34d9637d] (0+9/9) Accurately ripped
03 [c8924769|d1b8649c] (0+9/9) Accurately ripped
04 [8469063c|0160b10c] (0+9/9) Accurately ripped
05 [e999246b|540422cc] (0+9/9) Accurately ripped
06 [54e75013|e9bcd36a] (0+9/9) Accurately ripped
07 [ac26333a|dc8d493d] (0+9/9) Accurately ripped
08 [1f2619eb|bbf692c4] (0+9/9) Accurately ripped
09 [5b26f23a|114ac0c1] (0+9/9) Accurately ripped
10 [3889582d|e09125dd] (0+9/9) Accurately ripped
11 [4313cf21|304f1456] (0+9/9) Accurately ripped
12 [fc74bfa9|8a8bfe05] (0+9/9) Accurately ripped
13 [042343e4|ce434fe7] (0+9/9) Accurately ripped
14 [d41279aa|0758c1aa] (0+9/9) Accurately ripped
15 [a7eb022f|20444b19] (0+9/9) Accurately ripped

Track Peak [ CRC32 ] [W/O NULL] [ LOG ]
– 100,0 [A76643AD] [5E4789FD]
01 100,0 [16094DEF] [018C160C] CRC32
02 100,0 [DB1C60F6] [DCBEDCB7] CRC32
03 88,9 [E96A718C] [CA9444F2] CRC32
04 98,9 [FCD4C32E] [178D2DB5] CRC32
05 88,6 [6C61C55A] [BE5BCE2B] CRC32
06 91,0 [45326D86] [5605670A] CRC32
07 80,1 [200C2630] [52FE9701] CRC32
08 97,2 [F84A8099] [BFD92815] CRC32
09 97,7 [DD4A98AE] [E1D6E198] CRC32
10 91,8 [7375A391] [E06A085A] CRC32
11 50,7 [0CA4C38E] [D85CB9C3] CRC32
12 99,9 [C0B35BC8] [E2A0BAC0] CRC32
13 100,0 [D1CF51FA] [EA45E095] CRC32
14 72,4 [F9A01293] [5610FFEA] CRC32
15 100,0 [ACE378A1] [E29B7ED8] CRC32

Duke Ellington - The Private Collection [10CD Box Set] (1996)

CD 2: Duke Ellington - The Private Collection Vol. 2: Studio Sessions, Chicago 1957, New York 1962
EAC Rip | FLAC (tracks+.cue+log) - 389 MB | MP3 CBR 320 kbps (LAME 3.93) - 184 MB | Covers (19 MB) included
Genre: Jazz, Big Band | RAR 3% Rec. | Label: Kaz Records (KAZ CD 502)

Tracklist:
01. Things Ain't What They Used To Be
02. Something Sexual
03. The Riff
04. Bluer
05. Wailing 'Bout
06. I Cover The Waterfront
07. Blues A La Willie Cook
08. Slow Blues Ensemble
09. Circle Of Fourths
10. Perdido
11. Three Trumps
12. Deep Blues
13. Things Ain't What They Used To Be (Instrumental)
14. Paris Blues
15. I Got It Bad And That Ain't Good
16. Circle Blues
17. The Sky Fell Down
18. Perdido (Instrumental)
19. Passion Flower
20. Cotton Tail

Total time: 01:09:26

Exact Audio Copy V0.99 prebeta 4 from 23. January 2008

EAC extraction logfile from 18. December 2008, 1:07

Duke Ellington / The Private Collection, Vol.2 - Studio Sessions, Chicago 1957, New York 1962

Used drive : PLEXTOR DVD-ROM PX-116A2 Adapter: 0 ID: 1

Read mode : Secure
Utilize accurate stream : Yes
Defeat audio cache : Yes
Make use of C2 pointers : No

Read offset correction : 102
Overread into Lead-In and Lead-Out : No
Fill up missing offset samples with silence : Yes
Delete leading and trailing silent blocks : No
Null samples used in CRC calculations : Yes
Used interface : Installed external ASPI interface
Gap handling : Appended to previous track

Used output format : User Defined Encoder
Selected bitrate : 128 kBit/s
Quality : High
Add ID3 tag : No
Command line compressor : C:\Program Files\FLAC\flac.exe
Additional command line options : -8 -V -T "ARTIST=%a" -T "TITLE=%t" -T "ALBUM=%g" -T "DATE=%y" -T "TRACKNUMBER=%n" -T "GENRE=%m" -T "COMMENT=EAC FLAC -8" %s


TOC of the extracted CD

Track | Start | Length | Start sector | End sector
––––––––––––––––––––––––––––-
1 | 0:00.32 | 3:20.20 | 32 | 15051
2 | 3:20.52 | 2:16.20 | 15052 | 25271
3 | 5:36.72 | 2:25.10 | 25272 | 36156
4 | 8:02.07 | 2:14.03 | 36157 | 46209
5 | 10:16.10 | 2:48.20 | 46210 | 58829
6 | 13:04.30 | 3:27.32 | 58830 | 74386
7 | 16:31.62 | 4:03.50 | 74387 | 92661
8 | 20:35.37 | 3:13.30 | 92662 | 107166
9 | 23:48.67 | 2:12.13 | 107167 | 117079
10 | 26:01.05 | 3:12.20 | 117080 | 131499
11 | 29:13.25 | 2:46.47 | 131500 | 143996
12 | 31:59.72 | 3:30.58 | 143997 | 159804
13 | 35:30.55 | 6:51.17 | 159805 | 190646
14 | 42:21.72 | 2:49.43 | 190647 | 203364
15 | 45:11.40 | 3:15.67 | 203365 | 218056
16 | 48:27.32 | 5:46.08 | 218057 | 244014
17 | 54:13.40 | 3:15.52 | 244015 | 258691
18 | 57:29.17 | 4:30.33 | 258692 | 278974
19 | 61:59.50 | 4:23.40 | 278975 | 298739
20 | 66:23.15 | 3:03.42 | 298740 | 312506


Track 1

Filename C:\torrenting\Duke Ellington - The Private Collection, Vol.2 (1996) [FLAC] (Studio Sessions, Chicago 1957, NY 1962)\01 - Things Ain't What They Used to Be.wav

Pre-gap length 0:00:02.42

Peak level 95.4 %
Track quality 100.0 %
Test CRC E20FDA10
Copy CRC E20FDA10
Track not present in AccurateRip database
Copy OK

Track 2

Filename C:\torrenting\Duke Ellington - The Private Collection, Vol.2 (1996) [FLAC] (Studio Sessions, Chicago 1957, NY 1962)\02 - Something Sexual.wav

Pre-gap length 0:00:02.29

Peak level 95.7 %
Track quality 100.0 %
Test CRC BFD10FF3
Copy CRC BFD10FF3
Track not present in AccurateRip database
Copy OK

Track 3

Filename C:\torrenting\Duke Ellington - The Private Collection, Vol.2 (1996) [FLAC] (Studio Sessions, Chicago 1957, NY 1962)\03 - The Riff.wav

Pre-gap length 0:00:00.29

Peak level 98.4 %
Track quality 99.9 %
Test CRC A34249D7
Copy CRC A34249D7
Track not present in AccurateRip database
Copy OK

Track 4

Filename C:\torrenting\Duke Ellington - The Private Collection, Vol.2 (1996) [FLAC] (Studio Sessions, Chicago 1957, NY 1962)\04 - Bluer.wav

Pre-gap length 0:00:01.60

Peak level 98.0 %
Track quality 100.0 %
Test CRC 9DA2671D
Copy CRC 9DA2671D
Track not present in AccurateRip database
Copy OK

Track 5

Filename C:\torrenting\Duke Ellington - The Private Collection, Vol.2 (1996) [FLAC] (Studio Sessions, Chicago 1957, NY 1962)\05 - Wailing 'Bout.wav

Pre-gap length 0:00:00.77

Peak level 81.9 %
Track quality 100.0 %
Test CRC 94A505B8
Copy CRC 94A505B8
Track not present in AccurateRip database
Copy OK

Track 6

Filename C:\torrenting\Duke Ellington - The Private Collection, Vol.2 (1996) [FLAC] (Studio Sessions, Chicago 1957, NY 1962)\06 - I Cover the Waterfront.wav

Pre-gap length 0:00:01.46

Peak level 71.0 %
Track quality 100.0 %
Test CRC CAB64525
Copy CRC CAB64525
Track not present in AccurateRip database
Copy OK

Track 7

Filename C:\torrenting\Duke Ellington - The Private Collection, Vol.2 (1996) [FLAC] (Studio Sessions, Chicago 1957, NY 1962)\07 - Blues a La Willie Cook.wav

Pre-gap length 0:00:00.89

Peak level 89.3 %
Track quality 100.0 %
Test CRC 85653874
Copy CRC 85653874
Track not present in AccurateRip database
Copy OK

Track 8

Filename C:\torrenting\Duke Ellington - The Private Collection, Vol.2 (1996) [FLAC] (Studio Sessions, Chicago 1957, NY 1962)\08 - Slow Blues Ensemble.wav

Pre-gap length 0:00:01.13

Peak level 80.5 %
Track quality 100.0 %
Test CRC DF39BC11
Copy CRC DF39BC11
Track not present in AccurateRip database
Copy OK

Track 9

Filename C:\torrenting\Duke Ellington - The Private Collection, Vol.2 (1996) [FLAC] (Studio Sessions, Chicago 1957, NY 1962)\09 - Circle of Fourths.wav

Pre-gap length 0:00:00.96

Peak level 99.1 %
Track quality 99.9 %
Test CRC 5B3092B6
Copy CRC 5B3092B6
Track not present in AccurateRip database
Copy OK

Track 10

Filename C:\torrenting\Duke Ellington - The Private Collection, Vol.2 (1996) [FLAC] (Studio Sessions, Chicago 1957, NY 1962)\10 - Perdido.wav

Peak level 95.1 %
Track quality 99.9 %
Test CRC 30904F4B
Copy CRC 30904F4B
Track not present in AccurateRip database
Copy OK

Track 11

Filename C:\torrenting\Duke Ellington - The Private Collection, Vol.2 (1996) [FLAC] (Studio Sessions, Chicago 1957, NY 1962)\11 - Three Trumps.wav

Pre-gap length 0:00:00.24

Peak level 91.2 %
Track quality 100.0 %
Test CRC 9A9B9460
Copy CRC 9A9B9460
Track not present in AccurateRip database
Copy OK

Track 12

Filename C:\torrenting\Duke Ellington - The Private Collection, Vol.2 (1996) [FLAC] (Studio Sessions, Chicago 1957, NY 1962)\12 - Deep Blues.wav

Pre-gap length 0:00:00.80

Peak level 69.7 %
Track quality 100.0 %
Test CRC 617594F1
Copy CRC 617594F1
Track not present in AccurateRip database
Copy OK

Track 13

Filename C:\torrenting\Duke Ellington - The Private Collection, Vol.2 (1996) [FLAC] (Studio Sessions, Chicago 1957, NY 1962)\13 - Things Ain't What They Used to Be (Instrumental).wav

Pre-gap length 0:00:01.44

Peak level 97.4 %
Track quality 100.0 %
Test CRC 62194694
Copy CRC 62194694
Track not present in AccurateRip database
Copy OK

Track 14

Filename C:\torrenting\Duke Ellington - The Private Collection, Vol.2 (1996) [FLAC] (Studio Sessions, Chicago 1957, NY 1962)\14 - Paris Blues.wav

Pre-gap length 0:00:00.36

Peak level 94.5 %
Track quality 100.0 %
Test CRC 608B862C
Copy CRC 608B862C
Track not present in AccurateRip database
Copy OK

Track 15

Filename C:\torrenting\Duke Ellington - The Private Collection, Vol.2 (1996) [FLAC] (Studio Sessions, Chicago 1957, NY 1962)\15 - I Got It Bad and That Ain't Good.wav

Pre-gap length 0:00:01.04

Peak level 92.5 %
Track quality 99.9 %
Test CRC 2A6F0316
Copy CRC 2A6F0316
Track not present in AccurateRip database
Copy OK

Track 16

Filename C:\torrenting\Duke Ellington - The Private Collection, Vol.2 (1996) [FLAC] (Studio Sessions, Chicago 1957, NY 1962)\16 - Circle Blues.wav

Pre-gap length 0:00:01.26

Peak level 98.8 %
Track quality 100.0 %
Test CRC 83DCAAD4
Copy CRC 83DCAAD4
Track not present in AccurateRip database
Copy OK

Track 17

Filename C:\torrenting\Duke Ellington - The Private Collection, Vol.2 (1996) [FLAC] (Studio Sessions, Chicago 1957, NY 1962)\17 - The Sky Fell Down.wav

Pre-gap length 0:00:01.06

Peak level 87.7 %
Track quality 100.0 %
Test CRC 0A65037C
Copy CRC 0A65037C
Track not present in AccurateRip database
Copy OK

Track 18

Filename C:\torrenting\Duke Ellington - The Private Collection, Vol.2 (1996) [FLAC] (Studio Sessions, Chicago 1957, NY 1962)\18 - Perdido (Instrumental).wav

Pre-gap length 0:00:00.26

Peak level 93.3 %
Track quality 100.0 %
Test CRC 0AF129F5
Copy CRC 0AF129F5
Track not present in AccurateRip database
Copy OK

Track 19

Filename C:\torrenting\Duke Ellington - The Private Collection, Vol.2 (1996) [FLAC] (Studio Sessions, Chicago 1957, NY 1962)\19 - Passion Flower.wav

Pre-gap length 0:00:01.06

Peak level 89.5 %
Track quality 100.0 %
Test CRC B81D073E
Copy CRC B81D073E
Track not present in AccurateRip database
Copy OK

Track 20

Filename C:\torrenting\Duke Ellington - The Private Collection, Vol.2 (1996) [FLAC] (Studio Sessions, Chicago 1957, NY 1962)\20 - Cotton Tail.wav

Pre-gap length 0:00:00.84

Peak level 92.2 %
Track quality 100.0 %
Test CRC 325DC14A
Copy CRC 325DC14A
Track not present in AccurateRip database
Copy OK


None of the tracks are present in the AccurateRip database

No errors occurred

End of status report

[CUETools log; Date: 03.03.2020 20:59:05; Version: 2.1.4]
Pregap length 00:00:32.
[CTDB TOCID: eRs.6rn3bPgLmfyW8Hj3YM2TuEc-] found.
Track | CTDB Status
1 | ( 9/10) Accurately ripped
2 | ( 9/10) Accurately ripped
3 | ( 9/10) Accurately ripped
4 | ( 9/10) Accurately ripped
5 | ( 9/10) Accurately ripped
6 | ( 9/10) Accurately ripped
7 | ( 9/10) Accurately ripped
8 | ( 9/10) Accurately ripped
9 | ( 9/10) Accurately ripped
10 | ( 9/10) Accurately ripped
11 | ( 9/10) Accurately ripped
12 | ( 9/10) Accurately ripped
13 | ( 9/10) Accurately ripped
14 | ( 9/10) Accurately ripped
15 | ( 9/10) Accurately ripped
16 | ( 9/10) Accurately ripped
17 | ( 9/10) Accurately ripped
18 | ( 9/10) Accurately ripped
19 | ( 9/10) Accurately ripped
20 | ( 9/10) Accurately ripped
[AccurateRip ID: 002dfa1d-02b3c1bf-1a104614] found.
Track [ CRC | V2 ] Status
01 [e6fd2083|dcbddad4] (0+8/8) Accurately ripped
02 [93e8fdb2|ee72bec9] (0+8/8) Accurately ripped
03 [fb694a3a|60f4f0f5] (0+8/8) Accurately ripped
04 [f2b9e41e|10b81ed5] (0+8/8) Accurately ripped
05 [10e12640|8a95854d] (0+8/8) Accurately ripped
06 [6654deb3|bb1ba868] (0+8/8) Accurately ripped
07 [11495897|ed2cce0e] (0+8/8) Accurately ripped
08 [af9de927|1dd3d3e9] (0+8/8) Accurately ripped
09 [ddeb91f8|85fd97e4] (0+8/8) Accurately ripped
10 [5aadffd4|6b6c2a98] (0+8/8) Accurately ripped
11 [5e96810c|7ce8294c] (0+8/8) Accurately ripped
12 [e265070b|b0c65839] (0+8/8) Accurately ripped
13 [7e61271b|a47372a5] (0+8/8) Accurately ripped
14 [8fd1e9d8|f653e3fa] (0+8/8) Accurately ripped
15 [9eface1f|603ad1db] (0+8/8) Accurately ripped
16 [01e1c896|603603f2] (0+8/8) Accurately ripped
17 [10cd62ee|0676d174] (0+8/8) Accurately ripped
18 [6638b66e|a3c1d048] (0+8/8) Accurately ripped
19 [1ee8aa60|60245528] (0+8/8) Accurately ripped
20 [ff6bbaf2|ea81e883] (0+8/8) Accurately ripped

Track Peak [ CRC32 ] [W/O NULL] [ LOG ]
– 99,1 [C54B6823] [9B1DF940]
01 95,4 [E20FDA10] [E80F3C49] CRC32
02 95,7 [BFD10FF3] [C5EC6E7F] CRC32
03 98,4 [A34249D7] [5AD9897E] CRC32
04 98,0 [9DA2671D] [72914164] CRC32
05 81,9 [94A505B8] [44C3725D] CRC32
06 71,0 [CAB64525] [C878E8C8] CRC32
07 89,3 [85653874] [E4D5E6C0] CRC32
08 80,5 [DF39BC11] [800B3A5A] CRC32
09 99,1 [5B3092B6] [33C31835] CRC32
10 95,1 [30904F4B] [67C77094] CRC32
11 91,2 [9A9B9460] [4AFFA40E] CRC32
12 69,7 [617594F1] [77262588] CRC32
13 97,4 [62194694] [DED358AF] CRC32
14 94,5 [608B862C] [DB3BB884] CRC32
15 92,5 [2A6F0316] [31D8519C] CRC32
16 98,8 [83DCAAD4] [037E93E3] CRC32
17 87,7 [0A65037C] [9C5BAAE5] CRC32
18 93,3 [0AF129F5] [3C8422AC] CRC32
19 89,5 [B81D073E] [CEAE6E87] CRC32
20 92,2 [325DC14A] [1F4F2047] CRC32

Duke Ellington - The Private Collection [10CD Box Set] (1996)

CD 3: Duke Ellington - The Private Collection Vol. 3: Studio Sessions, New York 1962
EAC Rip | FLAC (tracks+.cue+log) - 314 MB | MP3 CBR 320 kbps (LAME 3.93) - 146 MB | Covers (18 MB) included
Genre: Jazz, Big Band | RAR 3% Rec. | Label: Kaz Records (KAZ CD 503)

Tracklist:
01. ESP
02. Blue, Too - The Shepard
03. Tune Up
04. Take It Slow
05. Telstar
06. To Know You Is To Love You
07. Like Late
08. Major
09. Minor
10. G' For Grove
11. The Lonely Ones
12. Monk's Dream
13. Frere Monk
14. Cordon Bleu
15. New Concerto For Cootie
16. September 12th Blues

Total time: 54:02

Exact Audio Copy V0.99 prebeta 4 from 23. January 2008

EAC extraction logfile from 21. December 2008, 21:12

Duke Ellington / The Private Collection, vol.3

Used drive : PLEXTOR DVD-ROM PX-116A2 Adapter: 0 ID: 1

Read mode : Secure
Utilize accurate stream : Yes
Defeat audio cache : Yes
Make use of C2 pointers : No

Read offset correction : 102
Overread into Lead-In and Lead-Out : No
Fill up missing offset samples with silence : Yes
Delete leading and trailing silent blocks : No
Null samples used in CRC calculations : Yes
Used interface : Installed external ASPI interface
Gap handling : Appended to previous track

Used output format : User Defined Encoder
Selected bitrate : 128 kBit/s
Quality : High
Add ID3 tag : No
Command line compressor : C:\Program Files\FLAC\flac.exe
Additional command line options : -8 -V -T "ARTIST=%a" -T "TITLE=%t" -T "ALBUM=%g" -T "DATE=%y" -T "TRACKNUMBER=%n" -T "GENRE=%m" -T "COMMENT=EAC FLAC -8" %s


TOC of the extracted CD

Track | Start | Length | Start sector | End sector
––––––––––––––––––––––––––––-
1 | 0:00.32 | 4:45.20 | 32 | 21426
2 | 4:45.52 | 4:08.23 | 21427 | 40049
3 | 8:54.00 | 3:24.20 | 40050 | 55369
4 | 12:18.20 | 2:57.50 | 55370 | 68694
5 | 15:15.70 | 2:32.55 | 68695 | 80149
6 | 17:48.50 | 2:32.02 | 80150 | 91551
7 | 20:20.52 | 3:40.48 | 91552 | 108099
8 | 24:01.25 | 4:06.45 | 108100 | 126594
9 | 28:07.70 | 1:58.07 | 126595 | 135451
10 | 30:06.02 | 4:17.10 | 135452 | 154736
11 | 34:23.12 | 2:53.08 | 154737 | 167719
12 | 37:16.20 | 2:26.52 | 167720 | 178721
13 | 39:42.72 | 2:23.45 | 178722 | 189491
14 | 42:06.42 | 4:19.20 | 189492 | 208936
15 | 46:25.62 | 2:31.33 | 208937 | 220294
16 | 48:57.20 | 5:05.12 | 220295 | 243181


Track 1

Filename C:\torrenting\Duke Ellington - The Private Collection, Vol.3 (1996) [FLAC] (Studio Sessions, NY 1962)\01 - ESP.wav

Pre-gap length 0:00:02.42

Peak level 97.3 %
Track quality 99.9 %
Test CRC 4DB5DFC7
Copy CRC 4DB5DFC7
Track not present in AccurateRip database
Copy OK

Track 2

Filename C:\torrenting\Duke Ellington - The Private Collection, Vol.3 (1996) [FLAC] (Studio Sessions, NY 1962)\02 - Blue, Too.wav

Pre-gap length 0:00:01.82

Peak level 100.0 %
Track quality 100.0 %
Test CRC A2BEF487
Copy CRC A2BEF487
Track not present in AccurateRip database
Copy OK

Track 3

Filename C:\torrenting\Duke Ellington - The Private Collection, Vol.3 (1996) [FLAC] (Studio Sessions, NY 1962)\03 - Tune Up.wav

Pre-gap length 0:00:01.24

Peak level 87.9 %
Track quality 100.0 %
Test CRC 76D1FD28
Copy CRC 76D1FD28
Track not present in AccurateRip database
Copy OK

Track 4

Filename C:\torrenting\Duke Ellington - The Private Collection, Vol.3 (1996) [FLAC] (Studio Sessions, NY 1962)\04 - Take It Slow.wav

Pre-gap length 0:00:01.77

Peak level 85.7 %
Track quality 99.9 %
Test CRC C8024081
Copy CRC C8024081
Track not present in AccurateRip database
Copy OK

Track 5

Filename C:\torrenting\Duke Ellington - The Private Collection, Vol.3 (1996) [FLAC] (Studio Sessions, NY 1962)\05 - Telstar.wav

Pre-gap length 0:00:01.60

Peak level 100.0 %
Track quality 99.9 %
Test CRC DC54F126
Copy CRC DC54F126
Track not present in AccurateRip database
Copy OK

Track 6

Filename C:\torrenting\Duke Ellington - The Private Collection, Vol.3 (1996) [FLAC] (Studio Sessions, NY 1962)\06 - To Know You Is To Love You.wav

Pre-gap length 0:00:01.70

Peak level 98.4 %
Track quality 100.0 %
Test CRC EC1CDD06
Copy CRC EC1CDD06
Track not present in AccurateRip database
Copy OK

Track 7

Filename C:\torrenting\Duke Ellington - The Private Collection, Vol.3 (1996) [FLAC] (Studio Sessions, NY 1962)\07 - Like Late.wav

Pre-gap length 0:00:02.02

Peak level 99.3 %
Track quality 100.0 %
Test CRC 92410364
Copy CRC 92410364
Track not present in AccurateRip database
Copy OK

Track 8

Filename C:\torrenting\Duke Ellington - The Private Collection, Vol.3 (1996) [FLAC] (Studio Sessions, NY 1962)\08 - Major.wav

Pre-gap length 0:00:02.26

Peak level 83.2 %
Track quality 100.0 %
Test CRC E17BEE9D
Copy CRC E17BEE9D
Track not present in AccurateRip database
Copy OK

Track 9

Filename C:\torrenting\Duke Ellington - The Private Collection, Vol.3 (1996) [FLAC] (Studio Sessions, NY 1962)\09 - Minor.wav

Pre-gap length 0:00:01.97

Peak level 100.0 %
Track quality 100.0 %
Test CRC EEA4B948
Copy CRC EEA4B948
Track not present in AccurateRip database
Copy OK

Track 10

Filename C:\torrenting\Duke Ellington - The Private Collection, Vol.3 (1996) [FLAC] (Studio Sessions, NY 1962)\10 - G For Grove.wav

Pre-gap length 0:00:01.06

Peak level 100.0 %
Track quality 100.0 %
Test CRC 0FBB9EFA
Copy CRC 0FBB9EFA
Track not present in AccurateRip database
Copy OK

Track 11

Filename C:\torrenting\Duke Ellington - The Private Collection, Vol.3 (1996) [FLAC] (Studio Sessions, NY 1962)\11 - The Lonely Ones.wav

Pre-gap length 0:00:00.96

Peak level 80.1 %
Track quality 100.0 %
Test CRC 4130DB3F
Copy CRC 4130DB3F
Track not present in AccurateRip database
Copy OK

Track 12

Filename C:\torrenting\Duke Ellington - The Private Collection, Vol.3 (1996) [FLAC] (Studio Sessions, NY 1962)\12 - Monk's Dream.wav

Pre-gap length 0:00:00.64

Peak level 97.6 %
Track quality 100.0 %
Test CRC F6E50254
Copy CRC F6E50254
Track not present in AccurateRip database
Copy OK

Track 13

Filename C:\torrenting\Duke Ellington - The Private Collection, Vol.3 (1996) [FLAC] (Studio Sessions, NY 1962)\13 - Frere Monk.wav

Pre-gap length 0:00:01.93

Peak level 84.2 %
Track quality 100.0 %
Test CRC CD14EEDA
Copy CRC CD14EEDA
Track not present in AccurateRip database
Copy OK

Track 14

Filename C:\torrenting\Duke Ellington - The Private Collection, Vol.3 (1996) [FLAC] (Studio Sessions, NY 1962)\14 - Cordon Bleu.wav

Pre-gap length 0:00:02.29

Peak level 75.4 %
Track quality 100.0 %
Test CRC 8163B783
Copy CRC 8163B783
Track not present in AccurateRip database
Copy OK

Track 15

Filename C:\torrenting\Duke Ellington - The Private Collection, Vol.3 (1996) [FLAC] (Studio Sessions, NY 1962)\15 - New Concerto For Cootie.wav

Pre-gap length 0:00:01.42

Peak level 88.0 %
Track quality 99.9 %
Test CRC 943464AE
Copy CRC 943464AE
Track not present in AccurateRip database
Copy OK

Track 16

Filename C:\torrenting\Duke Ellington - The Private Collection, Vol.3 (1996) [FLAC] (Studio Sessions, NY 1962)\16 - September 12th Blues.wav

Pre-gap length 0:00:01.90

Peak level 95.4 %
Track quality 99.9 %
Test CRC 75B3E0EE
Copy CRC 75B3E0EE
Track not present in AccurateRip database
Copy OK


None of the tracks are present in the AccurateRip database

No errors occurred

End of status report

[CUETools log; Date: 03.03.2020 20:59:35; Version: 2.1.4]
Pregap length 00:00:32.
[CTDB TOCID: ZWPiBahtV9.BNGXnRJ9fKj1O3BY-] found.
Track | CTDB Status
1 | (10/10) Accurately ripped
2 | (10/10) Accurately ripped
3 | (10/10) Accurately ripped
4 | (10/10) Accurately ripped
5 | (10/10) Accurately ripped
6 | (10/10) Accurately ripped
7 | (10/10) Accurately ripped
8 | (10/10) Accurately ripped
9 | (10/10) Accurately ripped
10 | (10/10) Accurately ripped
11 | (10/10) Accurately ripped
12 | (10/10) Accurately ripped
13 | (10/10) Accurately ripped
14 | (10/10) Accurately ripped
15 | (10/10) Accurately ripped
16 | (10/10) Accurately ripped
[AccurateRip ID: 001fe60c-0178c660-ee0caa10] found.
Track [ CRC | V2 ] Status
01 [b3b4c9a5|966a0d5e] (0+9/9) Accurately ripped
02 [a7b92f7a|88f9160d] (0+9/9) Accurately ripped
03 [a41ba428|80af6c05] (0+9/9) Accurately ripped
04 [94b982ff|a0555b8e] (0+9/9) Accurately ripped
05 [29b2ec53|90ca8601] (0+9/9) Accurately ripped
06 [e728bdf9|d398a998] (0+9/9) Accurately ripped
07 [10d5c036|36b802e5] (0+9/9) Accurately ripped
08 [25ae6367|ef12ef39] (0+9/9) Accurately ripped
09 [ce3b44f2|da1aa023] (0+9/9) Accurately ripped
10 [d19c2954|c153cde7] (0+9/9) Accurately ripped
11 [9b0c0341|c7832834] (0+9/9) Accurately ripped
12 [21f97687|70ebbc7f] (0+9/9) Accurately ripped
13 [9892f2af|90a1a47b] (0+9/9) Accurately ripped
14 [d749a035|8ff05fcd] (0+9/9) Accurately ripped
15 [97b6ac92|f5a93b9a] (0+9/9) Accurately ripped
16 [1f291420|413c6b40] (0+9/9) Accurately ripped

Track Peak [ CRC32 ] [W/O NULL] [ LOG ]
– 100,0 [B2524E09] [EECEC331]
01 97,3 [4DB5DFC7] [B617E5FB] CRC32
02 100,0 [A2BEF487] [69C27449] CRC32
03 87,9 [76D1FD28] [E1B19DD5] CRC32
04 85,7 [C8024081] [70D3DC3C] CRC32
05 100,0 [DC54F126] [48565F88] CRC32
06 98,4 [EC1CDD06] [C42B125F] CRC32
07 99,3 [92410364] [40739D46] CRC32
08 83,2 [E17BEE9D] [35289512] CRC32
09 100,0 [EEA4B948] [889BDAB2] CRC32
10 100,0 [0FBB9EFA] [B326317F] CRC32
11 80,1 [4130DB3F] [0ADFA83B] CRC32
12 97,6 [F6E50254] [E0145F58] CRC32
13 84,2 [CD14EEDA] [987D56F4] CRC32
14 75,4 [8163B783] [B83DE66C] CRC32
15 88,0 [943464AE] [95CDD300] CRC32
16 95,4 [75B3E0EE] [2E83E536] CRC32

Duke Ellington - The Private Collection [10CD Box Set] (1996)

CD 4: Duke Ellington - The Private Collection Vol. 4: Studio Sessions, New York 1963
EAC Rip | FLAC (tracks+.cue+log) - 353 MB | MP3 CBR 320 kbps (LAME 3.93) - 157 MB | Covers (18 MB) included
Genre: Jazz, Big Band | RAR 3% Rec. | Label: Kaz Records (KAZ CD 504)

Tracklist:
01. Bad Woman
02. Jeep's Blues
03. Stoona
04. Serenade To Sweden
05. Harmony In Harlem
06. Action In Alexandria
07. Tajm
08. Isfahan
09. Killian's Lick
10. Blouson's Noir
11. Elysee
12. Butter And Oleo!
13. Got Nobody Now
14. M.G.
15. Blue Rose
16. July 18th Blues

Total time: 58:41

Exact Audio Copy V0.99 prebeta 4 from 23. January 2008

EAC extraction logfile from 18. January 2009, 23:36

Duke Ellington / The Private Collection, vol.4

Used drive : PLEXTOR DVD-ROM PX-116A2 Adapter: 0 ID: 1

Read mode : Secure
Utilize accurate stream : Yes
Defeat audio cache : Yes
Make use of C2 pointers : No

Read offset correction : 102
Overread into Lead-In and Lead-Out : No
Fill up missing offset samples with silence : Yes
Delete leading and trailing silent blocks : No
Null samples used in CRC calculations : Yes
Used interface : Installed external ASPI interface
Gap handling : Appended to previous track

Used output format : User Defined Encoder
Selected bitrate : 128 kBit/s
Quality : High
Add ID3 tag : No
Command line compressor : C:\Program Files\FLAC\flac.exe
Additional command line options : -8 -V -T "ARTIST=%a" -T "TITLE=%t" -T "ALBUM=%g" -T "DATE=%y" -T "TRACKNUMBER=%n" -T "GENRE=%m" -T "COMMENT=EAC FLAC -8" %s


TOC of the extracted CD

Track | Start | Length | Start sector | End sector
––––––––––––––––––––––––––––-
1 | 0:00.32 | 4:36.60 | 32 | 20791
2 | 4:37.17 | 4:08.33 | 20792 | 39424
3 | 8:45.50 | 4:33.17 | 39425 | 59916
4 | 13:18.67 | 2:38.08 | 59917 | 71774
5 | 15:57.00 | 4:20.57 | 71775 | 91331
6 | 20:17.57 | 2:31.25 | 91332 | 102681
7 | 22:49.07 | 3:21.13 | 102682 | 117769
8 | 26:10.20 | 3:19.07 | 117770 | 132701
9 | 29:29.27 | 4:30.38 | 132702 | 152989
10 | 33:59.65 | 3:46.35 | 152990 | 169974
11 | 37:46.25 | 2:25.70 | 169975 | 180919
12 | 40:12.20 | 4:37.20 | 180920 | 201714
13 | 44:49.40 | 2:36.67 | 201715 | 213481
14 | 47:26.32 | 2:54.48 | 213482 | 226579
15 | 50:21.05 | 2:47.72 | 226580 | 239176
16 | 53:09.02 | 5:32.55 | 239177 | 264131


Track 1

Filename C:\torrenting\Duke Ellington - The Private Collection, Vol.4 (1996) [FLAC] (Studio Sessions, NY 1963)\01 - Bad Woman.wav

Pre-gap length 0:00:02.42

Peak level 84.8 %
Track quality 100.0 %
Test CRC 636DEE5C
Copy CRC 636DEE5C
Track not present in AccurateRip database
Copy OK

Track 2

Filename C:\torrenting\Duke Ellington - The Private Collection, Vol.4 (1996) [FLAC] (Studio Sessions, NY 1963)\02 - Jeep's Blues.wav

Pre-gap length 0:00:01.46

Peak level 95.8 %
Track quality 100.0 %
Test CRC D8C1C0AF
Copy CRC D8C1C0AF
Track not present in AccurateRip database
Copy OK

Track 3

Filename C:\torrenting\Duke Ellington - The Private Collection, Vol.4 (1996) [FLAC] (Studio Sessions, NY 1963)\03 - Stoona.wav

Pre-gap length 0:00:01.37

Peak level 86.2 %
Track quality 100.0 %
Test CRC 07A3CF21
Copy CRC 07A3CF21
Track not present in AccurateRip database
Copy OK

Track 4

Filename C:\torrenting\Duke Ellington - The Private Collection, Vol.4 (1996) [FLAC] (Studio Sessions, NY 1963)\04 - Serenade To Sweden.wav

Pre-gap length 0:00:01.16

Peak level 75.1 %
Track quality 100.0 %
Test CRC 5548580C
Copy CRC 5548580C
Track not present in AccurateRip database
Copy OK

Track 5

Filename C:\torrenting\Duke Ellington - The Private Collection, Vol.4 (1996) [FLAC] (Studio Sessions, NY 1963)\05 - Harmony In Harlem.wav

Pre-gap length 0:00:02.53

Peak level 85.3 %
Track quality 100.0 %
Test CRC 73B52A6D
Copy CRC 73B52A6D
Track not present in AccurateRip database
Copy OK

Track 6

Filename C:\torrenting\Duke Ellington - The Private Collection, Vol.4 (1996) [FLAC] (Studio Sessions, NY 1963)\06 - Action In Alexandria.wav

Pre-gap length 0:00:02.09

Peak level 92.8 %
Track quality 100.0 %
Test CRC 16FFDBBE
Copy CRC 16FFDBBE
Track not present in AccurateRip database
Copy OK

Track 7

Filename C:\torrenting\Duke Ellington - The Private Collection, Vol.4 (1996) [FLAC] (Studio Sessions, NY 1963)\07 - Tajm.wav

Pre-gap length 0:00:01.16

Peak level 99.9 %
Track quality 100.0 %
Test CRC 25BBC7AE
Copy CRC 25BBC7AE
Track not present in AccurateRip database
Copy OK

Track 8

Filename C:\torrenting\Duke Ellington - The Private Collection, Vol.4 (1996) [FLAC] (Studio Sessions, NY 1963)\08 - Isfahan.wav

Pre-gap length 0:00:01.73

Peak level 63.7 %
Track quality 100.0 %
Test CRC F0CCD907
Copy CRC F0CCD907
Track not present in AccurateRip database
Copy OK

Track 9

Filename C:\torrenting\Duke Ellington - The Private Collection, Vol.4 (1996) [FLAC] (Studio Sessions, NY 1963)\09 - Killian's Lick.wav

Pre-gap length 0:00:01.13

Peak level 98.3 %
Track quality 100.0 %
Test CRC 3BB9C181
Copy CRC 3BB9C181
Track not present in AccurateRip database
Copy OK

Track 10

Filename C:\torrenting\Duke Ellington - The Private Collection, Vol.4 (1996) [FLAC] (Studio Sessions, NY 1963)\10 - Blouson's Noir.wav

Pre-gap length 0:00:01.26

Peak level 73.5 %
Track quality 99.9 %
Test CRC 812C9AC9
Copy CRC 812C9AC9
Track not present in AccurateRip database
Copy OK

Track 11

Filename C:\torrenting\Duke Ellington - The Private Collection, Vol.4 (1996) [FLAC] (Studio Sessions, NY 1963)\11 - Elysee.wav

Pre-gap length 0:00:01.64

Peak level 72.1 %
Track quality 100.0 %
Test CRC 2CE09981
Copy CRC 2CE09981
Track not present in AccurateRip database
Copy OK

Track 12

Filename C:\torrenting\Duke Ellington - The Private Collection, Vol.4 (1996) [FLAC] (Studio Sessions, NY 1963)\12 - Butter And Oleo.wav

Pre-gap length 0:00:01.53

Peak level 95.3 %
Track quality 99.9 %
Test CRC 7B5C3FC6
Copy CRC 7B5C3FC6
Track not present in AccurateRip database
Copy OK

Track 13

Filename C:\torrenting\Duke Ellington - The Private Collection, Vol.4 (1996) [FLAC] (Studio Sessions, NY 1963)\13 - Got Nobody Now.wav

Pre-gap length 0:00:01.04

Peak level 82.1 %
Track quality 100.0 %
Test CRC AFA22DD5
Copy CRC AFA22DD5
Track not present in AccurateRip database
Copy OK

Track 14

Filename C:\torrenting\Duke Ellington - The Private Collection, Vol.4 (1996) [FLAC] (Studio Sessions, NY 1963)\14 - M.G..wav

Pre-gap length 0:00:01.53

Peak level 74.4 %
Track quality 100.0 %
Test CRC CD794150
Copy CRC CD794150
Track not present in AccurateRip database
Copy OK

Track 15

Filename C:\torrenting\Duke Ellington - The Private Collection, Vol.4 (1996) [FLAC] (Studio Sessions, NY 1963)\15 - Blue Rose.wav

Pre-gap length 0:00:01.66

Peak level 81.9 %
Track quality 100.0 %
Test CRC 7953EC6E
Copy CRC 7953EC6E
Track not present in AccurateRip database
Copy OK

Track 16

Filename C:\torrenting\Duke Ellington - The Private Collection, Vol.4 (1996) [FLAC] (Studio Sessions, NY 1963)\16 - July 18th Blues.wav

Pre-gap length 0:00:01.69

Peak level 82.1 %
Track quality 99.9 %
Test CRC 459F3248
Copy CRC 459F3248
Track not present in AccurateRip database
Copy OK


None of the tracks are present in the AccurateRip database

No errors occurred

End of status report

[CUETools log; Date: 03.03.2020 21:00:10; Version: 2.1.4]
Pregap length 00:00:32.
[CTDB TOCID: 9528SkRwgKTEnbba7dn1rSRrJ9s-] found.
Track | CTDB Status
1 | (8/8) Accurately ripped
2 | (8/8) Accurately ripped
3 | (8/8) Accurately ripped
4 | (8/8) Accurately ripped
5 | (8/8) Accurately ripped
6 | (8/8) Accurately ripped
7 | (8/8) Accurately ripped
8 | (8/8) Accurately ripped
9 | (8/8) Accurately ripped
10 | (8/8) Accurately ripped
11 | (8/8) Accurately ripped
12 | (8/8) Accurately ripped
13 | (8/8) Accurately ripped
14 | (8/8) Accurately ripped
15 | (8/8) Accurately ripped
16 | (8/8) Accurately ripped
[AccurateRip ID: 0022df56-019ce3da-db0dc110] found.
Track [ CRC | V2 ] Status
01 [fd64b6c7|adac84a7] (0+3/3) Accurately ripped
02 [d0309cd4|72d9fb1b] (0+3/3) Accurately ripped
03 [71ee6919|da4a45bb] (0+3/3) Accurately ripped
04 [38cef75a|f48e6e2a] (0+3/3) Accurately ripped
05 [32fff5cf|ff418ee9] (0+3/3) Accurately ripped
06 [fcd1aba9|84bf24a0] (0+3/3) Accurately ripped
07 [1e81f877|c1dc8140] (0+3/3) Accurately ripped
08 [edfc1b1c|6488989c] (0+3/3) Accurately ripped
09 [19d70baf|1e061afe] (0+3/3) Accurately ripped
10 [70017f0e|dfbc7c27] (0+3/3) Accurately ripped
11 [a87f8d1e|38761bde] (0+3/3) Accurately ripped
12 [2d1ba9b4|e38a4bea] (0+3/3) Accurately ripped
13 [8f2140d1|38c1a3c2] (0+3/3) Accurately ripped
14 [3ebc8efb|106671e1] (0+3/3) Accurately ripped
15 [54bb854c|bf7df34f] (0+3/3) Accurately ripped
16 [ba233f50|696c4cec] (0+3/3) Accurately ripped

Track Peak [ CRC32 ] [W/O NULL] [ LOG ]
– 99,9 [EC7A6A68] [F0A2DFDC]
01 84,8 [636DEE5C] [F4BFBCC6] CRC32
02 95,8 [D8C1C0AF] [DB3CD249] CRC32
03 86,2 [07A3CF21] [520FFFC3] CRC32
04 75,1 [5548580C] [2CBA4544] CRC32
05 85,3 [73B52A6D] [F1999D35] CRC32
06 92,8 [16FFDBBE] [FAA404B8] CRC32
07 99,9 [25BBC7AE] [9527C72A] CRC32
08 63,7 [F0CCD907] [2F06C52D] CRC32
09 98,3 [3BB9C181] [F363F786] CRC32
10 73,5 [812C9AC9] [E1F0521B] CRC32
11 72,1 [2CE09981] [78032CCB] CRC32
12 95,3 [7B5C3FC6] [A6CCD6B6] CRC32
13 82,1 [AFA22DD5] [6961DD23] CRC32
14 74,4 [CD794150] [000562E3] CRC32
15 81,9 [7953EC6E] [E19C346B] CRC32
16 82,1 [459F3248] [66935DD4] CRC32

Duke Ellington - The Private Collection [10CD Box Set] (1996)

CD 5: Duke Ellington - The Private Collection Vol. 5: Studio Sessions 1957, 1965, 1966, 1967 - San Francisco, Chicago, New York
EAC Rip | FLAC (tracks+.cue+log) - 385 MB | MP3 CBR 320 kbps (LAME 3.93) - 169 MB | Covers (18 MB) included
Genre: Jazz, Big Band | RAR 3% Rec. | Label: Kaz Records (KAZ CD 505)

Tracklist:
01. Countdown
02. When I'm Feeling Kinda Blue
03. El Viti
04. Draggin' Blues
05. Cotton Tail
06. Now Ain't It
07. The Last Go-Round
08. Moon Mist
09. Skillipoop
10. Banquet Scene (Timon Of Athens)
11. Love Scene
12. Rod La Roque
13. Rhythm Section Blues
14. Lele
15. Ocht O'Clock Rock
16. Lady
17. Rondolet

Total time: 01:03:56

Exact Audio Copy V0.99 prebeta 4 from 23. January 2008

EAC extraction logfile from 28. January 2009, 21:48

Duke Ellington / The Private Collection - cd 5

Used drive : PLEXTOR DVD-ROM PX-116A2 Adapter: 0 ID: 1

Read mode : Secure
Utilize accurate stream : Yes
Defeat audio cache : Yes
Make use of C2 pointers : No

Read offset correction : 102
Overread into Lead-In and Lead-Out : No
Fill up missing offset samples with silence : Yes
Delete leading and trailing silent blocks : No
Null samples used in CRC calculations : Yes
Used interface : Installed external ASPI interface
Gap handling : Appended to previous track

Used output format : User Defined Encoder
Selected bitrate : 128 kBit/s
Quality : High
Add ID3 tag : No
Command line compressor : C:\Program Files\FLAC\flac.exe
Additional command line options : -8 -V -T "ARTIST=%a" -T "TITLE=%t" -T "ALBUM=%g" -T "DATE=%y" -T "TRACKNUMBER=%n" -T "GENRE=%m" -T "COMMENT=EAC FLAC -8" %s


TOC of the extracted CD

Track | Start | Length | Start sector | End sector
––––––––––––––––––––––––––––-
1 | 0:00.32 | 2:36.00 | 32 | 11731
2 | 2:36.32 | 5:52.33 | 11732 | 38164
3 | 8:28.65 | 3:23.00 | 38165 | 53389
4 | 11:51.65 | 6:12.70 | 53390 | 81359
5 | 18:04.60 | 3:44.50 | 81360 | 98209
6 | 21:49.35 | 4:17.57 | 98210 | 117541
7 | 26:07.17 | 3:33.40 | 117542 | 133556
8 | 29:40.57 | 6:26.03 | 133557 | 162509
9 | 36:06.60 | 2:01.67 | 162510 | 171651
10 | 38:08.52 | 2:23.15 | 171652 | 182391
11 | 40:31.67 | 3:11.45 | 182392 | 196761
12 | 43:43.37 | 4:15.50 | 196762 | 215936
13 | 47:59.12 | 3:13.08 | 215937 | 230419
14 | 51:12.20 | 3:06.52 | 230420 | 244421
15 | 54:18.72 | 3:19.15 | 244422 | 259361
16 | 57:38.12 | 3:35.60 | 259362 | 275546
17 | 61:13.72 | 2:42.68 | 275547 | 287764


Track 1

Filename C:\torrenting\Duke Ellington - The Private Collection, Vol.5 (1989) [FLAC] (Studio Sessions, rec 1957 & 1965-67)\01 - Countdown.wav

Pre-gap length 0:00:02.42

Peak level 95.8 %
Track quality 100.0 %
Test CRC FAE18E20
Copy CRC FAE18E20
Track not present in AccurateRip database
Copy OK

Track 2

Filename C:\torrenting\Duke Ellington - The Private Collection, Vol.5 (1989) [FLAC] (Studio Sessions, rec 1957 & 1965-67)\02 - When I'm Feeling Kinda Blue.wav

Pre-gap length 0:00:02.49

Peak level 97.7 %
Track quality 100.0 %
Test CRC E5A89102
Copy CRC E5A89102
Track not present in AccurateRip database
Copy OK

Track 3

Filename C:\torrenting\Duke Ellington - The Private Collection, Vol.5 (1989) [FLAC] (Studio Sessions, rec 1957 & 1965-67)\03 - El Viti.wav

Pre-gap length 0:00:02.30

Peak level 96.4 %
Track quality 100.0 %
Test CRC 949D055F
Copy CRC 949D055F
Track not present in AccurateRip database
Copy OK

Track 4

Filename C:\torrenting\Duke Ellington - The Private Collection, Vol.5 (1989) [FLAC] (Studio Sessions, rec 1957 & 1965-67)\04 - Draggin' Blues.wav

Pre-gap length 0:00:02.26

Peak level 97.7 %
Track quality 100.0 %
Test CRC 59975D49
Copy CRC 59975D49
Track not present in AccurateRip database
Copy OK

Track 5

Filename C:\torrenting\Duke Ellington - The Private Collection, Vol.5 (1989) [FLAC] (Studio Sessions, rec 1957 & 1965-67)\05 - Cottontail.wav

Pre-gap length 0:00:02.80

Peak level 96.9 %
Track quality 100.0 %
Test CRC 28EE9D7D
Copy CRC 28EE9D7D
Track not present in AccurateRip database
Copy OK

Track 6

Filename C:\torrenting\Duke Ellington - The Private Collection, Vol.5 (1989) [FLAC] (Studio Sessions, rec 1957 & 1965-67)\06 - Now Ain't It.wav

Pre-gap length 0:00:02.40

Peak level 91.8 %
Track quality 100.0 %
Test CRC 0237E6BC
Copy CRC 0237E6BC
Track not present in AccurateRip database
Copy OK

Track 7

Filename C:\torrenting\Duke Ellington - The Private Collection, Vol.5 (1989) [FLAC] (Studio Sessions, rec 1957 & 1965-67)\07 - The Last Go-Round.wav

Pre-gap length 0:00:02.69

Peak level 97.7 %
Track quality 99.9 %
Test CRC 3245B309
Copy CRC 3245B309
Track not present in AccurateRip database
Copy OK

Track 8

Filename C:\torrenting\Duke Ellington - The Private Collection, Vol.5 (1989) [FLAC] (Studio Sessions, rec 1957 & 1965-67)\08 - Moon Mist.wav

Pre-gap length 0:00:02.89

Peak level 94.8 %
Track quality 100.0 %
Test CRC 156053D0
Copy CRC 156053D0
Track not present in AccurateRip database
Copy OK

Track 9

Filename C:\torrenting\Duke Ellington - The Private Collection, Vol.5 (1989) [FLAC] (Studio Sessions, rec 1957 & 1965-67)\09 - Skillipoop.wav

Pre-gap length 0:00:02.26

Peak level 97.7 %
Track quality 100.0 %
Test CRC 4E8D2B41
Copy CRC 4E8D2B41
Track not present in AccurateRip database
Copy OK

Track 10

Filename C:\torrenting\Duke Ellington - The Private Collection, Vol.5 (1989) [FLAC] (Studio Sessions, rec 1957 & 1965-67)\10 - Banquet Scene (Timon of Athens).wav

Pre-gap length 0:00:02.20

Peak level 94.6 %
Track quality 100.0 %
Test CRC 6EA23F56
Copy CRC 6EA23F56
Track not present in AccurateRip database
Copy OK

Track 11

Filename C:\torrenting\Duke Ellington - The Private Collection, Vol.5 (1989) [FLAC] (Studio Sessions, rec 1957 & 1965-67)\11 - Love Scene.wav

Pre-gap length 0:00:02.46

Peak level 97.7 %
Track quality 99.9 %
Test CRC A44B9B76
Copy CRC A44B9B76
Track not present in AccurateRip database
Copy OK

Track 12

Filename C:\torrenting\Duke Ellington - The Private Collection, Vol.5 (1989) [FLAC] (Studio Sessions, rec 1957 & 1965-67)\12 - Rod La Roque.wav

Pre-gap length 0:00:02.93

Peak level 95.1 %
Track quality 99.9 %
Test CRC 0A8B4302
Copy CRC 0A8B4302
Track not present in AccurateRip database
Copy OK

Track 13

Filename C:\torrenting\Duke Ellington - The Private Collection, Vol.5 (1989) [FLAC] (Studio Sessions, rec 1957 & 1965-67)\13 - Rhythm Section Blues.wav

Pre-gap length 0:00:02.49

Peak level 75.2 %
Track quality 100.0 %
Test CRC A511D49B
Copy CRC A511D49B
Track not present in AccurateRip database
Copy OK

Track 14

Filename C:\torrenting\Duke Ellington - The Private Collection, Vol.5 (1989) [FLAC] (Studio Sessions, rec 1957 & 1965-67)\14 - Lele.wav

Pre-gap length 0:00:02.97

Peak level 94.2 %
Track quality 100.0 %
Test CRC EC7E7D53
Copy CRC EC7E7D53
Track not present in AccurateRip database
Copy OK

Track 15

Filename C:\torrenting\Duke Ellington - The Private Collection, Vol.5 (1989) [FLAC] (Studio Sessions, rec 1957 & 1965-67)\15 - Ocht O'Clock Rock.wav

Pre-gap length 0:00:02.49

Peak level 97.3 %
Track quality 100.0 %
Test CRC 7E5F60DE
Copy CRC 7E5F60DE
Track not present in AccurateRip database
Copy OK

Track 16

Filename C:\torrenting\Duke Ellington - The Private Collection, Vol.5 (1989) [FLAC] (Studio Sessions, rec 1957 & 1965-67)\16 - Lady.wav

Pre-gap length 0:00:02.42

Peak level 94.3 %
Track quality 100.0 %
Test CRC 1D2A5521
Copy CRC 1D2A5521
Track not present in AccurateRip database
Copy OK

Track 17

Filename C:\torrenting\Duke Ellington - The Private Collection, Vol.5 (1989) [FLAC] (Studio Sessions, rec 1957 & 1965-67)\17 - Rondolet.wav

Pre-gap length 0:00:02.42

Peak level 94.1 %
Track quality 100.0 %
Test CRC 0D4644B0
Copy CRC 0D4644B0
Track not present in AccurateRip database
Copy OK


None of the tracks are present in the AccurateRip database

No errors occurred

End of status report

[CUETools log; Date: 03.03.2020 21:00:38; Version: 2.1.4]
Pregap length 00:00:32.
[CTDB TOCID: CEM8KH5jLufg9YQp.G0b8XKe6Ws-] found.
Track | CTDB Status
1 | (10/10) Accurately ripped
2 | (10/10) Accurately ripped
3 | (10/10) Accurately ripped
4 | (10/10) Accurately ripped
5 | (10/10) Accurately ripped
6 | (10/10) Accurately ripped
7 | (10/10) Accurately ripped
8 | (10/10) Accurately ripped
9 | (10/10) Accurately ripped
10 | (10/10) Accurately ripped
11 | (10/10) Accurately ripped
12 | (10/10) Accurately ripped
13 | (10/10) Accurately ripped
14 | (10/10) Accurately ripped
15 | (10/10) Accurately ripped
16 | (10/10) Accurately ripped
17 | (10/10) Accurately ripped
[AccurateRip ID: 002a2035-020e6877-e40efc11] found.
Track [ CRC | V2 ] Status
01 [31fca00a|b79ba746] (0+3/8) Accurately ripped
02 [16881a72|6df631d0] (0+3/8) Accurately ripped
03 [8affb70d|fe327eff] (0+3/8) Accurately ripped
04 [973d6a63|632ee4e1] (0+3/8) Accurately ripped
05 [23d6a463|26bbf9ef] (0+3/8) Accurately ripped
06 [9ad14f72|c8f9dd31] (0+3/8) Accurately ripped
07 [8c11a380|3d3a2688] (0+3/8) Accurately ripped
08 [763a4d2a|735ffe31] (0+3/8) Accurately ripped
09 [e42c7c19|ff831fb4] (0+3/8) Accurately ripped
10 [3050d5c6|4ad06c3b] (0+3/8) Accurately ripped
11 [7e8f510e|3b7bdc06] (0+3/8) Accurately ripped
12 [482ccc11|13626c0b] (0+3/8) Accurately ripped
13 [aaa56b67|065f37db] (0+3/8) Accurately ripped
14 [c8be23b4|4bd29a2d] (0+3/8) Accurately ripped
15 [b50366a3|e1ecd228] (0+3/8) Accurately ripped
16 [1dcf3661|b71e895e] (0+3/8) Accurately ripped
17 [b924df15|31e32cc4] (0+3/8) Accurately ripped
Offsetted by 2097:
01 [4af0bdf3] (0/8) No match (V2 was not tested)
02 [d65abfc9] (0/8) No match (V2 was not tested)
03 [12ced551] (0/8) No match (V2 was not tested)
04 [cead2048] (0/8) No match (V2 was not tested)
05 [1f589174] (0/8) No match (V2 was not tested)
06 [504faf86] (0/8) No match (V2 was not tested)
07 [4b961167] (0/8) No match (V2 was not tested)
08 [82811c17] (0/8) No match (V2 was not tested)
09 [57f4f216] (0/8) No match (V2 was not tested)
10 [3d402810] (0/8) No match (V2 was not tested)
11 [69c7d993] (0/8) No match (V2 was not tested)
12 [b9b3cb06] (0/8) No match (V2 was not tested)
13 [e477c89a] (0/8) No match (V2 was not tested)
14 [0a28caa0] (0/8) No match (V2 was not tested)
15 [e7ca82e6] (0/8) No match (V2 was not tested)
16 [d6d2c380] (0/8) No match (V2 was not tested)
17 [a83c4aa6] (0/8) No match (V2 was not tested)

Track Peak [ CRC32 ] [W/O NULL] [ LOG ]
– 97,7 [9E6498A5] [0780BEAC]
01 95,8 [FAE18E20] [D1962A4E] CRC32
02 97,7 [E5A89102] [3E187047] CRC32
03 96,4 [949D055F] [77143B89] CRC32
04 97,7 [59975D49] [6B7E83A7] CRC32
05 96,9 [28EE9D7D] [36D1636D] CRC32
06 91,8 [0237E6BC] [09B537D1] CRC32
07 97,7 [3245B309] [7177336A] CRC32
08 94,8 [156053D0] [A7755FB2] CRC32
09 97,7 [4E8D2B41] [AEB6F6FC] CRC32
10 94,6 [6EA23F56] [67937D77] CRC32
11 97,7 [A44B9B76] [F1AFF511] CRC32
12 95,1 [0A8B4302] [208A43E5] CRC32
13 75,2 [A511D49B] [77375832] CRC32
14 94,2 [EC7E7D53] [B69C936C] CRC32
15 97,3 [7E5F60DE] [678A3714] CRC32
16 94,3 [1D2A5521] [B09B7714] CRC32
17 94,1 [0D4644B0] [B424FDBD] CRC32

Duke Ellington - The Private Collection [10CD Box Set] (1996)

CD 6: Duke Ellington - The Private Collection Vol. 6: Studio Sessions, New York 1968
EAC Rip | FLAC (tracks+.cue+log) - 330 MB | MP3 CBR 320 kbps (LAME 3.93) - 163 MB | Covers (18 MB) included
Genre: Jazz, Big Band | RAR 3% Rec. | Label: Kaz Records (KAZ CD 506)

Tracklist:
01. I Can't Get Started
02. Waiting For You
03. Knuf
04. Gigl
05. Meditation
06. Sophisticated Lady
07. Just Squeeze Me
08. Mood Indigo
09. In A Sentimental Mood
10. I Let A Song (Go Out Of My Heart) / Don't Get Around Much Anymore
11. Reva
12. Ortseam
13. Cool And Groovy
14. Elos
15. C-Jam Blues

Total time: 01:01:16

Exact Audio Copy V0.99 prebeta 4 from 23. January 2008

EAC extraction logfile from 13. February 2009, 0:58

Duke Ellington / The Private Collection - Vol. 6

Used drive : PLEXTOR DVD-ROM PX-116A2 Adapter: 0 ID: 1

Read mode : Secure
Utilize accurate stream : Yes
Defeat audio cache : Yes
Make use of C2 pointers : No

Read offset correction : 102
Overread into Lead-In and Lead-Out : No
Fill up missing offset samples with silence : Yes
Delete leading and trailing silent blocks : No
Null samples used in CRC calculations : Yes
Used interface : Installed external ASPI interface
Gap handling : Appended to previous track

Used output format : User Defined Encoder
Selected bitrate : 128 kBit/s
Quality : High
Add ID3 tag : No
Command line compressor : C:\Program Files\FLAC\flac.exe
Additional command line options : -8 -V -T "ARTIST=%a" -T "TITLE=%t" -T "ALBUM=%g" -T "DATE=%y" -T "TRACKNUMBER=%n" -T "GENRE=%m" -T "COMMENT=EAC FLAC -8" %s


TOC of the extracted CD

Track | Start | Length | Start sector | End sector
––––––––––––––––––––––––––––-
1 | 0:00.32 | 4:29.03 | 32 | 20209
2 | 4:29.35 | 4:11.27 | 20210 | 39061
3 | 8:40.62 | 2:33.70 | 39062 | 50606
4 | 11:14.57 | 5:02.18 | 50607 | 73274
5 | 16:17.00 | 2:35.32 | 73275 | 84931
6 | 18:52.32 | 2:54.03 | 84932 | 97984
7 | 21:46.35 | 4:14.32 | 97985 | 117066
8 | 26:00.67 | 4:44.53 | 117067 | 138419
9 | 30:45.45 | 2:53.25 | 138420 | 151419
10 | 33:38.70 | 4:02.70 | 151420 | 169639
11 | 37:41.65 | 4:14.45 | 169640 | 188734
12 | 41:56.35 | 2:05.32 | 188735 | 198141
13 | 44:01.67 | 2:30.65 | 198142 | 209456
14 | 46:32.57 | 5:40.43 | 209457 | 234999
15 | 52:13.25 | 9:03.27 | 235000 | 275751


Track 1

Filename D:\tests\Duke Ellington - The Private Collection, Vol.6 (1987) [FLAC] (Studio Sessions, NY 1968)\01 - I Can't Get Started.wav

Pre-gap length 0:00:02.42

Peak level 81.4 %
Track quality 100.0 %
Test CRC A8A826C0
Copy CRC A8A826C0
Track not present in AccurateRip database
Copy OK

Track 2

Filename D:\tests\Duke Ellington - The Private Collection, Vol.6 (1987) [FLAC] (Studio Sessions, NY 1968)\02 - Waiting For You.wav

Pre-gap length 0:00:01.37

Peak level 89.1 %
Track quality 99.9 %
Test CRC 15C091B9
Copy CRC 15C091B9
Track not present in AccurateRip database
Copy OK

Track 3

Filename D:\tests\Duke Ellington - The Private Collection, Vol.6 (1987) [FLAC] (Studio Sessions, NY 1968)\03 - Knuf.wav

Pre-gap length 0:00:01.62

Peak level 86.9 %
Track quality 100.0 %
Test CRC 33F96973
Copy CRC 33F96973
Track not present in AccurateRip database
Copy OK

Track 4

Filename D:\tests\Duke Ellington - The Private Collection, Vol.6 (1987) [FLAC] (Studio Sessions, NY 1968)\04 - Gigl.wav

Pre-gap length 0:00:00.69

Peak level 89.1 %
Track quality 100.0 %
Test CRC 8E21A04D
Copy CRC 8E21A04D
Track not present in AccurateRip database
Copy OK

Track 5

Filename D:\tests\Duke Ellington - The Private Collection, Vol.6 (1987) [FLAC] (Studio Sessions, NY 1968)\05 - Meditation.wav

Pre-gap length 0:00:01.20

Peak level 75.7 %
Track quality 100.0 %
Test CRC FE85EA84
Copy CRC FE85EA84
Track not present in AccurateRip database
Copy OK

Track 6

Filename D:\tests\Duke Ellington - The Private Collection, Vol.6 (1987) [FLAC] (Studio Sessions, NY 1968)\06 - Sophisticated Lady.wav

Pre-gap length 0:00:00.36

Peak level 78.6 %
Track quality 100.0 %
Test CRC 9F74905A
Copy CRC 9F74905A
Track not present in AccurateRip database
Copy OK

Track 7

Filename D:\tests\Duke Ellington - The Private Collection, Vol.6 (1987) [FLAC] (Studio Sessions, NY 1968)\07 - Just Squeeze Me.wav

Pre-gap length 0:00:00.80

Peak level 81.3 %
Track quality 100.0 %
Test CRC 815CFBF4
Copy CRC 815CFBF4
Track not present in AccurateRip database
Copy OK

Track 8

Filename D:\tests\Duke Ellington - The Private Collection, Vol.6 (1987) [FLAC] (Studio Sessions, NY 1968)\08 - Mood Indigo.wav

Pre-gap length 0:00:00.40

Peak level 83.0 %
Track quality 100.0 %
Test CRC FEA44E2F
Copy CRC FEA44E2F
Track not present in AccurateRip database
Copy OK

Track 9

Filename D:\tests\Duke Ellington - The Private Collection, Vol.6 (1987) [FLAC] (Studio Sessions, NY 1968)\09 - In A Sentimental Mood.wav

Pre-gap length 0:00:00.66

Peak level 66.4 %
Track quality 99.9 %
Test CRC 493131DE
Copy CRC 493131DE
Track not present in AccurateRip database
Copy OK

Track 10

Filename D:\tests\Duke Ellington - The Private Collection, Vol.6 (1987) [FLAC] (Studio Sessions, NY 1968)\10 - I Let A Song (Go Out Of My Heart), Don't Get Around Much Any More.wav

Pre-gap length 0:00:01.06

Peak level 86.6 %
Track quality 100.0 %
Test CRC 7AC47A2A
Copy CRC 7AC47A2A
Track not present in AccurateRip database
Copy OK

Track 11

Filename D:\tests\Duke Ellington - The Private Collection, Vol.6 (1987) [FLAC] (Studio Sessions, NY 1968)\11 - Reva.wav

Pre-gap length 0:00:00.86

Peak level 97.9 %
Track quality 100.0 %
Test CRC 9FE5C6E8
Copy CRC 9FE5C6E8
Track not present in AccurateRip database
Copy OK

Track 12

Filename D:\tests\Duke Ellington - The Private Collection, Vol.6 (1987) [FLAC] (Studio Sessions, NY 1968)\12 - Ortseam.wav

Pre-gap length 0:00:00.73

Peak level 89.1 %
Track quality 100.0 %
Test CRC 69585F57
Copy CRC 69585F57
Track not present in AccurateRip database
Copy OK

Track 13

Filename D:\tests\Duke Ellington - The Private Collection, Vol.6 (1987) [FLAC] (Studio Sessions, NY 1968)\13 - Cool And Groovy.wav

Pre-gap length 0:00:00.69

Peak level 87.0 %
Track quality 100.0 %
Test CRC 182ABD6F
Copy CRC 182ABD6F
Track not present in AccurateRip database
Copy OK

Track 14

Filename D:\tests\Duke Ellington - The Private Collection, Vol.6 (1987) [FLAC] (Studio Sessions, NY 1968)\14 - Elos.wav

Pre-gap length 0:00:00.66

Peak level 91.1 %
Track quality 100.0 %
Test CRC 7589268A
Copy CRC 7589268A
Track not present in AccurateRip database
Copy OK

Track 15

Filename D:\tests\Duke Ellington - The Private Collection, Vol.6 (1987) [FLAC] (Studio Sessions, NY 1968)\15 - C-Jam Blues.wav

Pre-gap length 0:00:00.97

Peak level 89.1 %
Track quality 100.0 %
Test CRC 02020FF1
Copy CRC 02020FF1
Track not present in AccurateRip database
Copy OK


None of the tracks are present in the AccurateRip database

No errors occurred

End of status report

[CUETools log; Date: 03.03.2020 21:01:05; Version: 2.1.4]
Pregap length 00:00:32.
[CTDB TOCID: 8ozSqXP5rFWHXBG2HawwBhObgaA-] found.
Track | CTDB Status
1 | (8/8) Accurately ripped
2 | (8/8) Accurately ripped
3 | (8/8) Accurately ripped
4 | (8/8) Accurately ripped
5 | (8/8) Accurately ripped
6 | (8/8) Accurately ripped
7 | (8/8) Accurately ripped
8 | (8/8) Accurately ripped
9 | (8/8) Accurately ripped
10 | (8/8) Accurately ripped
11 | (8/8) Accurately ripped
12 | (8/8) Accurately ripped
13 | (8/8) Accurately ripped
14 | (8/8) Accurately ripped
15 | (8/8) Accurately ripped
[AccurateRip ID: 001f46c8-0161ebd4-ca0e5c0f] found.
Track [ CRC | V2 ] Status
01 [42bba962|53e37224] (0+9/9) Accurately ripped
02 [f4913dab|40fbfbbf] (0+9/9) Accurately ripped
03 [eb02442f|c80d4c66] (0+9/9) Accurately ripped
04 [25c83636|e604afa7] (0+9/9) Accurately ripped
05 [5c8cd8bc|2e4dfc7d] (0+9/9) Accurately ripped
06 [fac892b0|5509800a] (0+9/9) Accurately ripped
07 [fbd07eb6|bada3c59] (0+9/9) Accurately ripped
08 [d23530bd|b94f653f] (0+9/9) Accurately ripped
09 [5ed34f33|8fbd53e2] (0+9/9) Accurately ripped
10 [b14aa8f1|fa4d5946] (0+9/9) Accurately ripped
11 [81c751a8|b9f0dca9] (0+9/9) Accurately ripped
12 [065d98b2|ad5544db] (0+9/9) Accurately ripped
13 [8602ad4b|2162d6bc] (0+9/9) Accurately ripped
14 [c34a6c9d|9fe70fc5] (0+9/9) Accurately ripped
15 [94762937|3599dad0] (0+9/9) Accurately ripped

Track Peak [ CRC32 ] [W/O NULL] [ LOG ]
– 97,9 [8070D69C] [19F25343]
01 81,4 [A8A826C0] [31A927DB] CRC32
02 89,1 [15C091B9] [988A0AEF] CRC32
03 86,9 [33F96973] [245B72F9] CRC32
04 89,1 [8E21A04D] [B6D9A730] CRC32
05 75,7 [FE85EA84] [F2309C66] CRC32
06 78,6 [9F74905A] [63CF8E0E] CRC32
07 81,3 [815CFBF4] [535DB87E] CRC32
08 83,0 [FEA44E2F] [450AB35B] CRC32
09 66,4 [493131DE] [FCB40D07] CRC32
10 86,6 [7AC47A2A] [F1378B46] CRC32
11 97,9 [9FE5C6E8] [64B25F93] CRC32
12 89,1 [69585F57] [7104DC6A] CRC32
13 87,0 [182ABD6F] [FCCBCBD7] CRC32
14 91,1 [7589268A] [B91BACB6] CRC32
15 89,1 [02020FF1] [76A7DB1B] CRC32

Duke Ellington - The Private Collection [10CD Box Set] (1996)

CD 7: Duke Ellington - The Private Collection Vol. 7: The Suites, New York 1968, 1970
EAC Rip | FLAC (tracks+.cue+log) - 339 MB | MP3 CBR 320 kbps (LAME 3.93) - 187 MB | Covers (19 MB) included
Genre: Jazz, Big Band | RAR 3% Rec. | Label: Kaz Records (KAZ CD 507)

Tracklist:
01. The Degas Suite
02. The River

Total time: 01:11:16

Exact Audio Copy V0.99 prebeta 4 from 23. January 2008

EAC extraction logfile from 20. February 2009, 8:42

Duke Ellington / The Private Collection, vol.7

Used drive : PLEXTOR DVD-ROM PX-116A2 Adapter: 0 ID: 1

Read mode : Secure
Utilize accurate stream : Yes
Defeat audio cache : Yes
Make use of C2 pointers : No

Read offset correction : 102
Overread into Lead-In and Lead-Out : No
Fill up missing offset samples with silence : Yes
Delete leading and trailing silent blocks : No
Null samples used in CRC calculations : Yes
Used interface : Installed external ASPI interface
Gap handling : Appended to previous track

Used output format : User Defined Encoder
Selected bitrate : 128 kBit/s
Quality : High
Add ID3 tag : No
Command line compressor : C:\Program Files\FLAC\flac.exe
Additional command line options : -8 -V -T "ARTIST=%a" -T "TITLE=%t" -T "ALBUM=%g" -T "DATE=%y" -T "TRACKNUMBER=%n" -T "GENRE=%m" -T "COMMENT=EAC FLAC -8" %s


TOC of the extracted CD

Track | Start | Length | Start sector | End sector
––––––––––––––––––––––––––––-
1 | 0:00.32 | 27:29.08 | 32 | 123714
2 | 27:29.40 | 43:47.07 | 123715 | 320746


Track 1

Filename C:\torrenting\Duke 7\01 - The Degas Suite.wav

Pre-gap length 0:00:02.42

Peak level 100.0 %
Track quality 100.0 %
Test CRC 410925B9
Copy CRC 410925B9
Track not present in AccurateRip database
Copy OK

Track 2

Filename C:\torrenting\Duke 7\02 - The River.wav

Pre-gap length 0:00:03.64

Peak level 85.7 %
Track quality 100.0 %
Test CRC CDDEA69F
Copy CRC CDDEA69F
Track not present in AccurateRip database
Copy OK


None of the tracks are present in the AccurateRip database

No errors occurred

End of status report

[CUETools log; Date: 03.03.2020 21:02:00; Version: 2.1.4]
Pregap length 00:00:32.
[CTDB TOCID: N8D9wLuWYTGs2Yv7rKm6rjf9GDw-] found.
Track | CTDB Status
1 | (10/10) Accurately ripped
2 | (10/10) Accurately ripped
[AccurateRip ID: 0006c84e-00127567-0f10b402] found.
Track [ CRC | V2 ] Status
01 [ad997afe|f9ab3302] (0+9/9) Accurately ripped
02 [9c28c158|b0c7f821] (0+9/9) Accurately ripped

Track Peak [ CRC32 ] [W/O NULL] [ LOG ]
– 100,0 [A174E49E] [05DA08F5]
01 100,0 [410925B9] [7553A83A] CRC32
02 85,7 [CDDEA69F] [4ADD0116] CRC32

Duke Ellington - The Private Collection [10CD Box Set] (1996)

CD 8: Duke Ellington - The Private Collection Vol. 8: Studio Sessions: New York, Chicago - 1965, 1966, 1971
EAC Rip | FLAC (tracks+.cue+log) - 361 MB | MP3 CBR 320 kbps (LAME 3.93) - 174 MB | Covers (18 MB) included
Genre: Jazz, Big Band | RAR 3% Rec. | Label: Kaz Records (KAZ CD 508)

Tracklist:
01. Black
02. Comes Sunday
03. Light
04. West Indian Dance
05. Emancipation Celebration
06. The Blues
07. Cy Runs Rock Waltz
08. Beige
09. Sugar Hill Penthouse
10. Harlem
11. Ad Lib On Nippon

Total time: 01:05:54

Exact Audio Copy V0.99 prebeta 4 from 23. January 2008

EAC extraction logfile from 27. February 2009, 8:07

Duke Ellington / The Private Collection Vol. 8

Used drive : PLEXTOR DVD-ROM PX-116A2 Adapter: 0 ID: 1

Read mode : Secure
Utilize accurate stream : Yes
Defeat audio cache : Yes
Make use of C2 pointers : No

Read offset correction : 102
Overread into Lead-In and Lead-Out : No
Fill up missing offset samples with silence : Yes
Delete leading and trailing silent blocks : No
Null samples used in CRC calculations : Yes
Used interface : Installed external ASPI interface
Gap handling : Appended to previous track

Used output format : User Defined Encoder
Selected bitrate : 128 kBit/s
Quality : High
Add ID3 tag : No
Command line compressor : C:\Program Files\FLAC\flac.exe
Additional command line options : -8 -V -T "ARTIST=%a" -T "TITLE=%t" -T "ALBUM=%g" -T "DATE=%y" -T "TRACKNUMBER=%n" -T "GENRE=%m" -T "COMMENT=EAC FLAC -8" %s


TOC of the extracted CD

Track | Start | Length | Start sector | End sector
––––––––––––––––––––––––––––-
1 | 0:00.32 | 8:11.20 | 32 | 36876
2 | 8:11.52 | 5:55.38 | 36877 | 63539
3 | 14:07.15 | 6:26.12 | 63540 | 92501
4 | 20:33.27 | 2:16.20 | 92502 | 102721
5 | 22:49.47 | 2:37.10 | 102722 | 114506
6 | 25:26.57 | 5:24.40 | 114507 | 138846
7 | 30:51.22 | 2:19.65 | 138847 | 149336
8 | 33:11.12 | 2:24.03 | 149337 | 160139
9 | 35:35.15 | 4:56.70 | 160140 | 182409
10 | 40:32.10 | 13:42.60 | 182410 | 244119
11 | 54:14.70 | 11:39.50 | 244120 | 296594


Track 1

Filename D:\temp\Duke Ellington 8\01 - Black.wav

Pre-gap length 0:00:02.42

Peak level 85.1 %
Track quality 100.0 %
Test CRC 00B8B20E
Copy CRC 00B8B20E
Track not present in AccurateRip database
Copy OK

Track 2

Filename D:\temp\Duke Ellington 8\02 - Comes Sunday.wav

Pre-gap length 0:00:01.96

Peak level 45.6 %
Track quality 100.0 %
Test CRC 1C7772B8
Copy CRC 1C7772B8
Track not present in AccurateRip database
Copy OK

Track 3

Filename D:\temp\Duke Ellington 8\03 - Light.wav

Pre-gap length 0:00:01.33

Peak level 84.7 %
Track quality 99.9 %
Test CRC A6CDB1E8
Copy CRC A6CDB1E8
Track not present in AccurateRip database
Copy OK

Track 4

Filename D:\temp\Duke Ellington 8\04 - West Indian Dance.wav

Pre-gap length 0:00:00.49

Peak level 64.9 %
Track quality 100.0 %
Test CRC C432CF32
Copy CRC C432CF32
Track not present in AccurateRip database
Copy OK

Track 5

Filename D:\temp\Duke Ellington 8\05 - Emancipation Celebration.wav

Pre-gap length 0:00:00.60

Peak level 59.5 %
Track quality 100.0 %
Test CRC 9CD7A34E
Copy CRC 9CD7A34E
Track not present in AccurateRip database
Copy OK

Track 6

Filename D:\temp\Duke Ellington 8\06 - The Blues.wav

Pre-gap length 0:00:00.62

Peak level 85.1 %
Track quality 100.0 %
Test CRC EF3FB4B0
Copy CRC EF3FB4B0
Track not present in AccurateRip database
Copy OK

Track 7

Filename D:\temp\Duke Ellington 8\07 - Cy Runs Rock Waltz.wav

Pre-gap length 0:00:01.13

Peak level 80.7 %
Track quality 100.0 %
Test CRC 86601E3C
Copy CRC 86601E3C
Track not present in AccurateRip database
Copy OK

Track 8

Filename D:\temp\Duke Ellington 8\08 - Beige.wav

Pre-gap length 0:00:01.36

Peak level 80.8 %
Track quality 100.0 %
Test CRC E5E7B9B3
Copy CRC E5E7B9B3
Track not present in AccurateRip database
Copy OK

Track 9

Filename D:\temp\Duke Ellington 8\09 - Sugar Hill Penthouse.wav

Peak level 80.9 %
Track quality 100.0 %
Test CRC 11519B14
Copy CRC 11519B14
Track not present in AccurateRip database
Copy OK

Track 10

Filename D:\temp\Duke Ellington 8\10 - Harlem.wav

Pre-gap length 0:00:00.50

Peak level 85.1 %
Track quality 100.0 %
Test CRC 3512D268
Copy CRC 3512D268
Track not present in AccurateRip database
Copy OK

Track 11

Filename D:\temp\Duke Ellington 8\11 - Ad Lib On Nippon.wav

Pre-gap length 0:00:00.86

Peak level 69.3 %
Track quality 99.9 %
Test CRC 7FE96D84
Copy CRC 7FE96D84
Track not present in AccurateRip database
Copy OK


None of the tracks are present in the AccurateRip database

No errors occurred

End of status report

[CUETools log; Date: 03.03.2020 21:02:31; Version: 2.1.4]
Pregap length 00:00:32.
[CTDB TOCID: 8w8GhPMdrZqqmAsO1LESeQslz7I-] found.
Track | CTDB Status
1 | (9/9) Accurately ripped
2 | (9/9) Accurately ripped
3 | (9/9) Accurately ripped
4 | (9/9) Accurately ripped
5 | (9/9) Accurately ripped
6 | (9/9) Accurately ripped
7 | (9/9) Accurately ripped
8 | (9/9) Accurately ripped
9 | (9/9) Accurately ripped
10 | (9/9) Accurately ripped
11 | (9/9) Accurately ripped
[AccurateRip ID: 0018223d-00ce2b57-9f0f720b] found.
Track [ CRC | V2 ] Status
01 [4788ec16|0fb8e46a] (0+7/7) Accurately ripped
02 [497f0fc9|60d28f46] (0+7/7) Accurately ripped
03 [f82d8cf4|1e9e7ea4] (0+7/7) Accurately ripped
04 [bbc9c279|22231913] (0+7/7) Accurately ripped
05 [0a6509a3|d315c27a] (0+7/7) Accurately ripped
06 [a33e2b70|26e26f47] (0+7/7) Accurately ripped
07 [f3295ffa|548ced6a] (0+7/7) Accurately ripped
08 [9758c05b|f13121a0] (0+7/7) Accurately ripped
09 [2d2d4346|d090c19f] (0+7/7) Accurately ripped
10 [2656f27b|6f40f036] (0+7/7) Accurately ripped
11 [9876c4a7|037ecbf5] (0+6/6) Accurately ripped

Track Peak [ CRC32 ] [W/O NULL] [ LOG ]
– 85,1 [90C9E6CD] [F065E3B8]
01 85,1 [00B8B20E] [65B11263] CRC32
02 45,6 [1C7772B8] [F52D592C] CRC32
03 84,7 [A6CDB1E8] [90862825] CRC32
04 64,9 [C432CF32] [8646D5C8] CRC32
05 59,5 [9CD7A34E] [CD54FD1E] CRC32
06 85,1 [EF3FB4B0] [4E23CE57] CRC32
07 80,7 [86601E3C] [155A25CD] CRC32
08 80,8 [E5E7B9B3] [B6C4BBB8] CRC32
09 80,9 [11519B14] [9634A008] CRC32
10 85,1 [3512D268] [EF0FDC41] CRC32
11 69,3 [7FE96D84] [5A79FF9C] CRC32

Duke Ellington - The Private Collection [10CD Box Set] (1996)

CD 9: Duke Ellington - The Private Collection Vol. 9: Dance Dates, California 1958
EAC Rip | FLAC (tracks+.cue+log) - 434 MB | MP3 CBR 320 kbps (LAME 3.93) - 181 MB | Covers (14 MB) included
Genre: Jazz, Big Band | RAR 3% Rec. | Label: Kaz Records (KAZ CD 509)

Tracklist:
01. Main Stem
02. Dancing In The Dark
03. Stompy Jones
04. Time On My Hands
05. Stompin' At The Savoy
06. Sophisticated Lady
07. Take The 'A' Train (Instrumental)
08. All Heart
09. Just A-Settin' And A-Rockin'
10. Take The 'A' Train (Vocal)
11. Where Or When
12. The Mooche
13. One O'Clock Jump
14. Autumn Leaves
15. Oh, Lady Be Good
16. Things Ain't What They Used To Be

Total time: 01:10:44

Exact Audio Copy V0.99 prebeta 4 from 23. January 2008

EAC extraction logfile from 18. April 2009, 11:13

Duke Ellington / The Private Collection CD09

Used drive : PLEXTOR DVD-ROM PX-116A2 Adapter: 0 ID: 1

Read mode : Secure
Utilize accurate stream : Yes
Defeat audio cache : Yes
Make use of C2 pointers : No

Read offset correction : 102
Overread into Lead-In and Lead-Out : No
Fill up missing offset samples with silence : Yes
Delete leading and trailing silent blocks : No
Null samples used in CRC calculations : Yes
Used interface : Installed external ASPI interface
Gap handling : Appended to previous track

Used output format : User Defined Encoder
Selected bitrate : 128 kBit/s
Quality : High
Add ID3 tag : No
Command line compressor : C:\Program Files\FLAC\flac.exe
Additional command line options : -8 -V -T "ARTIST=%a" -T "TITLE=%t" -T "ALBUM=%g" -T "DATE=%y" -T "TRACKNUMBER=%n" -T "GENRE=%m" -T "COMMENT=EAC FLAC -8" %s


TOC of the extracted CD

Track | Start | Length | Start sector | End sector
––––––––––––––––––––––––––––-
1 | 0:00.32 | 3:26.73 | 32 | 15554
2 | 3:27.30 | 4:22.37 | 15555 | 35241
3 | 7:49.67 | 3:36.28 | 35242 | 51469
4 | 11:26.20 | 4:36.35 | 51470 | 72204
5 | 16:02.55 | 5:29.40 | 72205 | 96919
6 | 21:32.20 | 3:44.05 | 96920 | 113724
7 | 25:16.25 | 4:27.30 | 113725 | 133779
8 | 29:43.55 | 3:46.15 | 133780 | 150744
9 | 33:29.70 | 4:15.37 | 150745 | 169906
10 | 37:45.32 | 3:53.48 | 169907 | 187429
11 | 41:39.05 | 4:28.65 | 187430 | 207594
12 | 46:07.70 | 5:42.07 | 207595 | 233251
13 | 51:50.02 | 6:10.18 | 233252 | 261019
14 | 58:00.20 | 6:47.65 | 261020 | 291609
15 | 64:48.10 | 4:20.42 | 291610 | 311151
16 | 69:08.52 | 1:35.35 | 311152 | 318311


Track 1

Filename D:\temp\Duke 9\01 - Main Stem.wav

Pre-gap length 0:00:02.42

Peak level 99.8 %
Track quality 100.0 %
Test CRC A81D0A52
Copy CRC A81D0A52
Track not present in AccurateRip database
Copy OK

Track 2

Filename D:\temp\Duke 9\02 - Dancing In The Dark.wav

Peak level 93.4 %
Track quality 100.0 %
Test CRC 51F3A8B4
Copy CRC 51F3A8B4
Track not present in AccurateRip database
Copy OK

Track 3

Filename D:\temp\Duke 9\03 - Stompy Jones.wav

Peak level 99.7 %
Track quality 100.0 %
Test CRC FE4CDD1C
Copy CRC FE4CDD1C
Track not present in AccurateRip database
Copy OK

Track 4

Filename D:\temp\Duke 9\04 - Time On My Hands.wav

Peak level 61.1 %
Track quality 100.0 %
Test CRC B047E1D9
Copy CRC B047E1D9
Track not present in AccurateRip database
Copy OK

Track 5

Filename D:\temp\Duke 9\05 - Stompin' At The Savoy.wav

Peak level 99.8 %
Track quality 100.0 %
Test CRC C6DA65C4
Copy CRC C6DA65C4
Track not present in AccurateRip database
Copy OK

Track 6

Filename D:\temp\Duke 9\06 - Sophisticated Lady.wav

Peak level 71.3 %
Track quality 100.0 %
Test CRC 1802C568
Copy CRC 1802C568
Track not present in AccurateRip database
Copy OK

Track 7

Filename D:\temp\Duke 9\07 - Take The A Train-Instrumental.wav

Pre-gap length 0:00:00.73

Peak level 96.5 %
Track quality 100.0 %
Test CRC 568374D6
Copy CRC 568374D6
Track not present in AccurateRip database
Copy OK

Track 8

Filename D:\temp\Duke 9\08 - All Heart.wav

Peak level 89.3 %
Track quality 100.0 %
Test CRC 820BCBC7
Copy CRC 820BCBC7
Track not present in AccurateRip database
Copy OK

Track 9

Filename D:\temp\Duke 9\09 - Just A-Settin' & A Rockin'.wav

Peak level 99.8 %
Track quality 100.0 %
Test CRC 7EA046E4
Copy CRC 7EA046E4
Track not present in AccurateRip database
Copy OK

Track 10

Filename D:\temp\Duke 9\10 - Take The A Train-Vocal.wav

Peak level 99.6 %
Track quality 100.0 %
Test CRC B53B78C5
Copy CRC B53B78C5
Track not present in AccurateRip database
Copy OK

Track 11

Filename D:\temp\Duke 9\11 - Where Or When.wav

Peak level 67.1 %
Track quality 100.0 %
Test CRC 1ED5D5E2
Copy CRC 1ED5D5E2
Track not present in AccurateRip database
Copy OK

Track 12

Filename D:\temp\Duke 9\12 - The Mooche.wav

Peak level 99.4 %
Track quality 100.0 %
Test CRC 06D24F50
Copy CRC 06D24F50
Track not present in AccurateRip database
Copy OK

Track 13

Filename D:\temp\Duke 9\13 - One O'Clock Jump.wav

Peak level 97.5 %
Track quality 99.9 %
Test CRC D51D99B4
Copy CRC D51D99B4
Track not present in AccurateRip database
Copy OK

Track 14

Filename D:\temp\Duke 9\14 - Autumn Leaves.wav

Peak level 77.7 %
Track quality 100.0 %
Test CRC EB1058CB
Copy CRC EB1058CB
Track not present in AccurateRip database
Copy OK

Track 15

Filename D:\temp\Duke 9\15 - Oh Lady Be Good.wav

Peak level 98.0 %
Track quality 100.0 %
Test CRC 9299D823
Copy CRC 9299D823
Track not present in AccurateRip database
Copy OK

Track 16

Filename D:\temp\Duke 9\16 - Things Ain'T What They Used To Be.wav

Peak level 99.8 %
Track quality 100.0 %
Test CRC FC26A35F
Copy CRC FC26A35F
Track not present in AccurateRip database
Copy OK


None of the tracks are present in the AccurateRip database

No errors occurred

End of status report

[CUETools log; Date: 03.03.2020 21:03:03; Version: 2.1.4]
Pregap length 00:00:32.
[CTDB TOCID: q8nUHvL6zlNzbO0LZDoU_cfWd9c-] found.
Track | CTDB Status
1 | (10/10) Accurately ripped
2 | (10/10) Accurately ripped
3 | (10/10) Accurately ripped
4 | (10/10) Accurately ripped
5 | ( 9/10) Accurately ripped
6 | ( 9/10) Accurately ripped
7 | ( 9/10) Accurately ripped
8 | (10/10) Accurately ripped
9 | (10/10) Accurately ripped
10 | ( 9/10) Accurately ripped
11 | ( 9/10) Accurately ripped
12 | ( 9/10) Accurately ripped
13 | ( 9/10) Accurately ripped
14 | ( 9/10) Accurately ripped
15 | (10/10) Accurately ripped
16 | (10/10) Accurately ripped
[AccurateRip ID: 00286f60-01eb7f07-e1109410] found.
Track [ CRC | V2 ] Status
01 [0153045b|a0df0a73] (00+09/09) Accurately ripped
02 [ef828d24|ccc4ffb0] (00+09/09) Accurately ripped
03 [d5859476|dc7f9266] (00+09/09) Accurately ripped
04 [0b10a2c1|a720d113] (00+09/09) Accurately ripped
05 [61f75bb0|216879e2] (00+09/09) Accurately ripped
06 [f6d525e3|48ba4a5b] (00+09/09) Accurately ripped
07 [9c489afd|8d8b9abe] (00+09/09) Accurately ripped
08 [5ce995ce|feb54852] (00+09/09) Accurately ripped
09 [e2bae42f|f60c4534] (00+09/09) Accurately ripped
10 [1738d1d4|80322b83] (00+09/09) Accurately ripped
11 [63203d38|5c82c30e] (00+09/09) Accurately ripped
12 [22817890|a9754086] (00+07/07) Accurately ripped
13 [cd2de7d0|09cf412a] (00+08/08) Accurately ripped
14 [c7a90e4b|121dfab9] (00+08/08) Accurately ripped
15 [1c3ab85a|72beea2a] (00+10/10) Accurately ripped
16 [b1d9978a|3f3051cf] (00+09/09) Accurately ripped

Track Peak [ CRC32 ] [W/O NULL] [ LOG ]
– 99,8 [BF16AF00] [2176C459]
01 99,8 [A81D0A52] [7EF585EC] CRC32
02 93,4 [51F3A8B4] [44214EE2] CRC32
03 99,7 [FE4CDD1C] [D7BB88A8] CRC32
04 61,1 [B047E1D9] [569F9497] CRC32
05 99,8 [C6DA65C4] [F14F0475] CRC32
06 71,3 [1802C568] [5EDED792] CRC32
07 96,5 [568374D6] [A9A947E3] CRC32
08 89,3 [820BCBC7] [7F6A8989] CRC32
09 99,8 [7EA046E4] [B5C73639] CRC32
10 99,6 [B53B78C5] [90EB666F] CRC32
11 67,1 [1ED5D5E2] [7F758A32] CRC32
12 99,4 [06D24F50] [BB8E8690] CRC32
13 97,5 [D51D99B4] [6D243C01] CRC32
14 77,7 [EB1058CB] [C8F20DF5] CRC32
15 98,0 [9299D823] [5537FA7A] CRC32
16 99,8 [FC26A35F] [8830F9C4] CRC32

Duke Ellington - The Private Collection [10CD Box Set] (1996)

CD 10: Duke Ellington - The Private Collection Vol. 10: Dance Dates, California 1958
EAC Rip | FLAC (tracks+.cue+log) - 394 MB | MP3 CBR 320 kbps (LAME 3.93) - 176 MB | Covers (13 MB) included
Genre: Jazz, Big Band | RAR 3% Rec. | Label: Kaz Records (KAZ CD 510)

Tracklist:
01. Such Sweet Thunder
02. The Blues To Be There
03. Juniflip
04. The Star-Crossed Lovers
05. Together
06. California Mello
07. Suburban Beauty
08. C Jam Blues
09. Blue In Orbit
10. Mood Indigo
11. Honeysuckle Rose
12. Willow Weep For Me
13. Caravan
14. Wailing Interval

Total time: 01:08:49

Exact Audio Copy V0.99 prebeta 4 from 23. January 2008

EAC extraction logfile from 27. May 2009, 21:26

Duke Ellington / The Private Collection CD10

Used drive : PLEXTOR DVD-ROM PX-116A2 Adapter: 0 ID: 1

Read mode : Secure
Utilize accurate stream : Yes
Defeat audio cache : Yes
Make use of C2 pointers : No

Read offset correction : 102
Overread into Lead-In and Lead-Out : No
Fill up missing offset samples with silence : Yes
Delete leading and trailing silent blocks : No
Null samples used in CRC calculations : Yes
Used interface : Installed external ASPI interface
Gap handling : Appended to previous track

Used output format : User Defined Encoder
Selected bitrate : 128 kBit/s
Quality : High
Add ID3 tag : No
Command line compressor : C:\Program Files\FLAC\flac.exe
Additional command line options : -8 -V -T "ARTIST=%a" -T "TITLE=%t" -T "ALBUM=%g" -T "DATE=%y" -T "TRACKNUMBER=%n" -T "GENRE=%m" -T "COMMENT=EAC FLAC -8" %s


TOC of the extracted CD

Track | Start | Length | Start sector | End sector
––––––––––––––––––––––––––––-
1 | 0:00.32 | 2:42.00 | 32 | 12181
2 | 2:42.32 | 6:59.45 | 12182 | 43651
3 | 9:42.02 | 4:05.58 | 43652 | 62084
4 | 13:47.60 | 4:09.40 | 62085 | 80799
5 | 17:57.25 | 4:11.35 | 80800 | 99659
6 | 22:08.60 | 3:39.02 | 99660 | 116086
7 | 25:47.62 | 3:43.43 | 116087 | 132854
8 | 29:31.30 | 6:33.20 | 132855 | 162349
9 | 36:04.50 | 5:03.37 | 162350 | 185111
10 | 41:08.12 | 8:09.48 | 185112 | 221834
11 | 49:17.60 | 4:34.12 | 221835 | 242396
12 | 53:51.72 | 3:37.63 | 242397 | 258734
13 | 57:29.60 | 7:39.45 | 258735 | 293204
14 | 65:09.30 | 3:39.70 | 293205 | 309699


Track 1

Filename D:\tests\Duke Ellington - The Private Collection vol 10\01 - Such Sweet Thunder.wav

Pre-gap length 0:00:02.42

Peak level 95.7 %
Track quality 100.0 %
Test CRC C9A03F35
Copy CRC C9A03F35
Track not present in AccurateRip database
Copy OK

Track 2

Filename D:\tests\Duke Ellington - The Private Collection vol 10\02 - The Blues To Be There.wav

Pre-gap length 0:00:00.89

Peak level 80.8 %
Track quality 100.0 %
Test CRC AC212848
Copy CRC AC212848
Track not present in AccurateRip database
Copy OK

Track 3

Filename D:\tests\Duke Ellington - The Private Collection vol 10\03 - Juniflip.wav

Pre-gap length 0:00:01.56

Peak level 76.6 %
Track quality 100.0 %
Test CRC 171A6F22
Copy CRC 171A6F22
Track not present in AccurateRip database
Copy OK

Track 4

Filename D:\tests\Duke Ellington - The Private Collection vol 10\04 - The Star-Crossed Lovers.wav

Pre-gap length 0:00:01.44

Peak level 38.3 %
Track quality 100.0 %
Test CRC 387F3CF0
Copy CRC 387F3CF0
Track not present in AccurateRip database
Copy OK

Track 5

Filename D:\tests\Duke Ellington - The Private Collection vol 10\05 - Together.wav

Peak level 94.1 %
Track quality 100.0 %
Test CRC F33574E4
Copy CRC F33574E4
Track not present in AccurateRip database
Copy OK

Track 6

Filename D:\tests\Duke Ellington - The Private Collection vol 10\06 - California Mello.wav

Peak level 82.2 %
Track quality 100.0 %
Test CRC 2E5BE2E5
Copy CRC 2E5BE2E5
Track not present in AccurateRip database
Copy OK

Track 7

Filename D:\tests\Duke Ellington - The Private Collection vol 10\07 - Suburban Beauty.wav

Pre-gap length 0:00:01.09

Peak level 72.6 %
Track quality 100.0 %
Test CRC B29786EF
Copy CRC B29786EF
Track not present in AccurateRip database
Copy OK

Track 8

Filename D:\tests\Duke Ellington - The Private Collection vol 10\08 - C Jam Blues.wav

Pre-gap length 0:00:01.50

Peak level 97.7 %
Track quality 100.0 %
Test CRC 3DE62143
Copy CRC 3DE62143
Track not present in AccurateRip database
Copy OK

Track 9

Filename D:\tests\Duke Ellington - The Private Collection vol 10\09 - Blue in Orbit.wav

Pre-gap length 0:00:01.06

Peak level 57.0 %
Track quality 99.9 %
Test CRC 6E65456A
Copy CRC 6E65456A
Track not present in AccurateRip database
Copy OK

Track 10

Filename D:\tests\Duke Ellington - The Private Collection vol 10\10 - Mood Indigo.wav

Pre-gap length 0:00:00.86

Peak level 97.7 %
Track quality 100.0 %
Test CRC 06830F79
Copy CRC 06830F79
Track not present in AccurateRip database
Copy OK

Track 11

Filename D:\tests\Duke Ellington - The Private Collection vol 10\11 - Honeysuckle Rose.wav

Pre-gap length 0:00:00.77

Peak level 97.7 %
Track quality 100.0 %
Test CRC 04D9DF8C
Copy CRC 04D9DF8C
Track not present in AccurateRip database
Copy OK

Track 12

Filename D:\tests\Duke Ellington - The Private Collection vol 10\12 - Willow Weep For Me.wav

Pre-gap length 0:00:01.69

Peak level 49.7 %
Track quality 99.9 %
Test CRC 3FC11193
Copy CRC 3FC11193
Track not present in AccurateRip database
Copy OK

Track 13

Filename D:\tests\Duke Ellington - The Private Collection vol 10\13 - Caravan.wav

Peak level 97.2 %
Track quality 99.9 %
Test CRC F09FBB69
Copy CRC F09FBB69
Track not present in AccurateRip database
Copy OK

Track 14

Filename D:\tests\Duke Ellington - The Private Collection vol 10\14 - Wailing Interval.wav

Peak level 85.6 %
Track quality 100.0 %
Test CRC 4702FAF2
Copy CRC 4702FAF2
Track not present in AccurateRip database
Copy OK


None of the tracks are present in the AccurateRip database

No errors occurred

End of status report

[CUETools log; Date: 03.03.2020 21:03:32; Version: 2.1.4]
Pregap length 00:00:32.
[CTDB TOCID: kS19bPZ5xyRPDouBEsAmWkEheC4-] found.
Track | CTDB Status
1 | (7/7) Accurately ripped
2 | (7/7) Accurately ripped
3 | (7/7) Accurately ripped
4 | (7/7) Accurately ripped
5 | (7/7) Accurately ripped
6 | (7/7) Accurately ripped
7 | (7/7) Accurately ripped
8 | (7/7) Accurately ripped
9 | (7/7) Accurately ripped
10 | (7/7) Accurately ripped
11 | (7/7) Accurately ripped
12 | (7/7) Accurately ripped
13 | (7/7) Accurately ripped
14 | (7/7) Accurately ripped
[AccurateRip ID: 0021e28f-016f11b5-c910210e] found.
Track [ CRC | V2 ] Status
01 [aa5e690d|24bf9cee] (0+7/7) Accurately ripped
02 [28b74e2b|5e30fe98] (0+7/7) Accurately ripped
03 [cbcc505b|3b7c276c] (0+7/7) Accurately ripped
04 [af4bccf4|180ab470] (0+7/7) Accurately ripped
05 [e11c47b0|b4ba74da] (0+7/7) Accurately ripped
06 [5d266579|b6affb77] (0+7/7) Accurately ripped
07 [50d4c17d|55e2779c] (0+7/7) Accurately ripped
08 [9549938f|0bb9dfb5] (0+7/7) Accurately ripped
09 [8010420a|4f2287e0] (0+7/7) Accurately ripped
10 [50441899|1535f0ee] (0+7/7) Accurately ripped
11 [722a0088|306c6690] (0+7/7) Accurately ripped
12 [e8a6505f|fdfdf69f] (0+7/7) Accurately ripped
13 [0c32c657|ea654279] (0+7/7) Accurately ripped
14 [4bcb9971|8eb3052f] (0+7/7) Accurately ripped

Track Peak [ CRC32 ] [W/O NULL] [ LOG ]
– 97,7 [81A65115] [DCA17EE1]
01 95,7 [C9A03F35] [4CA58D7C] CRC32
02 80,8 [AC212848] [851EFD09] CRC32
03 76,6 [171A6F22] [479EF70C] CRC32
04 38,3 [387F3CF0] [931624FD] CRC32
05 94,1 [F33574E4] [2EE80272] CRC32
06 82,2 [2E5BE2E5] [17F1D7BC] CRC32
07 72,6 [B29786EF] [837AEA27] CRC32
08 97,7 [3DE62143] [3231EA3E] CRC32
09 57,0 [6E65456A] [648FFA63] CRC32
10 97,7 [06830F79] [C60D493A] CRC32
11 97,7 [04D9DF8C] [B7DE845B] CRC32
12 49,7 [3FC11193] [5A22F2AE] CRC32
13 97,2 [F09FBB69] [A7A75316] CRC32
14 85,6 [4702FAF2] [E5D04F75] CRC32

Thanks to the original releaser

See also:
Duke Ellington - Duke Ellington at the Bal Masque (1958)
Duke Ellington and His Orchest...nd Beige (1958) [Reissue 1999]
Duke Ellington - Jazz Party (1959)
Duke Ellington & Johnny Ho... By Side (1959) [Reissue 1999]
Duke Ellington And His Orchest...amp; 2 / Suite Thursday (1960)
Duke Ellington - Blues In Orbit (1960) [Reissue 2009]
Duke Ellington & John Colt...Coltrane (1963) [Reissue 2010]
Duke Ellington & Coleman H... Hawkins (1963) [Reissue 2010]
Duke Ellington - Soul Call (1967) [Reissue 1999]
Duke Ellington - The Popular Duke Ellington (1967) [Reissue 2002]
Duke Ellington - Orchestral Works (1970) [Reissue 1989]
Duke Ellington - The Afro-Eurasian Eclipse (1971)
Duke Ellington - Love You Madly (1974) [Reissue 2002]
Duke Ellington - Recollections...Band Era (1974) [Reissue 2012]
Duke Ellington - The Best of Duke Ellington (1980) [Reissue 1991]
Ella Fitzgerald & Duke Ell...Stockholm Concert, 1966 (1984)
Duke Ellington and His Orchestra - Harlem [Recorded 1964] (1985)
Duke Ellington - In the Uncommon Market [Recorded 1963-1966] (1986)
Duke Ellington - Great Original Performances 1927-1934 (1986)
The Duke Ellington Small Bands - The Intimacy Of The Blues (1986)
Duke Ellington - Compact Jazz:...ds [Recorded 1953-1966] (1987)
Duke Ellington - Swing 1930 to 1938 (1989)
Duke Ellington and His Orchestra - Early Ellington (1927-1934) (1989)
Duke Ellington - 40 Great Jazz Performances [3CD] (1990)
Duke Ellington and His Orchestra - 1927-1928 (1990)
Duke Ellington and His Orchestra - 1928 (1990)
Duke Ellington and His Orchestra - 1928-1929 (1990)
Duke Ellington and His Orchestra - 1929-1930 (1991)
Duke Ellington - Standards: Li... Pleyel [Recorded 1969] (1991)
Duke Ellington - Never-Before-Released Recordings (1965-1972) (1991)
Duke Ellington & His Orche...irthday, Duke! Vol. 1-5 (1992)
Duke Ellington - Best Of Duke Ellington (1992)
Duke Ellington and His Orchestra - 1932-1933 (1992)
Duke Ellington and His Orchestra - 1933 (1992)
Duke Ellington & Ella Fitz...oncerto [Recorded 1966] (1993)
Duke Ellington and His Orchestra - 1937 Vol. 2 (1993)
Duke Ellington and His Orchestra - 1938 (1993)
Duke Ellington and His Orchestra - 1938 Vol. 3 (1993)
Duke Ellington and His Orchestra - 1939 (1994)
Duke Ellington and His Orchestra - 1939 Vol. 2 (1994)
Duke Ellington - Live in Europ...gerald) [Recorded 1967] (1994)
Duke Ellington - Le Jazz de A à Z [Recorded 1940-1945] (1994)
Duke Ellington - Duke Ellingto...ts [Recorded 1932-1959] (1995)
Duke Ellington - Cornell University [Recorded 1948] (1995)
Duke Ellington - New York Concert [Recorded 1964] (1995)
Duke Ellington and His Orchestra - 1940 (1995)
Duke Ellington and His Orchestra - 1940 Vol. 2 (1995)
Duke Ellington and His Orchestra - 1941 (1995)
Duke Ellington and His Orchestra - 1942-1944 (1996)
Duke Ellington and His Orchestra - 1944-1945 (1996)
Duke Ellington and His Orchestra - 1945 (1996)
Duke Ellington - This Is Jazz [Recorded 1927-1959] (1996)
Duke Ellington - Sophisticated Lady [Recorded 1940-1946] (1996)
Duke Ellington and His Orchestra - 1945 Vol. 2 (1997)
Duke Ellington - Jazz Masters 1953-1955 (1997)
Duke Ellington - Jazz Profile [Recorded 1953-1971] (1997)
Duke Ellington - Mellow (1997)
Duke Ellington and His Orchestra - 1945-1946 (1998)
Duke Ellington - This Is Jazz ...ds [Recorded 1935-1964] (1998)
Duke Ellington - Live in Mexico [Recorded 1968] (1998)
Duke Ellington - The Duke in Washington [Recorded 1943-1969] (1999)
Duke Ellington - Masterpieces 1926-1949 [4CD Box Set] (2001)
Duke Ellington - Love Songs [Recorded 1941-1963] (2001)
Duke Ellington - At The Alhambra [Recorded 1958] (2002)
Duke Ellington - Alhambra - Oct. 29th, 1958 [2CD] (2002)
Duke Ellington - Never No Lame...1940-1942, 3CD Box Set] (2003)
Duke Ellington - The Essential...on [Recorded 1927-1960] (2005)
Duke Ellington And His Orchest...h, Switzerland 2.5.1950 (2007)
Duke Ellington - The Best Of D...932-1939) [4CD Box Set] (2008)
Duke Ellington - Columbia Jazz Profiles [Recorded 1931-1960] (2008)
Duke Ellington - Live in Warsaw October 30, 1971 (2009)
Duke Ellington Orchestra - Big...tuttgart, March 6, 1967 (2011)
Duke Ellington - Blue Note Jaz...on [Recorded 1953-1969] (2012)
Duke Ellington - The Complete Newport 1958 Performances (2014)