Tags
Language
Tags
June 2024
Su Mo Tu We Th Fr Sa
26 27 28 29 30 31 1
2 3 4 5 6 7 8
9 10 11 12 13 14 15
16 17 18 19 20 21 22
23 24 25 26 27 28 29
30 1 2 3 4 5 6

Earl Klugh - Move (1994) {Warner}

Posted By: tiburon
Earl Klugh - Move (1994) {Warner}

Earl Klugh - Move (1994) {Warner}
EAC 0.95b3 | FLAC tracks level 8 | Cue+Log+M3U | Full Scans 300dpi | 326MB + 5% Recovery
MP3 CBR 320 Kbps | 135MB + 5% Recovery
Genre: Smooth Jazz, Jazz-Funk, Fusion

If there's any mystery about how to sustain an instrumental career over nearly two decades, just ask Earl Klugh for the solution. Judging from the well-traveled acoustic guitarist's body of work, it seems to lie in staying true to a certain sweet sound but continually changing the rhythmic and production trappings. After a few ambitious jaunts into the orchestral realm, Klugh on Move shakes up the formula with a mixed bag of logical twists: exotic percussion, African chant vocals, odd vocal effects, swinging rock-blues, and urban-flavored grooves. The result is an inspired new freshness. While sticking to his slick, melodic string style, Klugh infuses more aggressive energy into the pot. A few times, he even lets a harmonica and sax take the lead voice. Klugh's warm flavors have never gone out of style, but it's nice to get a visit from an old friend bearing new and unique gifts.
Track List
1 Across the Sand
2 Move
3 Far from Home
4 Tiptoe'in
5 Nightwalk
6 Face in the Wind
7 Big Turtle River
8 Highway Song
9 Winter Rain
10 Doin' It
11 Across the Sand, Pt. 2

musicians
Earl Klugh - guitar, mandolins and keyboards, organ
Greg Phillinganes - synthesizer bass and keyboards
Gene Dunlap - drums & percussion
Lorenzo"Spoons"Brown - percussion
Lawrense Fratangelo - percussion
David Spradley - piano
Albert Duncan - keyboards
Raymond Manzerolle - sax,wind controller
Ralphe Armstrong - bass
Jimmy Ali - bass
Chuck Silva - electric guitar
Perry Hughes - rhythm guitar
Randy Jacobs - rhythm guitar
Key Bullard, Eddy Bullard,D'Way Whitehead, Kymberli Wright, Kimme Horne - vocals
Kayla Parker, Parkes Stewart,Mary Thomas - additional vocals
Commissioned (Fred Hammond, Mitchell Jones, Karl Reid,Marvin Sapp) - vocals
Fred Hammond - vocal arrangement

Produced by Earl Klugh


EAC extraction logfile from 19. August 2007, 18:22 for CD
Earl Klugh / Move

Used drive : PLEXTOR DVDR PX-716A Adapter: 2 ID: 0
Read mode : Secure with NO C2, accurate stream, disable cache
Read offset correction : 30
Overread into Lead-In and Lead-Out : No

Used output format : C:\Programmi\Exact Audio Copy\flac-1.1.2-win\bin\flac.exe (User Defined Encoder)
32 kBit/s
Additional command line options : -8 -V -T "artist=%a" -T "title=%t" -T "album=%g" -T "date=%y" -T "tracknumber=%n" -T "genre=%m" -T "comment=Exact Audio Copy 0.95 b3 Secure Mode / FLAC q8 v. 1.1.2" %s

Other options :
Fill up missing offset samples with silence : Yes
Delete leading and trailing silent blocks : No
Installed external ASPI interface


Track 1
Filename F:\[MyRip]\01 - Across The Sand.wav

Pre-gap length 0:00:02.00

Peak level 95.9 %
Track quality 100.0 %
Test CRC C834CF7B
Copy CRC C834CF7B
Copy OK

Track 2
Filename F:\[MyRip]\02 - Move.wav

Peak level 99.6 %
Track quality 100.0 %
Test CRC 87D17336
Copy CRC 87D17336
Copy OK

Track 3
Filename F:\[MyRip]\03 - Far From Home.wav

Pre-gap length 0:00:00.50

Peak level 96.4 %
Track quality 100.0 %
Test CRC 477FF4E3
Copy CRC 477FF4E3
Copy OK

Track 4
Filename F:\[MyRip]\04 - Tiptoein'.wav

Pre-gap length 0:00:00.65

Peak level 95.7 %
Track quality 100.0 %
Test CRC A24694F0
Copy CRC A24694F0
Copy OK

Track 5
Filename F:\[MyRip]\05 - Nightwalk.wav

Pre-gap length 0:00:01.60

Peak level 96.3 %
Track quality 100.0 %
Test CRC 3F6ECD80
Copy CRC 3F6ECD80
Copy OK

Track 6
Filename F:\[MyRip]\06 - A Face In The Wind.wav

Pre-gap length 0:00:00.68

Peak level 95.4 %
Track quality 100.0 %
Test CRC 7B7C2D81
Copy CRC 7B7C2D81
Copy OK

Track 7
Filename F:\[MyRip]\07 - Big Turtle River.wav

Pre-gap length 0:00:01.55

Peak level 96.8 %
Track quality 99.9 %
Test CRC 1A1257E4
Copy CRC 1A1257E4
Copy OK

Track 8
Filename F:\[MyRip]\08 - The Highway Song.wav

Pre-gap length 0:00:01.27

Peak level 95.0 %
Track quality 99.9 %
Test CRC 6BEF0655
Copy CRC 6BEF0655
Copy OK

Track 9
Filename F:\[MyRip]\09 - Winter Rain.wav

Peak level 94.1 %
Track quality 99.9 %
Test CRC 35847C6D
Copy CRC 35847C6D
Copy OK

Track 10
Filename F:\[MyRip]\10 - Doin' It.wav

Pre-gap length 0:00:01.50

Peak level 97.7 %
Track quality 100.0 %
Test CRC 3F8BF70D
Copy CRC 3F8BF70D
Copy OK

Track 11
Filename F:\[MyRip]\11 - Across The Sand, Part II.wav

Pre-gap length 0:00:00.62

Peak level 97.1 %
Track quality 100.0 %
Test CRC 6B7C4573
Copy CRC 6B7C4573
Copy OK

No errors occured


End of status report

––––––––––––––––––––––––––––––

EAC extraction logfile from 19. August 2007, 18:22 for CD
Earl Klugh / Move

Used drive : PLEXTOR DVDR PX-716A Adapter: 2 ID: 0
Read mode : Secure with NO C2, accurate stream, disable cache
Read offset correction : 30
Overread into Lead-In and Lead-Out : No

Used output format : C:\Programmi\Exact Audio Copy\flac-1.1.2-win\bin\flac.exe (User Defined Encoder)
32 kBit/s
Additional command line options : -8 -V -T "artist=%a" -T "title=%t" -T "album=%g" -T "date=%y" -T "tracknumber=%n" -T "genre=%m" -T "comment=Exact Audio Copy 0.95 b3 Secure Mode / FLAC q8 v. 1.1.2" %s

Other options :
Fill up missing offset samples with silence : Yes
Delete leading and trailing silent blocks : No
Installed external ASPI interface


Track 1
Filename F:\[MyRip]\01 - Across The Sand.wav

Pre-gap length 0:00:02.00

Peak level 95.9 %
Track quality 100.0 %
Test CRC C834CF7B
Copy CRC C834CF7B
Copy OK

Track 2
Filename F:\[MyRip]\02 - Move.wav

Peak level 99.6 %
Track quality 100.0 %
Test CRC 87D17336
Copy CRC 87D17336
Copy OK

Track 3
Filename F:\[MyRip]\03 - Far From Home.wav

Pre-gap length 0:00:00.50

Peak level 96.4 %
Track quality 100.0 %
Test CRC 477FF4E3
Copy CRC 477FF4E3
Copy OK

Track 4
Filename F:\[MyRip]\04 - Tiptoein'.wav

Pre-gap length 0:00:00.65

Peak level 95.7 %
Track quality 100.0 %
Test CRC A24694F0
Copy CRC A24694F0
Copy OK

Track 5
Filename F:\[MyRip]\05 - Nightwalk.wav

Pre-gap length 0:00:01.60

Peak level 96.3 %
Track quality 100.0 %
Test CRC 3F6ECD80
Copy CRC 3F6ECD80
Copy OK

Track 6
Filename F:\[MyRip]\06 - A Face In The Wind.wav

Pre-gap length 0:00:00.68

Peak level 95.4 %
Track quality 100.0 %
Test CRC 7B7C2D81
Copy CRC 7B7C2D81
Copy OK

Track 7
Filename F:\[MyRip]\07 - Big Turtle River.wav

Pre-gap length 0:00:01.55

Peak level 96.8 %
Track quality 99.9 %
Test CRC 1A1257E4
Copy CRC 1A1257E4
Copy OK

Track 8
Filename F:\[MyRip]\08 - The Highway Song.wav

Pre-gap length 0:00:01.27

Peak level 95.0 %
Track quality 99.9 %
Test CRC 6BEF0655
Copy CRC 6BEF0655
Copy OK

Track 9
Filename F:\[MyRip]\09 - Winter Rain.wav

Peak level 94.1 %
Track quality 99.9 %
Test CRC 35847C6D
Copy CRC 35847C6D
Copy OK

Track 10
Filename F:\[MyRip]\10 - Doin' It.wav

Pre-gap length 0:00:01.50

Peak level 97.7 %
Track quality 100.0 %
Test CRC 3F8BF70D
Copy CRC 3F8BF70D
Copy OK

Track 11
Filename F:\[MyRip]\11 - Across The Sand, Part II.wav

Pre-gap length 0:00:00.62

Peak level 97.1 %
Track quality 100.0 %
Test CRC 6B7C4573
Copy CRC 6B7C4573
Copy OK

No errors occured


End of status report

Earl Klugh - Move (1994) {Warner}
Earl Klugh - Move (1994) {Warner}


Thanks to the original ripper