Earth Wind & Fire - In The Name Of Love (1997)

Posted By: BlondStyle
Earth Wind & Fire - In The Name Of Love (1997)

Earth Wind & Fire - In The Name Of Love (1997)
R&B, Soul/Funk | EAC Rip | FLAC, Img+CUE+LOG+Scans (PNG) | 48:58 Min | 458,23 Mb
Label: Pyramid Records (USA) | Cat.# R2 72864 | Released: 1997-07-24

"In the Name of Love" is the 17th album by Earth, Wind & Fire. It was released in 1997 on Rhino Records and was produced by the band's leader Maurice White for Kalimba Productions. The album was originally released in Japan only, under the title of Avatar; this pressing contained a different track list than the more widely released version. The track "Love Is Life" is a remake of its namesake which appeared on the band 's debut album, Earth, Wind & Fire. In October 2006, "In the Name of Love" was reissued on White's label Kalimba Records, with the three songs only found on Avatar as bonus tracks.
~Wikipedia

Earth, Wind & Fire's return to Warner Bros. with 1993's Millennium proved to be short-lived - the album failed to meet the company's expectations commercially. Four years later, EWF ended up on the independent, Miami-based Pyramid label with the surprisingly retro In the Name of Love. More personnel changes had taken place, but thankfully, Maurice and Verdine White and Philip Bailey were still on board for what was EWF's most live-sounding, least high-tech offering since 1983's Powerlight. (However, EWF had been touring without Maurice since 1994). Live horns and real instruments abound, and everything from the ballads "Cruising," "When Love Goes Wrong" and "Right Time" to the punchy funk ditty "Rock It" sounds like it could have been recorded in the 1970s. One very pleasant surprise is a remake of "Love of Life," which the pre-Bailey EWF embraced on its self-titled debut album of 1971. Bailey's son, Sir James Bailey, raps on the sociopolitical "Revolution," but on the whole, this excellent CD is unapologetically retro.
~Review by Alex Henderson

Earth Wind & Fire - In The Name Of Love (1997)

Earth Wind & Fire - In The Name Of Love (1997)


Release of this CD: 1997, July, 24 [CD Pyramid Records (USA), Cat.# R2 72864 / UPC: 081227286422]
℗© 1997 Pyramid Records Corporation.
Distributed by Rhino Records, Inc.
Made in USA


Credits:

Bass – Verdine White
Drums – Sonny Emory
Guitar, Vocals – Sheldon M. Reynolds
Keyboards – Morris Pleasure
Lead Vocals – Philip Bailey
Mastered By – Wally Traugott
Percussion – Lenny Castro, Paulinho Da Costa
Percussion, Vocals – Ralph Johnson
Producer, Lead Vocals [Additional] – Maurice White
Recorded By, Mixed By – Don Murry
Saxophone – Scott Mayo
Trombone – Reggie Young
Trumpet – Ray Brown


Tracklist:

01. Rock It (04:27)
02. In The Name Of Love (04:49)
03. Revolution (05:09)
04. When Love Goes Wrong (04:48)
05. Fill You Up (04:06)
06. Right Time (04:02)
07. Round And Round (03:55)
08. Keep It Real (04:51)
09. Cruising (05:42)
10. Love Is Life (05:00)
11. Avatar (02:10)

Exact Audio Copy V1.3 from 2. September 2016

EAC extraction logfile from 4. April 2017, 21:59

Earth, Wind & Fire / In The Name Of Love

Used drive : Memorex 52MAXX 3252AJ1 Adapter: 1 ID: 1

Read mode : Secure
Utilize accurate stream : Yes
Defeat audio cache : Yes
Make use of C2 pointers : No

Read offset correction : 6
Overread into Lead-In and Lead-Out : No
Fill up missing offset samples with silence : Yes
Delete leading and trailing silent blocks : No
Null samples used in CRC calculations : Yes
Used interface : Native Win32 interface for Win NT & 2000

Used output format : User Defined Encoder
Selected bitrate : 896 kBit/s
Quality : High
Add ID3 tag : No
Command line compressor : C:\Program Files (x86)\Exact Audio Copy\Flac\flac.exe
Additional command line options : %ishigh%-V -p -l 12 -b 4096 -m -e -r 8%ishigh%%islow%-5%islow% –replay-gain -T "ARTIST=%artist%" -T "ALBUM=%albumtitle%" -T "TITLE=%title%" -T "DATE=%year%" -T "TRACKNUMBER=%tracknr%" -T "GENRE=%genre%" -T "ENSEMBLE=%albuminterpret%" -T "ALBUMARTIST=%albumartist%" -T "COMPOSER=%albumcomposer%" -T "DISCNUMBER=%cdnumber%" -T "TOTALDISCS=%totalcds%" -T "TOTALTRACKS=%numtracks%" -T "SOURCEMEDIA=CD" -T "COMMENT=%comment%" %hascover%-T "PICTURE=%coverfile%"%hascover% %source%


TOC of the extracted CD

Track | Start | Length | Start sector | End sector
––––––––––––––––––––––––––––-
1 | 0:00.00 | 4:26.69 | 0 | 20018
2 | 4:26.69 | 4:48.48 | 20019 | 41666
3 | 9:15.42 | 5:08.53 | 41667 | 64819
4 | 14:24.20 | 4:48.27 | 64820 | 86446
5 | 19:12.47 | 4:06.13 | 86447 | 104909
6 | 23:18.60 | 4:02.02 | 104910 | 123061
7 | 27:20.62 | 3:54.60 | 123062 | 140671
8 | 31:15.47 | 4:51.25 | 140672 | 162521
9 | 36:06.72 | 5:41.55 | 162522 | 188151
10 | 41:48.52 | 4:59.40 | 188152 | 210616
11 | 46:48.17 | 2:09.43 | 210617 | 220334


Range status and errors

Selected range

Filename C:\Users\M@ce\Music\Archives\Rips\Burn WAV\Earth, Wind & Fire - In The Name Of Love.wav

Peak level 100.0 %
Extraction speed 5.6 X
Range quality 100.0 %
Test CRC 8B077E0A
Copy CRC 8B077E0A
Copy OK

No errors occurred


AccurateRip summary

Track 1 accurately ripped (confidence 8) [5B959BBA] (AR v2)
Track 2 accurately ripped (confidence 8) [708BE351] (AR v2)
Track 3 accurately ripped (confidence 9) [7437E527] (AR v2)
Track 4 accurately ripped (confidence 9) [CCBC8336] (AR v2)
Track 5 accurately ripped (confidence 9) [67EC5481] (AR v2)
Track 6 accurately ripped (confidence 9) [A8D438C7] (AR v2)
Track 7 accurately ripped (confidence 9) [CE130D8C] (AR v2)
Track 8 accurately ripped (confidence 8) [C947DDFF] (AR v2)
Track 9 accurately ripped (confidence 9) [6DA45BF3] (AR v2)
Track 10 accurately ripped (confidence 9) [41C05CCD] (AR v2)
Track 11 accurately ripped (confidence 9) [8E2EB297] (AR v2)

All tracks accurately ripped

End of status report

–– CUETools DB Plugin V2.1.6

[CTDB TOCID: XFuhNdZQhOArcLvR.NdXOS2IS2A-] found
Submit result: XFuhNdZQhOArcLvR.NdXOS2IS2A- has been confirmed
Track | CTDB Status
1 | (6/6) Accurately ripped
2 | (6/6) Accurately ripped
3 | (6/6) Accurately ripped
4 | (6/6) Accurately ripped
5 | (6/6) Accurately ripped
6 | (6/6) Accurately ripped
7 | (6/6) Accurately ripped
8 | (6/6) Accurately ripped
9 | (6/6) Accurately ripped
10 | (6/6) Accurately ripped
11 | (6/6) Accurately ripped


==== Log checksum BAAFCD5CD706556E0678A9CA7C0037E7D5A1CDA069C2BB0603F4183EF57DEEC8 ====

––––––––––––––––––––––––––––––––––––––––
Analyzed: Earth, Wind & Fire / In The Name Of Love
––––––––––––––––––––––––––––––––––––––––

DR Peak RMS Duration Track
––––––––––––––––––––––––––––––––––––––––
DR8 0.00 dB -10.13 dB 4:27 01-Rock It
DR8 -0.40 dB -10.18 dB 4:49 02-In The Name Of Love
DR7 -0.29 dB -8.79 dB 5:09 03-Revolution
DR8 -0.75 dB -10.13 dB 4:48 04-When Love Goes Wrong
DR8 -0.09 dB -10.74 dB 4:06 05-Fill You Up
DR8 -0.04 dB -11.87 dB 4:02 06-Right Time
DR8 0.00 dB -10.38 dB 3:55 07-Round And Round
DR7 0.00 dB -9.56 dB 4:51 08-Keep It Real
DR9 -0.70 dB -13.76 dB 5:42 09-Cruising
DR8 -0.04 dB -10.72 dB 5:00 10-Love Is Life
DR11 -0.83 dB -14.91 dB 2:10 11-Avatar
––––––––––––––––––––––––––––––––––––––––

Number of tracks: 11
Official DR value: DR8

Samplerate: 44100 Hz
Channels: 2
Bits per sample: 16
Bitrate: 963 kbps
Codec: FLAC
================================================================================

All thanks to M@ce

password: BlondStyle