Tags
Language
Tags

Eddy Grant - Greatest Hits Collection (1999) 2CD [Re-Up]

Posted By: Designol
Eddy Grant - Greatest Hits Collection (1999) 2CD [Re-Up]

Eddy Grant - Greatest Hits Collection (1999) 2CD
EAC | FLAC | Image (Cue&Log) ~ 913 Mb | Mp3 (CBR320) ~ 321 Mb | Scans ~ 107 Mb
Reggae, Reggae Pop | Label: Ice/Castle | # NEDCD 449 | Time: 02:20:08

A multi-instrumentalist who, like Stevie Wonder, mixes genres effortlessly, Britain's Eddy Grant deserves a wider audience, but for those who want just the hits, this collection fills the bill.

Review by Steve Leggett, Allmusic.com

This great album compiles Eddy Grant’s greatest hits and also offers some excellent 12-inch dance remixes of his best songs. Not only does Grant have a talent for catchy tunes, but his lyrics are very intelligent, often having a message of some sort as in the song about democracy in South Africa called Gimme Hope Joanna.

The first disc contains the original versions of his massive chartbusters like I Don’t Wanna Dance, Electric Avenue, Living On The Frontline and Do You Feel My Love, and goes even further back to his very first hits like Baby Come Back. They are all superb reggae tracks with a fine pop sensibility and propulsive beats.

Disc Two contains breathtaking club mixes of songs like Frontline, Hello Africa, Walking On Sunshine and Do You Feel My Love, making this album absolutely essential for the Eddy Grant fan. The rhythmic textures here are very impressive and lend a fresh new perspective to the original songs.

Grant was a unique talent in the reggae world, rootsy enough for the reggae enthusiast but accessible enough for the lover of mainstream music – that’s why he had such a good chart run in the seventies and eighties. He was also a brilliant composer, lyricist and singer. I highly recommend this album to all reggae fans.

Review by Pieter Uys, Amazon.co.uk

Eddy Grant at Allmusic
Eddy Grant at Wiki

Tracklist:

CD1:

01. Gimme Hope Jo'anna (03:44)
02. I Don't Wanna Dance (03:17)
03. Electric Avenue (03:42)
04. Can't Get Enough Of You (04:17)
05. Do You Feel My Love (02:58)
06. Till I Can't Take Love No More (02:42)
07. Killer On The Rampage (03:28)
08. Baby Come Back (04:54)
09. Walking On Sunshine (05:18)
10. Living On The Front Line (05:56)
11. Boys In The Street (04:12)
12. Romancing The Stone (04:48)
13. War Party (03:37)
14. Hello Africa (05:47)
15. Put A Hold On It (03:56)
16. Welcome To La Tigre (03:58)
17. Don't Back Down (04:33)

CD2:

01. Living On The Front Line (13:29)
02. Hello Africa (12:03)
03. Preachin' Genocide (07:17)
04. Exiled (From The Love I Know) (09:26)
05. Nobody's Got Time (07:18)
06. Walking On Sunshine (Remixed By Tim Simenon) (03:41)
07. Do You Feel My Love (04:36)
08. The Youth Tom Tom (04:27)
09. African Kings (05:28)


Exact Audio Copy V0.99 prebeta 5 from 4. May 2009

Отчёт EAC об извлечении, выполненном 14. октября 2009, 19:42

Eddy Grant / Greatest Hits Collection CD 1

Дисковод: Optiarc DVD RW AD-5200A Adapter: 0 ID: 0

Режим чтения : Достоверность
Использование точного потока : Да
Отключение кэша аудио : Да
Использование указателей C2 : Нет

Коррекция смещения при чтении : 48
Способность читать области Lead-in и Lead-out : Нет
Заполнение пропущенных сэмплов тишиной : Да
Удаление блоков с тишиной в начале и конце : Нет
При вычислениях CRC использовались нулевые сэмплы : Да
Интерфейс : Установленный внешний ASPI-интерфейс

Выходной формат : Внутренние WAV-операции
Формат сэмплов : 44.100 Гц; 16 бит; стерео


TOC извлечённого CD

Трек | Старт | Длительность | Начальный сектор | Конечный сектор
––––––––––––––––––––––––––––––––––-
1 | 0:00.32 | 3:47.35 | 32 | 17091
2 | 3:47.67 | 3:19.73 | 17092 | 32089
3 | 7:07.65 | 3:44.57 | 32090 | 48946
4 | 10:52.47 | 4:20.25 | 48947 | 68471
5 | 15:12.72 | 3:01.35 | 68472 | 82081
6 | 18:14.32 | 2:44.63 | 82082 | 94444
7 | 20:59.20 | 3:31.12 | 94445 | 110281
8 | 24:30.32 | 4:57.00 | 110282 | 132556
9 | 29:27.32 | 5:21.33 | 132557 | 156664
10 | 34:48.65 | 5:59.10 | 156665 | 183599
11 | 40:48.00 | 4:15.10 | 183600 | 202734
12 | 45:03.10 | 4:51.27 | 202735 | 224586
13 | 49:54.37 | 3:39.68 | 224587 | 241079
14 | 53:34.30 | 5:50.20 | 241080 | 267349
15 | 59:24.50 | 3:59.40 | 267350 | 285314
16 | 63:24.15 | 4:00.60 | 285315 | 303374
17 | 67:25.00 | 4:33.12 | 303375 | 323861


Характеристики диапазона извлечения и сообщения об ошибках

Выбранный диапазон

Имя файла E:\Eddy Grant - Greatest Hits Collection CD 1\Eddy Grant - Greatest Hits Collection CD 1.wav

Пиковый уровень 97.7 %
Качество диапазона 99.9 %
CRC теста 990A6CD7
CRC копии 990A6CD7
Копирование… OK

Ошибок не произошло


AccurateRip: сводка

Трек 1 точное извлечение (доверие 5) [ED4BCB18]
Трек 2 точное извлечение (доверие 5) [20FDEB7A]
Трек 3 точное извлечение (доверие 5) [D570802A]
Трек 4 точное извлечение (доверие 5) [9967AAF6]
Трек 5 точное извлечение (доверие 5) [E3B0CCFC]
Трек 6 точное извлечение (доверие 5) [66F9A64D]
Трек 7 точное извлечение (доверие 5) [F7059FAE]
Трек 8 точное извлечение (доверие 5) [299E47F1]
Трек 9 точное извлечение (доверие 5) [CEECA685]
Трек 10 точное извлечение (доверие 5) [A513C1BD]
Трек 11 точное извлечение (доверие 5) [D7351448]
Трек 12 точное извлечение (доверие 5) [105E129A]
Трек 13 точное извлечение (доверие 5) [CE74771C]
Трек 14 точное извлечение (доверие 5) [E5F44D10]
Трек 15 точное извлечение (доверие 5) [7CC8B165]
Трек 16 точное извлечение (доверие 5) [AC6EE7FC]
Трек 17 точное извлечение (доверие 5) [FA0F627E]

Все треки извлечены точно

Конец отчёта

foobar2000 1.2 / Dynamic Range Meter 1.1.1
log date: 2014-08-12 23:31:59

––––––––––––––––––––––––––––––––––––––––
Analyzed: Eddy Grant / Greatest Hits Collection CD 1
––––––––––––––––––––––––––––––––––––––––

DR Peak RMS Duration Track
––––––––––––––––––––––––––––––––––––––––
DR13 -0.20 dB -14.75 dB 3:47 01-Gimme Hope Jo'anna
DR14 -0.20 dB -16.16 dB 3:20 02-I Don't Wanna Dance
DR13 -0.20 dB -15.35 dB 3:45 03-Electric Avenue
DR15 -0.31 dB -17.39 dB 4:20 04-Can't Get Enough Of You
DR13 -0.20 dB -15.72 dB 3:01 05-Do You Feel My Love
DR13 -0.20 dB -14.58 dB 2:45 06-Till I Can't Take Love No More
DR13 -0.20 dB -16.03 dB 3:31 07-Killer On The Rampage
DR12 -0.20 dB -14.31 dB 4:57 08-Baby Come Back
DR13 -0.20 dB -14.66 dB 5:21 09-Walking On Sunshine
DR14 -0.91 dB -16.12 dB 5:59 10-Living On The Front Line
DR12 -0.20 dB -12.67 dB 4:15 11-Boys In The Street
DR12 -0.20 dB -14.00 dB 4:51 12-Romancing The Stone
DR14 -0.20 dB -15.94 dB 3:40 13-War Party
DR12 -1.54 dB -15.92 dB 5:50 14-Hello Africa
DR13 -0.20 dB -14.34 dB 4:00 15-Put A Hold On It
DR13 -0.20 dB -14.96 dB 4:01 16-Welcome To La Tigre
DR10 -4.20 dB -14.52 dB 4:33 17-Don't Back Down
––––––––––––––––––––––––––––––––––––––––

Number of tracks: 17
Official DR value: DR13

Samplerate: 44100 Hz
Channels: 2
Bits per sample: 16
Bitrate: 881 kbps
Codec: FLAC
================================================================================


Exact Audio Copy V0.99 prebeta 5 from 4. May 2009

Отчёт EAC об извлечении, выполненном 14. октября 2009, 21:45

Eddy Grant / Greatest Hits Collection CD 2

Дисковод: Optiarc DVD RW AD-5200A Adapter: 0 ID: 0

Режим чтения : Достоверность
Использование точного потока : Да
Отключение кэша аудио : Да
Использование указателей C2 : Нет

Коррекция смещения при чтении : 48
Способность читать области Lead-in и Lead-out : Нет
Заполнение пропущенных сэмплов тишиной : Да
Удаление блоков с тишиной в начале и конце : Нет
При вычислениях CRC использовались нулевые сэмплы : Да
Интерфейс : Установленный внешний ASPI-интерфейс

Выходной формат : Внутренние WAV-операции
Формат сэмплов : 44.100 Гц; 16 бит; стерео


TOC извлечённого CD

Трек | Старт | Длительность | Начальный сектор | Конечный сектор
––––––––––––––––––––––––––––––––––-
1 | 0:00.32 | 13:32.03 | 32 | 60934
2 | 13:32.35 | 12:06.30 | 60935 | 115414
3 | 25:38.65 | 7:19.50 | 115415 | 148389
4 | 32:58.40 | 9:29.45 | 148390 | 191109
5 | 42:28.10 | 7:21.20 | 191110 | 224204
6 | 49:49.30 | 3:44.12 | 224205 | 241016
7 | 53:33.42 | 4:38.65 | 241017 | 261931
8 | 58:12.32 | 4:29.63 | 261932 | 282169
9 | 62:42.20 | 5:28.12 | 282170 | 306781


Характеристики диапазона извлечения и сообщения об ошибках

Выбранный диапазон

Имя файла E:\Eddy Grant - Greatest Hits Collection CD 2\Eddy Grant - Greatest Hits Collection CD 2.wav

Пиковый уровень 97.7 %
Качество диапазона 100.0 %
CRC теста 7DD90BC8
CRC копии 7DD90BC8
Копирование… OK

Ошибок не произошло


AccurateRip: сводка

Трек 1 точное извлечение (доверие 3) [343F7E4A]
Трек 2 точное извлечение (доверие 3) [8D2C1ADE]
Трек 3 точное извлечение (доверие 3) [EE9A5C24]
Трек 4 точное извлечение (доверие 3) [1A7265C7]
Трек 5 точное извлечение (доверие 3) [30485064]
Трек 6 точное извлечение (доверие 3) [C60EC802]
Трек 7 точное извлечение (доверие 3) [D85DF2ED]
Трек 8 точное извлечение (доверие 3) [F9A3E441]
Трек 9 точное извлечение (доверие 3) [17D21BD0]

Все треки извлечены точно

Конец отчёта

foobar2000 1.2 / Dynamic Range Meter 1.1.1
log date: 2014-08-12 23:32:24

––––––––––––––––––––––––––––––––––––––––
Analyzed: Eddy Grant / Greatest Hits Collection CD 2
––––––––––––––––––––––––––––––––––––––––

DR Peak RMS Duration Track
––––––––––––––––––––––––––––––––––––––––
DR13 -0.47 dB -15.24 dB 13:32 01-Living On The Front Line
DR12 -0.80 dB -15.00 dB 12:06 02-Hello Africa
DR12 -0.20 dB -14.33 dB 7:20 03-Preachin' Genocide
DR14 -0.20 dB -15.77 dB 9:30 04-Exiled (From The Love I Know)
DR13 -0.20 dB -14.35 dB 7:21 05-Nobody's Got Time
DR12 -0.20 dB -13.54 dB 3:44 06-Walking On Sunshine (Remixed By Tim Simenon)
DR13 -0.20 dB -15.07 dB 4:39 07-Do You Feel My Love
DR14 -0.20 dB -15.12 dB 4:30 08-The Youth Tom Tom
DR13 -0.20 dB -14.19 dB 5:28 09-African Kings
––––––––––––––––––––––––––––––––––––––––

Number of tracks: 9
Official DR value: DR13

Samplerate: 44100 Hz
Channels: 2
Bits per sample: 16
Bitrate: 941 kbps
Codec: FLAC
================================================================================

Eddy Grant - Greatest Hits Collection (1999) 2CD [Re-Up]

Eddy Grant - Greatest Hits Collection (1999) 2CD [Re-Up]

All thanks to original releaser - Pol Alex

More interesting music in My Blog