Subcategories

Edward Higginbottom, Academy of Ancient Music, New College Choir, Oxford - Pergolesi: Marian Vespers (2003)

Posted By: ArlegZ
Edward Higginbottom, Academy of Ancient Music, New College Choir, Oxford - Pergolesi: Marian Vespers (2003)

Edward Higginbottom, Academy of Ancient Music, New College Choir, Oxford - Pergolesi: Marian Vespers (2003)
EAC | FLAC | Image (Cue & Log) ~ 547 Mb | Total time: 72:07+45:36 | Scans included
Classical | Label: Erato | 0927 46684-2 | Recorded: 2002

This world premiere recording reveals a new masterwork by the 18-century Italian master Giovanni Battista Pergolesi, brilliantly reconstructed by musicologist Malcom Bruno from the composer's single-movement woks. Most of this music has been lost or forgotten since its creation more the 250 years ago, and most, if not all, has never been recorded.

Performer:
Sophie Daneman, soprano
Noemi Kiss, soprano
Julie Cooper, soprano
William Purefoy, countertenor
Robert MacDonald, bass
Pavlo Beznosiuk, violin
Joseph Crouch, cello
Alastair Ross, organ
New College Choir, Oxford
Academy of Ancient Music
Edward Higginbottom, conductor

Track List:
CD1:
Marian Vespers, for soloists, chorus, organ & orchestra (reconstructed by Malcolm Bruno)
01. Introit. Deus, in adjutorium
02. Introit. Gloria Patri
03. Introit. Sicut erat in principio
04. Introit. Alleluia
05. Psalm I. Dixit Dominus
06. Psalm I. Virgam virtutis
07. Psalm I. Dominare
08. Psalm I. Tecum principium
09. Psalm I. Juravit Dominus
10. Psalm I. Dominus a dextris
11. Psalm I. Gloria Patri
12. Psalm I. Sicut erat in principio
13. Sonata for violin & basso continuo. 1. Largo
14. Sonata for violin & basso continuo. 2. Allegro
15. Psalm II. Confitebor
16. Psalm II. Confessio
17. Psalm II. Fidelia omnia
18. Psalm II. Redemptionem misit
19. Psalm II. Sanctum et terribile
20. Psalm II. Gloria Patri
21. Psalm II. Sicut erat in principio
22. Sonata for violin & basso continuo. 3. Largo
23. Sonata for violin & basso continuo. 4. Spirituoso
24. Psalm III. Laudate pueri
25. Psalm III. A solis ortu
26. Psalm III. Excelsus super omnes
27. Psalm III. Quis sicut Dominus
28. Psalm III. Suscitans a terra
29. Psalm III. Gloria Patri
30. Psalm III. Sicut erat in principio
CD2:
01. Hymn. Lucis Creator optime
02. Sonata for cello & basso continuo. 1. Comodo
03. Sonata for cello & basso continuo. 2. Allegro
04. Magnificat. Magnificat anima mea
05. Magnificat. Quia fecit mihi magna
06. Magnificat. Suscepit Israel
07. Magnificat. Gloria Patri
08. Sonata for cello & basso continuo. 3. Adagio
09. Sonata for cello & basso continuo. 4. Presto
10. Marian Antiphon. Salve Regina
11. Marian Antiphon. Ad te clamamus
12. Marian Antiphon. Ad te suspiramus
13. Marian Antiphon. Eia ergo
14. Marian Antiphon. Et Jesum benedictum
15. Marian Antiphon. O Clemens
16. Collect. Ora pro nobis
17. Collect. Amen


Exact Audio Copy V1.3 from 2. September 2016

EAC extraction logfile from 28. December 2018, 20:13

New College Choir / Pergolesi - Marian Vespers

Used drive : HL-DT-STDVDRAM GP65NW60 Adapter: 1 ID: 0

Read mode : Secure
Utilize accurate stream : Yes
Defeat audio cache : Yes
Make use of C2 pointers : No

Read offset correction : 6
Overread into Lead-In and Lead-Out : No
Fill up missing offset samples with silence : Yes
Delete leading and trailing silent blocks : No
Null samples used in CRC calculations : Yes
Used interface : Native Win32 interface for Win NT & 2000

Used output format : User Defined Encoder
Selected bitrate : 1024 kBit/s
Quality : High
Add ID3 tag : No
Command line compressor : C:\Program Files (x86)\Exact Audio Copy\FLAC\FLAC.EXE
Additional command line options : -6 -V -T "ARTIST=%artist%" -T "TITLE=%title%" -T "ALBUM=%albumtitle%" -T "DATE=%year%" -T "TRACKNUMBER=%tracknr%" -T "GENRE=%genre%" -T "COMMENT=%comment%" -T "BAND=%albuminterpret%" -T "ALBUMARTIST=%albuminterpret%" -T "COMPOSER=%composer%" %haslyrics%–tag-from-file=LYRICS="%lyricsfile%"%haslyrics% -T "DISCNUMBER=%cdnumber%" -T "TOTALDISCS=%totalcds%" -T "TOTALTRACKS=%numtracks%" %hascover%–picture="%coverfile%"%hascover% %source% -o %dest%


TOC of the extracted CD

Track | Start | Length | Start sector | End sector
––––––––––––––––––––––––––––-
1 | 0:00.00 | 1:16.02 | 0 | 5701
2 | 1:16.02 | 2:28.67 | 5702 | 16868
3 | 3:44.69 | 1:02.69 | 16869 | 21587
4 | 4:47.63 | 1:20.01 | 21588 | 27588
5 | 6:07.64 | 3:13.73 | 27589 | 42136
6 | 9:21.62 | 2:26.67 | 42137 | 53153
7 | 11:48.54 | 1:02.74 | 53154 | 57877
8 | 12:51.53 | 2:27.51 | 57878 | 68953
9 | 15:19.29 | 1:52.49 | 68954 | 77402
10 | 17:12.03 | 3:59.70 | 77403 | 95397
11 | 21:11.73 | 1:18.37 | 95398 | 101284
12 | 22:30.35 | 3:59.07 | 101285 | 119216
13 | 26:29.42 | 1:12.59 | 119217 | 124675
14 | 27:42.26 | 1:54.39 | 124676 | 133264
15 | 29:36.65 | 2:25.32 | 133265 | 144171
16 | 32:02.22 | 4:26.10 | 144172 | 164131
17 | 36:28.32 | 2:11.15 | 164132 | 173971
18 | 38:39.47 | 1:00.71 | 173972 | 178542
19 | 39:40.43 | 3:41.23 | 178543 | 195140
20 | 43:21.66 | 0:34.72 | 195141 | 197762
21 | 43:56.63 | 3:18.63 | 197763 | 212675
22 | 47:15.51 | 1:52.28 | 212676 | 221103
23 | 49:08.04 | 2:23.13 | 221104 | 231841
24 | 51:31.17 | 3:18.72 | 231842 | 246763
25 | 54:50.14 | 4:21.56 | 246764 | 266394
26 | 59:11.70 | 2:10.72 | 266395 | 276216
27 | 61:22.67 | 2:11.58 | 276217 | 286099
28 | 63:34.50 | 2:47.19 | 286100 | 298643
29 | 66:21.69 | 2:56.54 | 298644 | 311897
30 | 69:18.48 | 2:51.59 | 311898 | 324781


Range status and errors

Selected range

Filename C:\Users\Grant\Desktop\New College Choir - Pergolesi - Marian Vespers.wav

Peak level 100.0 %
Extraction speed 2.2 X
Range quality 100.0 %
Test CRC 8D8FAFD5
Copy CRC 8D8FAFD5
Copy OK

No errors occurred


AccurateRip summary

Track 1 accurately ripped (confidence 23) [E566427C] (AR v2)
Track 2 accurately ripped (confidence 23) [C4B7A9D0] (AR v2)
Track 3 accurately ripped (confidence 23) [4FF2EC62] (AR v2)
Track 4 accurately ripped (confidence 23) [28C8F936] (AR v2)
Track 5 accurately ripped (confidence 23) [B4CD6795] (AR v2)
Track 6 accurately ripped (confidence 23) [2309BFFC] (AR v2)
Track 7 accurately ripped (confidence 23) [4B278DB7] (AR v2)
Track 8 accurately ripped (confidence 23) [6B00657C] (AR v2)
Track 9 accurately ripped (confidence 22) [52A407AD] (AR v2)
Track 10 accurately ripped (confidence 23) [AC0A7055] (AR v2)
Track 11 accurately ripped (confidence 23) [88B2FBFC] (AR v2)
Track 12 accurately ripped (confidence 23) [809B3265] (AR v2)
Track 13 accurately ripped (confidence 23) [19CCF76A] (AR v2)
Track 14 accurately ripped (confidence 23) [C1A465C2] (AR v2)
Track 15 accurately ripped (confidence 23) [917F4DC6] (AR v2)
Track 16 accurately ripped (confidence 23) [F2D55724] (AR v2)
Track 17 accurately ripped (confidence 23) [FB42E705] (AR v2)
Track 18 accurately ripped (confidence 23) [6C41B123] (AR v2)
Track 19 accurately ripped (confidence 22) [64DB44F1] (AR v2)
Track 20 accurately ripped (confidence 22) [BDAEBE56] (AR v2)
Track 21 accurately ripped (confidence 22) [BF2FD351] (AR v2)
Track 22 accurately ripped (confidence 22) [03863557] (AR v2)
Track 23 accurately ripped (confidence 22) [ABFEA4A6] (AR v2)
Track 24 accurately ripped (confidence 23) [2535064F] (AR v2)
Track 25 accurately ripped (confidence 23) [8DB8A0C9] (AR v2)
Track 26 accurately ripped (confidence 23) [86F15EFB] (AR v2)
Track 27 accurately ripped (confidence 23) [3780034C] (AR v2)
Track 28 accurately ripped (confidence 21) [BEE74201] (AR v2)
Track 29 accurately ripped (confidence 22) [690959B1] (AR v2)
Track 30 accurately ripped (confidence 22) [910E3098] (AR v2)

All tracks accurately ripped

End of status report

–– CUETools DB Plugin V2.1.6

[CTDB TOCID: So9CzZCcdH9z20pwDRumelCGZdo-] found
Submit result: So9CzZCcdH9z20pwDRumelCGZdo- has been confirmed
Track | CTDB Status
1 | (28/29) Accurately ripped
2 | (28/29) Accurately ripped
3 | (28/29) Accurately ripped
4 | (28/29) Accurately ripped
5 | (28/29) Accurately ripped
6 | (28/29) Accurately ripped
7 | (28/29) Accurately ripped
8 | (27/29) Accurately ripped
9 | (28/29) Accurately ripped
10 | (28/29) Accurately ripped
11 | (28/29) Accurately ripped
12 | (28/29) Accurately ripped
13 | (28/29) Accurately ripped
14 | (28/29) Accurately ripped
15 | (28/29) Accurately ripped
16 | (28/29) Accurately ripped
17 | (28/29) Accurately ripped
18 | (28/29) Accurately ripped
19 | (28/29) Accurately ripped
20 | (28/29) Accurately ripped
21 | (28/29) Accurately ripped
22 | (28/29) Accurately ripped
23 | (28/29) Accurately ripped
24 | (27/29) Accurately ripped
25 | (27/29) Accurately ripped
26 | (28/29) Accurately ripped
27 | (28/29) Accurately ripped
28 | (28/29) Accurately ripped
29 | (28/29) Accurately ripped
30 | (28/29) Accurately ripped


==== Log checksum 73EC69ABC13A03BDD3A817D1FD5B457488EAF7E4039A948B882AC3A8F15F604A ====


Exact Audio Copy V1.3 from 2. September 2016

EAC extraction logfile from 29. December 2018, 5:51

New College Choir / Pergolesi - Marian Vespers, CD2

Used drive : HL-DT-STDVDRAM GP65NW60 Adapter: 1 ID: 0

Read mode : Secure
Utilize accurate stream : Yes
Defeat audio cache : Yes
Make use of C2 pointers : No

Read offset correction : 6
Overread into Lead-In and Lead-Out : No
Fill up missing offset samples with silence : Yes
Delete leading and trailing silent blocks : No
Null samples used in CRC calculations : Yes
Used interface : Native Win32 interface for Win NT & 2000

Used output format : User Defined Encoder
Selected bitrate : 1024 kBit/s
Quality : High
Add ID3 tag : No
Command line compressor : C:\Program Files (x86)\Exact Audio Copy\FLAC\FLAC.EXE
Additional command line options : -6 -V -T "ARTIST=%artist%" -T "TITLE=%title%" -T "ALBUM=%albumtitle%" -T "DATE=%year%" -T "TRACKNUMBER=%tracknr%" -T "GENRE=%genre%" -T "COMMENT=%comment%" -T "BAND=%albuminterpret%" -T "ALBUMARTIST=%albuminterpret%" -T "COMPOSER=%composer%" %haslyrics%–tag-from-file=LYRICS="%lyricsfile%"%haslyrics% -T "DISCNUMBER=%cdnumber%" -T "TOTALDISCS=%totalcds%" -T "TOTALTRACKS=%numtracks%" %hascover%–picture="%coverfile%"%hascover% %source% -o %dest%


TOC of the extracted CD

Track | Start | Length | Start sector | End sector
––––––––––––––––––––––––––––-
1 | 0:00.00 | 7:04.11 | 0 | 31810
2 | 7:04.11 | 0:55.51 | 31811 | 35986
3 | 7:59.62 | 1:48.47 | 35987 | 44133
4 | 9:48.34 | 2:44.50 | 44134 | 56483
5 | 12:33.09 | 4:49.73 | 56484 | 78231
6 | 17:23.07 | 1:37.44 | 78232 | 85550
7 | 19:00.51 | 2:35.38 | 85551 | 97213
8 | 21:36.14 | 1:44.48 | 97214 | 105061
9 | 23:20.62 | 2:02.44 | 105062 | 114255
10 | 25:23.31 | 3:29.14 | 114256 | 129944
11 | 28:52.45 | 1:26.19 | 129945 | 136413
12 | 30:18.64 | 3:13.36 | 136414 | 150924
13 | 33:32.25 | 1:35.63 | 150925 | 158112
14 | 35:08.13 | 2:25.51 | 158113 | 169038
15 | 37:33.64 | 1:37.04 | 169039 | 176317
16 | 39:10.68 | 1:19.21 | 176318 | 182263
17 | 40:30.14 | 1:21.35 | 182264 | 188373
18 | 41:51.49 | 3:49.48 | 188374 | 205596


Range status and errors

Selected range

Filename C:\Users\Grant\Desktop\New College Choir - Pergolesi - Marian Vespers, CD2.wav

Peak level 100.0 %
Extraction speed 1.8 X
Range quality 100.0 %
Test CRC 458C14B4
Copy CRC 458C14B4
Copy OK

No errors occurred


AccurateRip summary

Track 1 accurately ripped (confidence 22) [C5CD9038] (AR v2)
Track 2 accurately ripped (confidence 22) [F7D26CA1] (AR v2)
Track 3 accurately ripped (confidence 22) [FB795D67] (AR v2)
Track 4 accurately ripped (confidence 22) [DFFCCE53] (AR v2)
Track 5 accurately ripped (confidence 22) [7ED05607] (AR v2)
Track 6 accurately ripped (confidence 22) [506323E2] (AR v2)
Track 7 accurately ripped (confidence 22) [F3B2888E] (AR v2)
Track 8 accurately ripped (confidence 22) [84812123] (AR v2)
Track 9 accurately ripped (confidence 22) [8FE12B67] (AR v2)
Track 10 accurately ripped (confidence 22) [0104EF2E] (AR v2)
Track 11 accurately ripped (confidence 22) [8B0513FC] (AR v2)
Track 12 accurately ripped (confidence 22) [4BD79EE4] (AR v2)
Track 13 accurately ripped (confidence 22) [4F420A05] (AR v2)
Track 14 accurately ripped (confidence 22) [3E0FC022] (AR v2)
Track 15 accurately ripped (confidence 22) [883182FF] (AR v2)
Track 16 accurately ripped (confidence 22) [E7B4DB8E] (AR v2)
Track 17 accurately ripped (confidence 22) [FF018C3C] (AR v2)
Track 18 accurately ripped (confidence 22) [06F67159] (AR v2)

All tracks accurately ripped

End of status report

–– CUETools DB Plugin V2.1.6

[CTDB TOCID: WvTI3mJfr.R0vsa1W6wM30FG_6g-] found
Submit result: WvTI3mJfr.R0vsa1W6wM30FG_6g- has been confirmed
Track | CTDB Status
1 | (31/31) Accurately ripped
2 | (30/31) Accurately ripped
3 | (30/31) Accurately ripped
4 | (30/31) Accurately ripped
5 | (30/31) Accurately ripped
6 | (30/31) Accurately ripped
7 | (30/31) Accurately ripped
8 | (30/31) Accurately ripped
9 | (30/31) Accurately ripped
10 | (30/31) Accurately ripped
11 | (29/31) Accurately ripped
12 | (30/31) Accurately ripped
13 | (30/31) Accurately ripped
14 | (30/31) Accurately ripped
15 | (30/31) Accurately ripped
16 | (30/31) Accurately ripped
17 | (30/31) Accurately ripped
18 | (30/31) Accurately ripped


==== Log checksum 8D128DB4F736704C174AF5C0A04A34B9514F15EA57963EE94BA2016653B132EC ====

Edward Higginbottom, Academy of Ancient Music, New College Choir, Oxford - Pergolesi: Marian Vespers (2003)

Thanks to the original releaser