Tags
Language
Tags
June 2023
Su Mo Tu We Th Fr Sa
28 29 30 31 1 2 3
4 5 6 7 8 9 10
11 12 13 14 15 16 17
18 19 20 21 22 23 24
25 26 27 28 29 30 1

Pasi Eerikainen, Emil Holmstrom - Ludwig van Beethoven, Bela Bartok, Magnus Lindberg: Sonatas (2015)

Posted By: Designol
Pasi Eerikainen, Emil Holmstrom - Ludwig van Beethoven, Bela Bartok, Magnus Lindberg: Sonatas (2015)

Pasi Eerikäinen, Emil Holmström - Beethoven, Lindberg, Bartók: Sonatas (2015)
EAC | FLAC | Image (Cue&Log) ~ 254 Mb | Mp3 (CBR320) ~ 161 Mb | Scans included
Genre: Classical | Label: Alba Records | # ABCD 379 | Time: 01:07:44

Sonatas includes works by Ludwig van Beethoven, Béla Bartók and Magnus Lindberg performed by pianist Pasi Eerikäinen and violin player Emil Holmström - Beethoven’s titanic Violin Sonata No. 9, Op.47, the Kreutzer Sonata, Hungarian composer Béla Bartók’s Violin Sonata No. 2, one of the most compelling creations of the composer’s avant-garde period. Sonatas, a world premiere on this recording, is a relatively early work by the Finnish Magnus Lindberg. In this work, the composer’s influence all hail from traditional musical traditions – German, French and Italian – though instead of fixating on Baroque or Classical styles, Lindberg takes inspiration from notable 20th-century composers. Pasi Eerikäinen plays first violin with the Finnish Radio Symphony Orchestra. Emil Holmström has a particular interest in the avant garde, be it Ferrucio Busoni, the Second Viennese School or electroacoustic music, which Holmström regularly performs as a member of the defunensemble.

Pasi Eerikainen, Emil Holmstrom - Ludwig van Beethoven, Bela Bartok, Magnus Lindberg: Sonatas (2015)

Pasi Eerikäinen, violin; Emil Holmström, piano


Tracklist:

Béla Bartók (1881-1945)
01. Deuxième Sonate (en 2 mouvements), BB 85 (20:58)

Magnus Lindberg (b.1958)
02. Sonatas: Mäßig - aussi léger que possible - Molto agitato (09:58)

Ludwig van Beethoven (1770-1827)
Sonata No.8, Op.47 'Kreutzer':
03. I. Adagio sostenuto - Presto (13:55)
04. II. Andante con variazioni (14:22)
05. III. Presto (08:29)


Exact Audio Copy V1.0 beta 3 from 29. August 2011

EAC extraction logfile from 8. July 2015, 8:44

Pasi Eerikäinen, Emil Holmström / Beethoven, Lindberg, Bartok - Sonatas

Used drive : HL-DT-STDVDRAM GU70N Adapter: 0 ID: 0

Read mode : Secure
Utilize accurate stream : Yes
Defeat audio cache : Yes
Make use of C2 pointers : No

Read offset correction : 48
Overread into Lead-In and Lead-Out : No
Fill up missing offset samples with silence : Yes
Delete leading and trailing silent blocks : No
Null samples used in CRC calculations : Yes
Used interface : Native Win32 interface for Win NT & 2000

Used output format : User Defined Encoder
Selected bitrate : 128 kBit/s
Quality : High
Add ID3 tag : No
Command line compressor : C:\Program Files (x86)\Exact Audio Copy\Flac\flac.exe
Additional command line options : -V -8 -T "Date=%year%" -T "Genre=%genre%" %source%


TOC of the extracted CD

Track | Start | Length | Start sector | End sector
––––––––––––––––––––––––––––-
1 | 0:00.00 | 20:58.23 | 0 | 94372
2 | 20:58.23 | 9:58.19 | 94373 | 139241
3 | 30:56.42 | 13:55.69 | 139242 | 201935
4 | 44:52.36 | 14:22.17 | 201936 | 266602
5 | 59:14.53 | 8:29.31 | 266603 | 304808


Range status and errors

Selected range

Filename C:\temp\Beethoven, Lindberg, Bartok - Sonatas - Holmstrom, Eerikainen\Beethoven, Lindberg, Bartok - Sonatas.wav

Peak level 99.7 %
Extraction speed 2.2 X
Range quality 100.0 %
Test CRC 73AEE58C
Copy CRC 73AEE58C
Copy OK

No errors occurred


AccurateRip summary

Track 1 not present in database
Track 2 not present in database
Track 3 not present in database
Track 4 not present in database
Track 5 not present in database

None of the tracks are present in the AccurateRip database

End of status report

==== Log checksum 10AF9C53835FB7BA3D197DCC292F92E18FFDA415D6B62343709A11663C2BBFA2 ====

foobar2000 1.2 / Dynamic Range Meter 1.1.1
log date: 2016-04-07 13:14:23

––––––––––––––––––––––––––––––––––––––––
Analyzed: Pasi Eerikainen, Emil Holmstrom / Beethoven, Lindberg, Bartok - Sonatas
––––––––––––––––––––––––––––––––––––––––

DR Peak RMS Duration Track
––––––––––––––––––––––––––––––––––––––––
DR16 -0.03 dB -23.31 dB 20:58 01-Bela Bartok: Deuxieme Sonate, BB 85
DR15 -3.05 dB -22.68 dB 9:58 02-Magnus Lindberg: Sonatas
DR14 -0.65 dB -20.96 dB 13:56 03-Ludwig van Beethoven: Sonata No.8, Op.47 'Kreutzer' - I. Adagio sostenuto - Presto
DR14 -9.27 dB -28.50 dB 14:22 04-Ludwig van Beethoven: Sonata No.8, Op.47 'Kreutzer' - II. Andante con variazioni
DR13 -2.15 dB -21.33 dB 8:29 05-Ludwig van Beethoven: Sonata No.8, Op.47 'Kreutzer' - III. Presto
––––––––––––––––––––––––––––––––––––––––

Number of tracks: 5
Official DR value: DR15

Samplerate: 44100 Hz
Channels: 2
Bits per sample: 16
Bitrate: 512 kbps
Codec: FLAC
================================================================================

Pasi Eerikainen, Emil Holmstrom - Ludwig van Beethoven, Bela Bartok, Magnus Lindberg: Sonatas (2015)

All thanks to original releaser

More interesting music in My Blog