Tags
Language
Tags

Electric Light Orchestra - Live In Guildford (1972)

Posted By: v3122
Electric Light Orchestra - Live In Guildford (1972)

Electric Light Orchestra - Live In Guildford (1972)
EAC | Flac(Image) + Cue + Log & MP3 CBR 320Kbps
Bootleg | ~ 359 or 132 Mb
Progressive Rock

~ Live at the Civic Hall, Guildford, 7th May 1972 ~

This bootleg was mentioned in the liner notes to the remastered version of ELO's first album as only existing within a private collection - this is that bootleg. It has been released into trading circles since the remastered version of that album was released.
This is the only known complete concert bootleg which includes Roy Wood in the lineup.
Dear Elaine was never officially released by the Electric Light Orchestra, though Roy Wood did separately release it officially.

~ musicbrainz.org
Electric Light Orchestra - Live In Guildford (1972):

Tracklist:

1. 10538 Overture - 6.41
2. Queen Of The Hours - 6.58
3. From The Sun To The World (Boogie #1) - 9.44
4. First Movement (Jumping Biz) - 3.57
5. Dear Elaine - 5.52
6. Great Balls Of Fire - 6.32
7. In Old England Town (Boogie # 2) - 6.54

8. Roll Over Beethoven (TV in Concert, Santa Monica, 1973) - 8.54

Jeff Lynne
Roy Wood
Bev Bevan
Steve Woolam
Bill Hunt


Exact Audio Copy V0.99 prebeta 4 from 23. January 2008

Отчёт EAC об извлечении, выполненном 29. ноября 2010, 11:12

Electric Light Orchestra / Live In Guildford

Дисковод: HL-DT-STDVDRAM GSA-E40N Adapter: 2 ID: 0

Режим чтения : Достоверность
Использование точного потока : Да
Отключение кэша аудио : Да
Использование указателей C2 : Нет

Коррекция смещения при чтении : 667
Способность читать области Lead-in и Lead-out : Нет
Заполнение пропущенных сэмплов тишиной : Да
Удаление блоков с тишиной в начале и конце : Нет
При вычислениях CRC использовались нулевые сэмплы : Да
Интерфейс : Встроенный Win32-интерфейс для Win NT/2000
Обработка зазоров : Добавлено к предыдущему треку

Выходной формат : Пользовательский кодировщик
Выбранный битрейт : 128 kBit/s
Качество : Высокий
Добавление ID3-тэга : Нет
Утилита сжатия : C:\Program Files\Exact Audio Copy\FLAC\FLAC.EXE
Дополнительные параметры : -6 -V -T "ARTIST=%a" -T "TITLE=%t" -T "ALBUM=%g" -T "DATE=%y" -T "TRACKNUMBER=%n" -T "GENRE=%m" -T "COMMENT=%e" %s -o %d


TOC извлечённого CD

Трек | Старт | Длительность | Начальный сектор | Конечный сектор
––––––––––––––––––––––––––––––––––-
1 | 0:00.00 | 6:41.04 | 0 | 30078
2 | 6:41.04 | 6:58.32 | 30079 | 61460
3 | 13:39.36 | 9:44.03 | 61461 | 105263
4 | 23:23.39 | 3:56.66 | 105264 | 123029
5 | 27:20.30 | 5:51.71 | 123030 | 149425
6 | 33:12.26 | 6:31.66 | 149426 | 178816
7 | 39:44.17 | 6:54.35 | 178817 | 209901
8 | 46:38.52 | 8:54.65 | 209902 | 250016


Трек 1

Имя файла G:\ELO - All Live lossless\1972 - Live In Guildford (bootleg)\01 - 10538 Overture.wav

Длина предзазора 0:00:02.00

Пиковый уровень 99.0 %
Качество трека 100.0 %
CRC теста 53B25712
CRC копии 53B25712
Копирование… OK

Трек 2

Имя файла G:\ELO - All Live lossless\1972 - Live In Guildford (bootleg)\02 - Queen Of The Hours.wav

Пиковый уровень 98.0 %
Качество трека 100.0 %
CRC теста E2715543
CRC копии E2715543
Копирование… OK

Трек 3

Имя файла G:\ELO - All Live lossless\1972 - Live In Guildford (bootleg)\03 - From The Sun To The World (Boogie # 1).wav

Пиковый уровень 99.0 %
Качество трека 98.0 %
CRC теста 85651E1C
CRC копии 85651E1C
Копирование… OK

Трек 4

Имя файла G:\ELO - All Live lossless\1972 - Live In Guildford (bootleg)\04 - First Movement (Jumping Biz).wav

Пиковый уровень 96.0 %
Качество трека 99.0 %
CRC теста 1E1A05B1
CRC копии 1E1A05B1
Копирование… OK

Трек 5

Имя файла G:\ELO - All Live lossless\1972 - Live In Guildford (bootleg)\05 - Dear Elaine.wav

Пиковый уровень 100.0 %
Качество трека 100.0 %
CRC теста 5B8C624F
CRC копии 5B8C624F
Копирование… OK

Трек 6

Имя файла G:\ELO - All Live lossless\1972 - Live In Guildford (bootleg)\06 - Great Balls Of Fire.wav

Пиковый уровень 97.0 %
Качество трека 98.0 %
CRC теста 7B553EA3
CRC копии 7B553EA3
Копирование… OK

Трек 7

Имя файла G:\ELO - All Live lossless\1972 - Live In Guildford (bootleg)\07 - In Old England Town (Boogie # 2).wav

Пиковый уровень 98.0 %
Качество трека 99.0 %
CRC теста 7377342A
CRC копии 7377342A
Копирование… OK

Трек 8

Имя файла G:\ELO - All Live lossless\1972 - Live In Guildford (bootleg)\08 - Roll Over Beethoven (TV in Concert, Santa Monica 1973).wav

Пиковый уровень 96.0 %
Качество трека 98.0 %
CRC теста 5699F1BB
CRC копии 5699F1BB
Копирование… OK

Ошибок не произошло

Конец отчёта


[CUETools log; Date: 06.05.2021 15:50:32; Version: 2.1.4]
[AccurateRip ID: 0010e81c-007047b8-5f0d0508] disk not present in database.

Track Peak [ CRC32 ] [W/O NULL] [ LOG ]
– 100,0 [DDEBD1D8] [85F193ED]
01 100,0 [53B25712] [24336DDD] CRC32
02 100,0 [E2715543] [EF57232A] CRC32
03 100,0 [85651E1C] [EEF4778F] CRC32
04 100,0 [1E1A05B1] [BE9E34E7] CRC32
05 100,0 [5B8C624F] [3D8DCD2E] CRC32
06 100,0 [7B553EA3] [D5EE0CD7] CRC32
07 100,0 [7377342A] [CEBDB796] CRC32
08 100,0 [5699F1BB] [B06259CA] CRC32


All thanks go to the original releaser

Electric Light Orchestra in my Blog

Download Electric Light Orchestra - Live In Guildford (1972):