Subcategories

Electric Light Orchestra - Live USA (1976) Re-up

Posted By: v3122
Electric Light Orchestra - Live USA (1976) Re-up

Electric Light Orchestra - Live USA (1976)
EAC | Flac(Image) + Cue + Log & MP3 CBR 320Kbps
Imtrar, imt 900.045 | ~ 329 or 102 Mb | Scans(jpg) -> 8.65 Mb
Progressive Rock | Unofficial Release

Recorded Live in San Francisco, U.S.A. in 1976 ~

Electric Light Orchestra - Live USA (1976):

Electric Light Orchestra - Live USA (1976) Re-up

Tracklist:

01. Poker - 3.46
02. Nightrider - 4.23
03. Eldorado Overture - 2.04
04. Can't Get It Out Of My Head - 4.00
05. Poor Boy - 2.45
06. Illusion In G Major - 2.28
07. Eldorado Finale - 4.11
08. Strange Magic - 3.08
09. 10538 Overture - 2.48
10. Do Ya - 2.17
11. Evil Woman - 4.25
12. Roll Over Beethoven - 6.00

Converted to Image (CUETools 2.1.4)

Exact Audio Copy V0.99 prebeta 4 from 23. January 2008

Отчёт EAC об извлечении, выполненном 29. ноября 2010, 0:09

Electric Light Orchestra / Live In San Francisco (Live USA)

Дисковод: HL-DT-STDVDRAM GSA-E40N Adapter: 2 ID: 0

Режим чтения : Достоверность
Использование точного потока : Да
Отключение кэша аудио : Да
Использование указателей C2 : Нет

Коррекция смещения при чтении : 667
Способность читать области Lead-in и Lead-out : Нет
Заполнение пропущенных сэмплов тишиной : Да
Удаление блоков с тишиной в начале и конце : Нет
При вычислениях CRC использовались нулевые сэмплы : Да
Интерфейс : Встроенный Win32-интерфейс для Win NT/2000
Обработка зазоров : Добавлено к предыдущему треку

Выходной формат : Пользовательский кодировщик
Выбранный битрейт : 128 kBit/s
Качество : Высокий
Добавление ID3-тэга : Нет
Утилита сжатия : C:\Program Files\Exact Audio Copy\FLAC\FLAC.EXE
Дополнительные параметры : -6 -V -T "ARTIST=%a" -T "TITLE=%t" -T "ALBUM=%g" -T "DATE=%y" -T "TRACKNUMBER=%n" -T "GENRE=%m" -T "COMMENT=%e" %s -o %d


TOC извлечённого CD

Трек | Старт | Длительность | Начальный сектор | Конечный сектор
––––––––––––––––––––––––––––––––––-
1 | 0:00.00 | 3:37.01 | 0 | 16275
2 | 3:37.01 | 4:31.18 | 16276 | 36618
3 | 8:08.19 | 2:04.42 | 36619 | 45960
4 | 10:12.61 | 4:00.01 | 45961 | 63961
5 | 14:12.62 | 2:44.08 | 63962 | 76269
6 | 16:56.70 | 2:27.73 | 76270 | 87367
7 | 19:24.68 | 4:09.23 | 87368 | 106065
8 | 23:34.16 | 3:07.59 | 106066 | 120149
9 | 26:42.00 | 2:50.37 | 120150 | 132936
10 | 29:32.37 | 2:15.66 | 132937 | 143127
11 | 31:48.28 | 4:28.12 | 143128 | 163239
12 | 36:16.40 | 6:00.70 | 163240 | 190309


Трек 1

Имя файла G:\ELO - All Live lossless\1976 - Live In San Francisco (bootleg)\01 - Poker.wav

Длина предзазора 0:00:02.00

Пиковый уровень 95.2 %
Качество трека 100.0 %
CRC теста 2B189179
CRC копии 2B189179
Копирование… OK

Трек 2

Имя файла G:\ELO - All Live lossless\1976 - Live In San Francisco (bootleg)\02 - Nightrider.wav

Пиковый уровень 99.1 %
Качество трека 100.0 %
CRC теста 0AB6ADC1
CRC копии 0AB6ADC1
Копирование… OK

Трек 3

Имя файла G:\ELO - All Live lossless\1976 - Live In San Francisco (bootleg)\03 - Eldorado Overture.wav

Пиковый уровень 98.5 %
Качество трека 100.0 %
CRC теста E64EB6BD
CRC копии E64EB6BD
Копирование… OK

Трек 4

Имя файла G:\ELO - All Live lossless\1976 - Live In San Francisco (bootleg)\04 - Can't Get It Out Of My Head.wav

Пиковый уровень 98.1 %
Качество трека 99.9 %
CRC теста A156C862
CRC копии A156C862
Копирование… OK

Трек 5

Имя файла G:\ELO - All Live lossless\1976 - Live In San Francisco (bootleg)\05 - Poor Boy.wav

Пиковый уровень 74.3 %
Качество трека 98.5 %
CRC теста 1E305E2F
CRC копии 1E305E2F
Копирование… OK

Трек 6

Имя файла G:\ELO - All Live lossless\1976 - Live In San Francisco (bootleg)\06 - Illusion In G Major.wav

Пиковый уровень 71.3 %
Качество трека 100.0 %
CRC теста 28D61EAB
CRC копии 28D61EAB
Копирование… OK

Трек 7

Имя файла G:\ELO - All Live lossless\1976 - Live In San Francisco (bootleg)\07 - Eldorado Finale.wav

Пиковый уровень 77.4 %
Качество трека 100.0 %
CRC теста 9A29F516
CRC копии 9A29F516
Копирование… OK

Трек 8

Имя файла G:\ELO - All Live lossless\1976 - Live In San Francisco (bootleg)\08 - Strange Magic.wav

Пиковый уровень 64.8 %
Качество трека 100.0 %
CRC теста 38945C5D
CRC копии 38945C5D
Копирование… OK

Трек 9

Имя файла G:\ELO - All Live lossless\1976 - Live In San Francisco (bootleg)\09 - 10538 Overture.wav

Пиковый уровень 61.5 %
Качество трека 100.0 %
CRC теста 45365D27
CRC копии 45365D27
Копирование… OK

Трек 10

Имя файла G:\ELO - All Live lossless\1976 - Live In San Francisco (bootleg)\10 - Do Ya.wav

Пиковый уровень 74.9 %
Качество трека 100.0 %
CRC теста 4F8EE1F6
CRC копии 4F8EE1F6
Копирование… OK

Трек 11

Имя файла G:\ELO - All Live lossless\1976 - Live In San Francisco (bootleg)\11 - Evil Woman.wav

Пиковый уровень 84.3 %
Качество трека 100.0 %
CRC теста 39D0A391
CRC копии 39D0A391
Копирование… OK

Трек 12

Имя файла G:\ELO - All Live lossless\1976 - Live In San Francisco (bootleg)\12 - Roll Over Beethoven.wav

Длина предзазора 0:00:02.00

Пиковый уровень 88.1 %
Качество трека 100.0 %
CRC теста E97C4D21
CRC копии E97C4D21
Копирование… OK

Ошибок не произошло

Конец отчёта



[CUETools log; Date: 11.02.2018 5:58:13; Version: 2.1.5]
[AccurateRip ID: 00120a4f-00a791c2-9609e90c] disk not present in database.

Track Peak [ CRC32 ] [W/O NULL] [ LOG ]
– 99,1 [CF516E99] [D43B2809]
01 95,2 [2B189179] [49F452F1] CRC32
02 99,1 [0AB6ADC1] [E3975162] CRC32
03 98,5 [E64EB6BD] [04438B61] CRC32
04 98,1 [A156C862] [4A4D84F9] CRC32
05 74,3 [8DFBA5CB] [56A8CDD1] [1E305E2F]
06 71,3 [28D61EAB] [407D59C7] CRC32
07 77,4 [9A29F516] [195E7BE9] CRC32
08 64,8 [38945C5D] [9227234B] CRC32
09 61,5 [45365D27] [F710A0F1] CRC32
10 74,9 [4F8EE1F6] [6A6AD426] CRC32
11 84,3 [39D0A391] [35CF7C59] CRC32
12 88,1 [E97C4D21] [E4197C64] CRC32


Electric Light Orchestra - Live USA (1976) Re-up

All thanks go to the original releaser

Electric Light Orchestra in my Blog

Download Electric Light Orchestra - Live USA (1976):