Subcategories

Electric Light Orchestra - Live in Boston (1976)

Posted By: v3122
Electric Light Orchestra - Live in Boston (1976)

Electric Light Orchestra - Live in Boston (1976)
EAC | Flac(Image) + Cue + Log & MP3 CBR 320Kbps
2CD | Label: Unknown | ~ 714 or 215 Mb | Artwork(jpg) -> 6.92 Mb
Progressive Rock | Unofficial Release

~ Live at Orpheum Theatre, Boston, MA - 19th March 1976 ~

Electric Light Orchestra - Live in Boston (1976):

Tracklist CD1:

01 Intro
02 Fire On High
03 Poker
04 Nightrider
05 King Of The Universe
06 instrumental
07 Bluebird Is Dead
08 cello solo
09 Showdown

Exact Audio Copy V0.99 prebeta 4 from 23. January 2008

Отчёт EAC об извлечении, выполненном 20. мая 2010, 17:12

Electric Light Orchestra / Live in Boston 1976.03.19.

Дисковод: HL-DT-STDVDRAM GSA-E40N Adapter: 1 ID: 0

Режим чтения : Достоверность
Использование точного потока : Да
Отключение кэша аудио : Да
Использование указателей C2 : Нет

Коррекция смещения при чтении : 667
Способность читать области Lead-in и Lead-out : Нет
Заполнение пропущенных сэмплов тишиной : Да
Удаление блоков с тишиной в начале и конце : Нет
При вычислениях CRC использовались нулевые сэмплы : Да
Интерфейс : Установленный внешний ASPI-интерфейс
Обработка зазоров : Добавлено к предыдущему треку

Выходной формат : Пользовательский кодировщик
Выбранный битрейт : 768 kBit/s
Качество : Высокий
Добавление ID3-тэга : Нет
Утилита сжатия : C:\Program Files\Exact Audio Copy\FLAC\FLAC.EXE
Дополнительные параметры : -6 -V -T "ARTIST=%a" -T "TITLE=%t" -T "ALBUM=%g" -T "DATE=%y" -T "TRACKNUMBER=%n" -T "GENRE=%m" -T "COMMENT=%e" %s -o %d


TOC извлечённого CD

Трек | Старт | Длительность | Начальный сектор | Конечный сектор
––––––––––––––––––––––––––––––––––-
1 | 0:00.00 | 1:14.09 | 0 | 5558
2 | 1:14.09 | 4:03.63 | 5559 | 23846
3 | 5:17.72 | 4:03.14 | 23847 | 42085
4 | 9:21.11 | 4:37.31 | 42086 | 62891
5 | 13:58.42 | 3:18.02 | 62892 | 77743
6 | 17:16.44 | 2:39.11 | 77744 | 89679
7 | 19:55.55 | 6:24.42 | 89680 | 118521
8 | 26:20.22 | 8:05.16 | 118522 | 154912
9 | 34:25.38 | 4:38.25 | 154913 | 175787


Трек 1

Имя файла H:\ELO - Live in Boston 03.19.1976\01 - Intro.wav

Длина предзазора 0:00:02.00

Пиковый уровень 100.0 %
Качество трека 100.0 %
CRC теста 3931BCB2
CRC копии 3931BCB2
Копирование… OK

Трек 2

Имя файла H:\ELO - Live in Boston 03.19.1976\02 - Fire On High.wav

Пиковый уровень 100.0 %
Качество трека 100.0 %
CRC теста AB3B0B52
CRC копии AB3B0B52
Копирование… OK

Трек 3

Имя файла H:\ELO - Live in Boston 03.19.1976\03 - Poker.wav

Пиковый уровень 100.0 %
Качество трека 100.0 %
CRC теста CABE1320
CRC копии CABE1320
Копирование… OK

Трек 4

Имя файла H:\ELO - Live in Boston 03.19.1976\04 - Nightrider.wav

Пиковый уровень 100.0 %
Качество трека 100.0 %
CRC теста 9D3A2037
CRC копии 9D3A2037
Копирование… OK

Трек 5

Имя файла H:\ELO - Live in Boston 03.19.1976\05 - King Of Universe.wav

Пиковый уровень 100.0 %
Качество трека 100.0 %
CRC теста FFAF84F1
CRC копии FFAF84F1
Копирование… OK

Трек 6

Имя файла H:\ELO - Live in Boston 03.19.1976\06 - Instrumental.wav

Пиковый уровень 100.0 %
Качество трека 100.0 %
CRC теста F253E6DB
CRC копии F253E6DB
Копирование… OK

Трек 7

Имя файла H:\ELO - Live in Boston 03.19.1976\07 - Bluebird Is Dead.wav

Пиковый уровень 100.0 %
Качество трека 100.0 %
CRC теста A511A592
CRC копии A511A592
Копирование… OK

Трек 8

Имя файла H:\ELO - Live in Boston 03.19.1976\08 - Cello solo.wav

Пиковый уровень 100.0 %
Качество трека 100.0 %
CRC теста 956E81C9
CRC копии 956E81C9
Копирование… OK

Трек 9

Имя файла H:\ELO - Live in Boston 03.19.1976\09 - Showdown.wav

Пиковый уровень 100.0 %
Качество трека 100.0 %
CRC теста 2D755B18
CRC копии 2D755B18
Копирование… OK

Ошибок не произошло

Конец отчёта


[CUETools log; Date: 05.09.2020 13:55:59; Version: 2.1.4]
[AccurateRip ID: 000b75b7-0057e3d9-73092709] disk not present in database.

Track Peak [ CRC32 ] [W/O NULL] [ LOG ]
– 100,0 [12D60B79] [EE27B6A4]
01 100,0 [3931BCB2] [22600275] CRC32
02 100,0 [AB3B0B52] [401406EE] CRC32
03 100,0 [CABE1320] [F582B41A] CRC32
04 100,0 [9D3A2037] [658315B3] CRC32
05 100,0 [FFAF84F1] [2BF2636B] CRC32
06 100,0 [F253E6DB] [99BAD19E] CRC32
07 100,0 [A511A592] [48F2BC03] CRC32
08 100,0 [956E81C9] [46073B02] CRC32
09 100,0 [2D755B18] [7AEA29D6] CRC32


Tracklist CD2:

01 Eldorado Overture
02 Can't Get It Out Of My Head
03 Poor Boy (The Greenwood) (beginning cut)
04 Illusions In G Major
05 Eldorado
06 violin solo
07 Strange Magic
08 10538 Overture
09 Do Ya
10 Evil Woman
11 Ma-Ma-Ma Belle
12 E: Roll Over Beethoven

Exact Audio Copy V0.99 prebeta 4 from 23. January 2008

Отчёт EAC об извлечении, выполненном 20. мая 2010, 17:42

Electric Light Orchestra / Live in Boston 1976.03.19.

Дисковод: HL-DT-STDVDRAM GSA-E40N Adapter: 1 ID: 0

Режим чтения : Достоверность
Использование точного потока : Да
Отключение кэша аудио : Да
Использование указателей C2 : Нет

Коррекция смещения при чтении : 667
Способность читать области Lead-in и Lead-out : Нет
Заполнение пропущенных сэмплов тишиной : Да
Удаление блоков с тишиной в начале и конце : Нет
При вычислениях CRC использовались нулевые сэмплы : Да
Интерфейс : Установленный внешний ASPI-интерфейс
Обработка зазоров : Добавлено к предыдущему треку

Выходной формат : Пользовательский кодировщик
Выбранный битрейт : 768 kBit/s
Качество : Высокий
Добавление ID3-тэга : Нет
Утилита сжатия : C:\Program Files\Exact Audio Copy\FLAC\FLAC.EXE
Дополнительные параметры : -6 -V -T "ARTIST=%a" -T "TITLE=%t" -T "ALBUM=%g" -T "DATE=%y" -T "TRACKNUMBER=%n" -T "GENRE=%m" -T "COMMENT=%e" %s -o %d


TOC извлечённого CD

Трек | Старт | Длительность | Начальный сектор | Конечный сектор
––––––––––––––––––––––––––––––––––-
1 | 0:00.00 | 2:01.55 | 0 | 9129
2 | 2:01.55 | 3:45.06 | 9130 | 26010
3 | 5:46.61 | 2:37.36 | 26011 | 37821
4 | 8:24.22 | 2:25.29 | 37822 | 48725
5 | 10:49.51 | 4:58.72 | 48726 | 71147
6 | 15:48.48 | 9:43.60 | 71148 | 114932
7 | 25:32.33 | 4:04.16 | 114933 | 133248
8 | 29:36.49 | 2:49.58 | 133249 | 145981
9 | 32:26.32 | 2:21.72 | 145982 | 156628
10 | 34:48.29 | 4:59.10 | 156629 | 179063
11 | 39:47.39 | 5:24.70 | 179064 | 203433
12 | 45:12.34 | 6:54.25 | 203434 | 234508


Трек 1

Имя файла H:\ELO - Live in Boston 03.19.1976\01 - Eldorado Overture.wav

Длина предзазора 0:00:02.00

Пиковый уровень 100.0 %
Качество трека 100.0 %
CRC теста 47425A12
CRC копии 47425A12
Копирование… OK

Трек 2

Имя файла H:\ELO - Live in Boston 03.19.1976\02 - Can't Get It Out Of My Head.wav

Пиковый уровень 100.0 %
Качество трека 100.0 %
CRC теста C5652647
CRC копии C5652647
Копирование… OK

Трек 3

Имя файла H:\ELO - Live in Boston 03.19.1976\03 - Poor Boy (Greenwood).wav

Пиковый уровень 100.0 %
Качество трека 100.0 %
CRC теста 9A030C17
CRC копии 9A030C17
Копирование… OK

Трек 4

Имя файла H:\ELO - Live in Boston 03.19.1976\04 - Illusions in G Major.wav

Пиковый уровень 100.0 %
Качество трека 100.0 %
CRC теста AFE58AF9
CRC копии AFE58AF9
Копирование… OK

Трек 5

Имя файла H:\ELO - Live in Boston 03.19.1976\05 - Eldorado.wav

Пиковый уровень 100.0 %
Качество трека 100.0 %
CRC теста 3E119F39
CRC копии 3E119F39
Копирование… OK

Трек 6

Имя файла H:\ELO - Live in Boston 03.19.1976\06 - Violin solo.wav

Пиковый уровень 100.0 %
Качество трека 100.0 %
CRC теста 23464692
CRC копии 23464692
Копирование… OK

Трек 7

Имя файла H:\ELO - Live in Boston 03.19.1976\07 - Strange Magic.wav

Пиковый уровень 100.0 %
Качество трека 100.0 %
CRC теста 2213E7F6
CRC копии 2213E7F6
Копирование… OK

Трек 8

Имя файла H:\ELO - Live in Boston 03.19.1976\08 - 10538 Overture.wav

Пиковый уровень 100.0 %
Качество трека 100.0 %
CRC теста 74E5522C
CRC копии 74E5522C
Копирование… OK

Трек 9

Имя файла H:\ELO - Live in Boston 03.19.1976\09 - Do Ya.wav

Пиковый уровень 100.0 %
Качество трека 100.0 %
CRC теста 01F70BCE
CRC копии 01F70BCE
Копирование… OK

Трек 10

Имя файла H:\ELO - Live in Boston 03.19.1976\10 - Evil Woman.wav

Пиковый уровень 100.0 %
Качество трека 100.0 %
CRC теста C5CA4435
CRC копии C5CA4435
Копирование… OK

Трек 11

Имя файла H:\ELO - Live in Boston 03.19.1976\11 - Ma-Ma Belle.wav

Пиковый уровень 100.0 %
Качество трека 100.0 %
CRC теста 9DF1FF98
CRC копии 9DF1FF98
Копирование… OK

Трек 12

Имя файла H:\ELO - Live in Boston 03.19.1976\12 - Roll Over Beethoven.wav

Пиковый уровень 100.0 %
Качество трека 100.0 %
CRC теста C4A4F403
CRC копии C4A4F403
Копирование… OK

Ошибок не произошло

Конец отчёта


[CUETools log; Date: 05.09.2020 13:59:07; Version: 2.1.4]
[AccurateRip ID: 0014c2fd-00c85258-a50c360c] disk not present in database.

Track Peak [ CRC32 ] [W/O NULL] [ LOG ]
– 100,0 [CFF724CF] [A7012C79]
01 100,0 [47425A12] [53528F57] CRC32
02 100,0 [C5652647] [734BC90B] CRC32
03 100,0 [9A030C17] [3F4B9874] CRC32
04 100,0 [AFE58AF9] [705C77C1] CRC32
05 100,0 [3E119F39] [BB4E157B] CRC32
06 100,0 [23464692] [7C97F623] CRC32
07 100,0 [2213E7F6] [E2987A61] CRC32
08 100,0 [74E5522C] [6771F868] CRC32
09 100,0 [01F70BCE] [1BF5F47C] CRC32
10 100,0 [C5CA4435] [1A552A91] CRC32
11 100,0 [9DF1FF98] [ADB042F9] CRC32
12 100,0 [C4A4F403] [9121BED9] CRC32


Electric Light Orchestra - Live in Boston (1976)

All thanks go to the original releaser

Electric Light Orchestra in my Blog

Download Electric Light Orchestra - Live in Boston (1976):