Subcategories

Elton John - Ice On Fire (1985) [Remastered]

Posted By: BlondStyle
Elton John - Ice On Fire (1985) [Remastered]

Elton John - Ice On Fire (1985) [Remastered]
Pop, New Wave | EAC Rip | FLAC + CUE + LOG + Cover | 64:20 Min | 455,40 Mb
Label: Geffen (US/Canada)/Rocket Records | Released: November 1985

Ice on Fire is the nineteenth studio album by British singer/songwriter Elton John, recorded at Sol Studios and released in 1985. It was the first album since Blue Moves produced by Elton's classic producer, Gus Dudgeon. But it was met with little praise, and only reached number 48 on the US charts, although it reached #3 in the UK. George Michael appears on two tracks on the album: "Nikita" and "Wrap Her Up".

TrackList:

01. This Town - 3:56
02. Cry To Heaven - 4:16
03. Soul Glove - 3:31
04. Nikita - 5:43
05. Too Young - 5:12
06. Wrap Her Up (duet with George Michael) - 6:21
07. Satellite - 4:37
08. Tell Me What The Papers Say - 3:40
09. Candy By The Pound - 3:57
10. Shoot Down The Moon - 5:09

Bonus Tracks:

11. The Man Who Never Died (1985 Remix by Gus Dudgeon) - 6:12
12. Restless (Live) - 4:25
13. Sorry Seems to Be the Hardest Word (Live) - 3:23
14. I'm Still Standing (Live) - 4:52

Exact Audio Copy V0.99 prebeta 4 from 23. January 2008

Отчёт EAC об извлечении, выполненном 4. мая 2008, 21:29

Elton John / Ice On Fire (Remastered)

Дисковод: ATAPI DVD DW 8X16X8X16 Adapter: 0 ID: 2

Режим чтения : Достоверность
Использование точного потока : Да
Отключение кэша аудио : Да
Использование указателей C2 : Нет

Коррекция смещения при чтении : 618
Способность читать области Lead-in и Lead-out : Нет
Заполнение пропущенных сэмплов тишиной : Да
Удаление блоков с тишиной в начале и конце : Нет
При вычислениях CRC использовались нулевые сэмплы : Нет
Интерфейс : Установленный внешний ASPI-интерфейс

Выходной формат : Пользовательский кодировщик
Выбранный битрейт : 1024 kBit/s
Качество : Высокий
Добавление ID3-тэга : Нет
Утилита сжатия : C:\Program Files\Exact Audio Copy\Flac\flac.exe
Дополнительные параметры : -6 -V -T "ARTIST=%a" -T "TITLE=%t" -T "ALBUM=%g" -T "DATE=%y" -T "TRACKNUMBER=%n" -T "GENRE=%m" -T "COMMENT=%e" %s -o %d


TOC извлечённого CD

Трек | Старт | Длительность | Начальный сектор | Конечный сектор
––––––––––––––––––––––––––––––––––-
1 | 0:00.00 | 3:56.40 | 0 | 17739
2 | 3:56.40 | 4:16.52 | 17740 | 36991
3 | 8:13.17 | 3:31.20 | 36992 | 52836
4 | 11:44.37 | 5:43.18 | 52837 | 78579
5 | 17:27.55 | 5:12.70 | 78580 | 102049
6 | 22:40.50 | 6:21.37 | 102050 | 130661
7 | 29:02.12 | 4:37.60 | 130662 | 151496
8 | 33:39.72 | 3:40.28 | 151497 | 168024
9 | 37:20.25 | 3:56.72 | 168025 | 185796
10 | 41:17.22 | 5:09.13 | 185797 | 208984
11 | 46:26.35 | 5:12.67 | 208985 | 232451
12 | 51:39.27 | 4:25.38 | 232452 | 252364
13 | 56:04.65 | 3:23.35 | 252365 | 267624
14 | 59:28.25 | 4:52.37 | 267625 | 289561


Характеристики диапазона извлечения и сообщения об ошибках

Выбранный диапазон

Имя файла C:\Documents and Settings\OEM\Мои документы\Мои аудиозаписи\Elton John - Ice On Fire (Remastered).wav

Пиковый уровень 97.6 %
Качество диапазона 100.0 %
CRC копии 54AA79BB
Копирование… OK

Ошибок не произошло

Конец отчёта


All Download Links
are Here


Password: www.AvaxHome.ru

P.S.
Sorry guys for this secrecy but such way will help to save the links from deleting
and it much more better than crappy and greedy so called "linkprotectors".

No Mirror Please