Tags
Language
Tags

Elvis Costello - Secret, Profane & Sugarcane (2009) Japanese Edition

Posted By: Designol
Elvis Costello - Secret, Profane & Sugarcane (2009) Japanese Edition

Elvis Costello - Secret, Profane & Sugarcane (2009) Japanese Edition
EAC | FLAC | Tracks (Cue&Log) ~ 377 Mb | Mp3 (CBR320) ~ 162 Mb
Label: Hear Music | # UCCO-3012 | Time: 00:59:36 | Scans included
Singer/Songwriter, Americana, Country-Folk, Country-Rock

Secret, Profane & Sugarcane is the 2009 studio album by Elvis Costello. It was recorded in Nashville with American songwriter and producer T Bone Burnett, and released on 9 June 2009 on the Hear Music label. The album features bluegrass, Americana and country music along with Costello's familiar garrulous lyrics.

Elvis Costello has spent the back half of his career flitting from style to style, recording everything from opera to R&B, but he avoided the country-folk of 1986's King of America until 2009, when he teamed up with America producer (and fellow Coward Brother) T Bone Burnett for Secret, Profane & Sugarcane. By its very definition, country-folk seems straightforward, but the only thing simple about Secret is the speed of its recording. Costello and Burnett assembled an all-star acoustic string band – featuring Jerry Douglas on Dobro, Dennis Crouch on bass, Stuart Duncan on fiddle and banjo, and Jim Lauderdale on vocal harmonies – and cut the album in just three days, its swiftness similar to its knocked-out predecessor Momofuku. Secret, Profane & Sugarcane often bears its quick conception fetchingly, feeling loose-limbed and intimate, a record made simply because it's fun to play, a sentiment that can't quite be said of its songs. Surely, there are times where the humor is as riotous as those old Coward Brothers singles – Costello and Burnett have a ball on the bawdy travelogue "Sulphur to Sugarcane" and sweetly harmonize with Emmylou Harris on "The Crooked Line" – but Secret is frequently fussy, particularly on the songs Costello has carried over from his unfinished Hans Christian Andersen opera. The very presence of these songs ("How Deep Is the Red?," "She Was No Good," "She Handed Me a Mirror," "Red Cotton") suggests just how muddled Secret, Profane & Sugarcane is conceptually: it bounces all over the place, threading these stagebound tunes between a collaboration with Loretta Lynn and his take on "Down Among the Wine and Spirits," which he originally wrote for Ms. Loretta, a rollicking leftover from The Delivery Man ("Hidden Shame"), a cover of Bing Crosby's "Changing Partners," the Burnett co-writes, a few new songs, and a reworking of Elvis' old "Complicated Shadows." Despite the occasional stuffiness, there's a lot of good material here and it's all executed well, but it's hard not to shake the feeling that this is a collection of leftovers masquerading as a main course.

Review by Stephen Thomas Erlewine, Allmusic.com

He's the master of reinvention, but here Elvis Costello is back on familiar ground. Entrenched in bluegrass territory with long-time collaborator T Bone Burnett, who co-writes and produces, this collection of songs, including two originally written for Johnny Cash, was recorded over three days in Nashville. Costello's at times strained honk is warmed by the close harmonies of Jim Lauderdale and set against exquisite mandolin, soaring fiddle, double bass and accordion. Playing it so unusually safe is no bad thing for Costello; his songwriting remains impeccably tight and this peach of an album reveals a host of immediately enjoyable songs.

Review by Katie Toms, The Guardian

Elvis Costello - Secret, Profane & Sugarcane (2009) Japanese Edition



Tracklist:

01. Down Among the Wines and Spirits (3:12)
02. Complicated Shadows (2:53)
03. I Felt the Chill (4:00)
04. My All Time Doll (4:09)
05. Hidden Shame (4:15)
06. She Handed Me a Mirror (4:05)
07. I Dreamed of My Old Lover (2:36)
08. How Deep Is the Red? (3:48)
09. She Was No Good (3:47)
10. Sulphur to Sugarcane (6:00)
11. Red Cotton (5:44)
12. The Crooked Line (3:49)
13. Changing Partners (2:40)
14. Femme Fatale (3:49)
15. What Lewis Did Last (4:50)


Exact Audio Copy V1.3 from 2. September 2016

EAC extraction logfile from 11. September 2017, 19:07

Elvis Costello / Secret, Profane & Sugarcane (Japan SHM-CD)

Used drive : PLEXTOR CD-R PREMIUM Adapter: 1 ID: 1

Read mode : Secure
Utilize accurate stream : Yes
Defeat audio cache : Yes
Make use of C2 pointers : No

Read offset correction : 30
Overread into Lead-In and Lead-Out : No
Fill up missing offset samples with silence : Yes
Delete leading and trailing silent blocks : No
Null samples used in CRC calculations : Yes
Used interface : Native Win32 interface for Win NT & 2000
Gap handling : Appended to previous track

Used output format : User Defined Encoder
Selected bitrate : 768 kBit/s
Quality : High
Add ID3 tag : No
Command line compressor : C:\Program Files (x86)\Exact Audio Copy\FLAC\FLAC.EXE
Additional command line options : -6 -e -p -V -T "ARTIST=%artist%" -T "TITLE=%title%" -T "ALBUM=%albumtitle%" -T "DATE=%year%" -T "TRACKNUMBER=%tracknr%" -T "GENRE=%genre%" -T "PERFORMER=%albuminterpret%" -T "COMPOSER=%composer%" %haslyrics%–tag-from-file=LYRICS="%lyricsfile%"%haslyrics% -T "ALBUMARTIST=%albumartist%" -T "DISCNUMBER=%cdnumber%" -T "TOTALDISCS=%totalcds%" -T "TOTALTRACKS=%numtracks%" -T "COMMENT=%comment%" %source% -o %dest%


TOC of the extracted CD

Track | Start | Length | Start sector | End sector
––––––––––––––––––––––––––––-
1 | 0:00.00 | 3:11.53 | 0 | 14377
2 | 3:11.53 | 2:53.31 | 14378 | 27383
3 | 6:05.09 | 3:59.60 | 27384 | 45368
4 | 10:04.69 | 4:09.28 | 45369 | 64071
5 | 14:14.22 | 4:14.73 | 64072 | 83194
6 | 18:29.20 | 4:04.44 | 83195 | 101538
7 | 22:33.64 | 2:35.65 | 101539 | 113228
8 | 25:09.54 | 3:47.66 | 113229 | 130319
9 | 28:57.45 | 3:47.24 | 130320 | 147368
10 | 32:44.69 | 5:59.70 | 147369 | 174363
11 | 38:44.64 | 5:43.38 | 174364 | 200126
12 | 44:28.27 | 3:49.10 | 200127 | 217311
13 | 48:17.37 | 2:39.40 | 217312 | 229276
14 | 50:57.02 | 3:49.14 | 229277 | 246465
15 | 54:46.16 | 4:49.67 | 246466 | 268207


Track 1

Filename C:\tmp\00_RIPS\01 - Down Among The Wines And Spirits.wav

Pre-gap length 0:00:02.00

Peak level 96.6 %
Extraction speed 3.5 X
Track quality 100.0 %
Test CRC 477A1E76
Copy CRC 477A1E76
Accurately ripped (confidence 4) [E5E6BDA5] (AR v2)
Copy OK

Track 2

Filename C:\tmp\00_RIPS\02 - Complicated Shadows.wav

Peak level 96.7 %
Extraction speed 3.5 X
Track quality 100.0 %
Test CRC 5BED8EA3
Copy CRC 5BED8EA3
Accurately ripped (confidence 4) [78FD8F83] (AR v2)
Copy OK

Track 3

Filename C:\tmp\00_RIPS\03 - I Felt The Chill.wav

Peak level 96.7 %
Extraction speed 3.6 X
Track quality 100.0 %
Test CRC 462F6025
Copy CRC 462F6025
Accurately ripped (confidence 4) [4AF653A8] (AR v2)
Copy OK

Track 4

Filename C:\tmp\00_RIPS\04 - My All Time Doll.wav

Peak level 96.6 %
Extraction speed 3.6 X
Track quality 100.0 %
Test CRC 8F1C10C3
Copy CRC 8F1C10C3
Accurately ripped (confidence 4) [4799911A] (AR v2)
Copy OK

Track 5

Filename C:\tmp\00_RIPS\05 - Hidden Shame.wav

Peak level 96.9 %
Extraction speed 3.4 X
Track quality 99.9 %
Test CRC 489CDE20
Copy CRC 489CDE20
Accurately ripped (confidence 4) [02296053] (AR v2)
Copy OK

Track 6

Filename C:\tmp\00_RIPS\06 - She Handed Me A Mirror.wav

Peak level 96.7 %
Extraction speed 3.6 X
Track quality 100.0 %
Test CRC 33E628DB
Copy CRC 33E628DB
Accurately ripped (confidence 4) [D6CD9B7B] (AR v2)
Copy OK

Track 7

Filename C:\tmp\00_RIPS\07 - I Dreamed Of My Old Lover.wav

Peak level 96.6 %
Extraction speed 3.5 X
Track quality 100.0 %
Test CRC 7341C7BA
Copy CRC 7341C7BA
Accurately ripped (confidence 4) [B2E41A1B] (AR v2)
Copy OK

Track 8

Filename C:\tmp\00_RIPS\08 - How Deep Is The Red.wav

Peak level 97.8 %
Extraction speed 3.6 X
Track quality 100.0 %
Test CRC 01C4AD00
Copy CRC 01C4AD00
Accurately ripped (confidence 4) [7F6F85CB] (AR v2)
Copy OK

Track 9

Filename C:\tmp\00_RIPS\09 - She Was No Good.wav

Peak level 96.7 %
Extraction speed 3.6 X
Track quality 100.0 %
Test CRC 417CB584
Copy CRC 417CB584
Accurately ripped (confidence 4) [F5B7BC8D] (AR v2)
Copy OK

Track 10

Filename C:\tmp\00_RIPS\10 - Sulphur To Sugarcane.wav

Peak level 96.8 %
Extraction speed 3.7 X
Track quality 100.0 %
Test CRC CE9C080D
Copy CRC CE9C080D
Accurately ripped (confidence 4) [A946420A] (AR v2)
Copy OK

Track 11

Filename C:\tmp\00_RIPS\11 - Red Cotton.wav

Peak level 94.5 %
Extraction speed 3.7 X
Track quality 100.0 %
Test CRC CE739071
Copy CRC CE739071
Accurately ripped (confidence 4) [2F58C6B9] (AR v2)
Copy OK

Track 12

Filename C:\tmp\00_RIPS\12 - The Crooked Line.wav

Peak level 96.7 %
Extraction speed 3.6 X
Track quality 100.0 %
Test CRC AB18440F
Copy CRC AB18440F
Accurately ripped (confidence 4) [FA28CECF] (AR v2)
Copy OK

Track 13

Filename C:\tmp\00_RIPS\13 - Changing Partners.wav

Peak level 96.6 %
Extraction speed 3.5 X
Track quality 100.0 %
Test CRC 60FF5345
Copy CRC 60FF5345
Accurately ripped (confidence 4) [71963D9B] (AR v2)
Copy OK

Track 14

Filename C:\tmp\00_RIPS\14 - Femme Fatale.wav

Peak level 96.8 %
Extraction speed 3.7 X
Track quality 100.0 %
Test CRC 813D84B8
Copy CRC 813D84B8
Accurately ripped (confidence 4) [ACA5D571] (AR v2)
Copy OK

Track 15

Filename C:\tmp\00_RIPS\15 - What Lewis Did Last.wav

Peak level 97.6 %
Extraction speed 3.6 X
Track quality 100.0 %
Test CRC 31706C24
Copy CRC 31706C24
Accurately ripped (confidence 2) [1F6FBB44] (AR v2)
Copy OK


All tracks accurately ripped

No errors occurred

End of status report

–– CUETools DB Plugin V2.1.6

[CTDB TOCID: Dn3kekW9.afbmo5JhzKQDBJLqaM-] found
Submit result: Dn3kekW9.afbmo5JhzKQDBJLqaM- has been confirmed
Track | CTDB Status
1 | (10/10) Accurately ripped
2 | (10/10) Accurately ripped
3 | (10/10) Accurately ripped
4 | (10/10) Accurately ripped
5 | (10/10) Accurately ripped
6 | (10/10) Accurately ripped
7 | (10/10) Accurately ripped
8 | (10/10) Accurately ripped
9 | (10/10) Accurately ripped
10 | (10/10) Accurately ripped
11 | (10/10) Accurately ripped
12 | (10/10) Accurately ripped
13 | (10/10) Accurately ripped
14 | (10/10) Accurately ripped
15 | ( 9/10) Accurately ripped


==== Log checksum A1CEB5A8BC3EB65076F2B56E4C08EEA6CF8BF4B6FC1C98865252CFAF02E7E854 ====

foobar2000 1.2 / Dynamic Range Meter 1.1.1
log date: 2017-09-25 17:41:20

––––––––––––––––––––––––––––––––––––––––
Analyzed: Elvis Costello / Secret, Profane & Sugarcane
––––––––––––––––––––––––––––––––––––––––

DR Peak RMS Duration Track
––––––––––––––––––––––––––––––––––––––––
DR10 -0.29 dB -11.71 dB 3:12 01-Down Among the Wines and Spirits
DR7 -0.28 dB -9.82 dB 2:53 02-Complicated Shadows
DR9 -0.29 dB -10.64 dB 4:00 03-I Felt the Chill
DR8 -0.29 dB -10.73 dB 4:09 04-My All Time Doll
DR7 -0.27 dB -8.08 dB 4:15 05-Hidden Shame
DR10 -0.29 dB -12.56 dB 4:05 06-She Handed Me a Mirror
DR9 -0.30 dB -11.53 dB 2:36 07-I Dreamed of My Old Lover
DR9 -0.19 dB -11.98 dB 3:48 08-How Deep Is the Red?
DR9 -0.29 dB -11.58 dB 3:47 09-She Was No Good
DR7 -0.28 dB -9.03 dB 6:00 10-Sulphur to Sugarcane
DR8 -0.49 dB -11.97 dB 5:44 11-Red Cotton
DR8 -0.29 dB -9.49 dB 3:49 12-The Crooked Line
DR11 -0.30 dB -14.15 dB 2:40 13-Changing Partners
DR8 -0.28 dB -10.44 dB 3:49 14-Femme Fatale
DR9 -0.20 dB -11.53 dB 4:50 15-What Lewis Did Last
––––––––––––––––––––––––––––––––––––––––

Number of tracks: 15
Official DR value: DR9

Samplerate: 44100 Hz
Channels: 2
Bits per sample: 16
Bitrate: 806 kbps
Codec: FLAC
================================================================================

Elvis Costello - Secret, Profane & Sugarcane (2009) Japanese Edition

Elvis Costello - Secret, Profane & Sugarcane (2009) Japanese Edition

All thanks to original releaser - mclarenspy

More interesting music in My Blog