Tags
Language
Tags

Emerson Lake & Palmer - Black Moon (1992) [2015, Victor Entertainment Japan, VICP-78039]

Posted By: v3122
Emerson Lake & Palmer - Black Moon (1992) [2015, Victor Entertainment Japan, VICP-78039]

Emerson Lake & Palmer - Black Moon (1992)
EAC | Flac(Image) + Cue + Log & MP3 CBR 320Kbps
Victor Entertainment Japan, VICP-78039 | ~ 342 or 121 Mb | Scans(png) -> 372 Mb
Progressive Rock | K2HD Mastering | HR Cutting

Black Moon is the eighth studio album, and the first in four years, by progressive rock band Emerson, Lake & Palmer, released in 1992.

The album received mixed reviews. It did not receive the acclaim of Tarkus or Brain Salad Surgery. Allmusic said of the album, "The original trio's first studio album in a dozen years suffers from the inevitable ageing and darkening of Lake's voice, and a lack of real impetus".

~ wiki
Emerson Lake & Palmer - Black Moon (1992):

Emerson Lake & Palmer - Black Moon (1992) [2015, Victor Entertainment Japan, VICP-78039]

Tracklist:

01. Black Moon 06:59
02. Paper Blood 04:28
03. Affairs Of The Heart 03:47
04. Romeo And Juliet 03:42
05. Farewell To Arms 05:10
06. Changing States 06:02
07. Burning Bridges 04:45
08. Close To Home 04:29
09. Better Days 05:36
10. Footprints In The Snow 03:55

Bonus Track:
11. A Blade Of Grass 02:14

Exact Audio Copy V1.0 beta 4 from 7. December 2014

EAC extraction logfile from 7. February 2015, 19:07

Emerson Lake & Palmer / Black Moon PT-SHM

Used drive : PLEXTOR BD-R PX-B950SA Adapter: 1 ID: 1

Read mode : Secure
Utilize accurate stream : Yes
Defeat audio cache : Yes
Make use of C2 pointers : No

Read offset correction : 6
Overread into Lead-In and Lead-Out : No
Fill up missing offset samples with silence : Yes
Delete leading and trailing silent blocks : No
Null samples used in CRC calculations : Yes
Used interface : Native Win32 interface for Win NT & 2000

Used output format : Internal WAV Routines
Sample format : 44.100 Hz; 16 Bit; Stereo


TOC of the extracted CD

Track | Start | Length | Start sector | End sector
––––––––––––––––––––––––––––-
1 | 0:00.00 | 6:59.45 | 0 | 31469
2 | 6:59.45 | 4:28.60 | 31470 | 51629
3 | 11:28.30 | 3:47.00 | 51630 | 68654
4 | 15:15.30 | 3:42.65 | 68655 | 85369
5 | 18:58.20 | 5:10.20 | 85370 | 108639
6 | 24:08.40 | 6:02.55 | 108640 | 135844
7 | 30:11.20 | 4:45.35 | 135845 | 157254
8 | 34:56.55 | 4:29.00 | 157255 | 177429
9 | 39:25.55 | 5:36.30 | 177430 | 202659
10 | 45:02.10 | 3:55.45 | 202660 | 220329
11 | 48:57.55 | 2:14.40 | 220330 | 230419


Range status and errors

Selected range

Filename C:\Users\Meijin\Desktop\ALLexxess\Emerson Lake & Palmer\1992 Black Moon (7'' Mini LP PT-SHM K2HD Victor Japan 2015)\Emerson Lake & Palmer - Black Moon PT-SHM.wav

Peak level 100.0 %
Extraction speed 7.1 X
Range quality 100.0 %
Test CRC C3C8A596
Copy CRC C3C8A596
Copy OK

No errors occurred


AccurateRip summary

Track 1 not present in database
Track 2 not present in database
Track 3 not present in database
Track 4 not present in database
Track 5 not present in database
Track 6 not present in database
Track 7 not present in database
Track 8 not present in database
Track 9 not present in database
Track 10 not present in database
Track 11 not present in database

None of the tracks are present in the AccurateRip database

End of status report

–– CUETools DB Plugin V2.1.4

[CTDB TOCID: PVz9ci_0srkii5VfoBdMBQWMlRU-] disk not present in database
Submit result: PVz9ci_0srkii5VfoBdMBQWMlRU- has been uploaded


==== Log checksum 268EC35C0497D88A318D3F6A55D287E15998B9531B7EB13D72525E89FA3E98B2 ====

foobar2000 1.2.9 / Dynamic Range Meter 1.1.1
log date: 2015-03-16 10:33:42

––––––––––––––––––––––––––––––––––––––––
Analyzed: Emerson Lake & Palmer / Black Moon PT-SHM
––––––––––––––––––––––––––––––––––––––––

DR Peak RMS Duration Track
––––––––––––––––––––––––––––––––––––––––
DR7 0.00 dB -9.51 dB 7:00 01-Black Moon
DR7 0.00 dB -8.74 dB 4:29 02-Paper Blood
DR11 0.00 dB -14.64 dB 3:47 03-Affairs Of The Heart
DR7 -0.04 dB -9.83 dB 3:43 04-Romeo And Juliet
DR7 0.00 dB -10.95 dB 5:10 05-Farewell To Arms
DR7 0.00 dB -8.68 dB 6:03 06-Changing States
DR6 0.00 dB -8.01 dB 4:45 07-Burning Bridges
DR10 -0.28 dB -14.08 dB 4:29 08-Close To Home
DR7 0.00 dB -7.65 dB 5:36 09-Better Days
DR10 0.00 dB -13.76 dB 3:56 10-Footprints In The Snow
DR12 -0.31 dB -16.28 dB 2:15 11-A Blade Of Grass / Bonus Track
––––––––––––––––––––––––––––––––––––––––

Number of tracks: 11
Official DR value: DR8

Samplerate: 44100 Hz
Channels: 2
Bits per sample: 16
Bitrate: 905 kbps
Codec: FLAC

[CUETools log; Date: 16.03.2015 10:33:52; Version: 2.1.4]
[CTDB TOCID: PVz9ci_0srkii5VfoBdMBQWMlRU-] found.
Track | CTDB Status
1 | (1/1) Accurately ripped
2 | (1/1) Accurately ripped
3 | (1/1) Accurately ripped
4 | (1/1) Accurately ripped
5 | (1/1) Accurately ripped
6 | (1/1) Accurately ripped
7 | (1/1) Accurately ripped
8 | (1/1) Accurately ripped
9 | (1/1) Accurately ripped
10 | (1/1) Accurately ripped
11 | (1/1) Accurately ripped
[AccurateRip ID: 00166d09-00c0246c-8f0c000b] found.
Track [ CRC | V2 ] Status
01 [7e6f77bc|cfe7957a] (0+1/1) Accurately ripped
02 [b82f2097|29324504] (0+1/1) Accurately ripped
03 [bf3cd5ff|3bccd541] (0+1/1) Accurately ripped
04 [3d4e9dca|79a2b451] (0+1/1) Accurately ripped
05 [62230f92|73756671] (0+1/1) Accurately ripped
06 [136d2fda|3ebcc7f5] (0+1/1) Accurately ripped
07 [fa67880c|7b5c20b1] (0+1/1) Accurately ripped
08 [2b702963|7b39c8b5] (0+1/1) Accurately ripped
09 [37218838|c89e18b8] (0+1/1) Accurately ripped
10 [2fabb8c8|34ebe481] (0+1/1) Accurately ripped
11 [a6cec414|438bff12] (0+1/1) Accurately ripped

Track Peak [ CRC32 ] [W/O NULL] [ LOG ]
– 100,0 [C3C8A596] [E7026F86] CRC32
01 100,0 [41746A89] [53824FA6]
02 100,0 [65A57671] [1BF9232C]
03 100,0 [9EA09576] [BEAE5579]
04 99,5 [24A19A02] [D6D73505]
05 100,0 [36E5DB1B] [0C4C3F9B]
06 100,0 [09E6BDD1] [231724D9]
07 100,0 [1B3A9B92] [A4B80684]
08 96,8 [F67EA32D] [92F4D0A1]
09 100,0 [5AC5F677] [F00B9534]
10 100,0 [0F981ECA] [13B5B9BF]
11 96,4 [98E28E63] [878912EB]

Emerson Lake & Palmer - Black Moon (1992) [2015, Victor Entertainment Japan, VICP-78039]

All thanks go to ALLexxess

Download Emerson Lake & Palmer - Black Moon (1992):