Tags
Language
Tags

Emerson, Lake & Palmer - Emerson, Lake & Palmer (1970) [Japanese Platinum SHM-CD]

Posted By: v3122
Emerson, Lake & Palmer - Emerson, Lake & Palmer (1970) [Japanese Platinum SHM-CD]

Emerson, Lake & Palmer - Emerson, Lake & Palmer (1970)
EAC | Flac(Image) + Cue + Log & MP3 CBR 320Kbps
2014 | Victor Entertainment, VICP-78001 | ~ 394 or 139 Mb | Artwork(png) -> 230 Mb
Progressive Rock, Art Rock, Symphonic Prog

Lively, ambitious, almost entirely successful debut album, made up of keyboard-dominated instrumentals ("The Barbarian," "Three Fates") and romantic ballads ("Lucky Man") showcasing all three members' very daunting talents. This album, which reached the Top 20 in America and got to number four in England, showcased the group at its least pretentious and most musicianly – with the exception of a few moments on "Three Fates" and perhaps "Take a Pebble," there isn't much excess, and there is a lot of impressive musicianship here. "Take a Pebble" might have passed for a Moody Blues track of the era but for the fact that none of the Moody Blues' keyboard men could solo like Keith Emerson. Even here, in a relatively balanced collection of material, the album shows the beginnings of a dark, savage, imposingly gothic edge that had scarcely been seen before in so-called "art rock," mostly courtesy of Emerson's larger-than-life organ and synthesizer attacks. Greg Lake's beautifully sung, deliberately archaic "Lucky Man" had a brush with success on FM radio, and Carl Palmer became the idol of many thousands of would-be drummers based on this one album (especially for "Three Fates" and "Tank"), but Emerson emerged as the overpowering talent here for much of the public.

by Bruce Eder, allmusic
Emerson, Lake & Palmer - Emerson, Lake & Palmer (1970):

Emerson, Lake & Palmer - Emerson, Lake & Palmer (1970) [Japanese Platinum SHM-CD]

Tracklist:

01. The Barbarian 04:34
02. Take A Pebble 12:38
03. Knife-Edge 05:10
04. The Three Fates 07:47
a) Clotho (Royal Festival Hall Organ)
b) Lachesis (Piano Solo)
c) Atropos (Piano Trio)
05. Tank 06:53
06. Lucky Man 04:43
Bonus Tracks:
07. The Barbarian (Live At The Isle Of Wight Festival) 05:08
08. Take A Pebble (Live At The Isle Of Wight Festival) 11:53

Exact Audio Copy V1.0 beta 3 from 29. August 2011

EAC extraction logfile from 18. May 2014, 18:56

Emerson, Lake & Palmer / Emerson, Lake & Palmer PT-SHM

Used drive : PLEXTOR BD-R PX-B950SA Adapter: 6 ID: 0

Read mode : Secure
Utilize accurate stream : Yes
Defeat audio cache : Yes
Make use of C2 pointers : No

Read offset correction : 6
Overread into Lead-In and Lead-Out : No
Fill up missing offset samples with silence : Yes
Delete leading and trailing silent blocks : No
Null samples used in CRC calculations : Yes
Used interface : Native Win32 interface for Win NT & 2000

Used output format : Internal WAV Routines
Sample format : 44.100 Hz; 16 Bit; Stereo


TOC of the extracted CD

Track | Start | Length | Start sector | End sector
––––––––––––––––––––––––––––-
1 | 0:00.00 | 4:34.72 | 0 | 20621
2 | 4:34.72 | 12:38.70 | 20622 | 77541
3 | 17:13.67 | 5:10.35 | 77542 | 100826
4 | 22:24.27 | 7:47.70 | 100827 | 135921
5 | 30:12.22 | 6:53.00 | 135922 | 166896
6 | 37:05.22 | 4:43.70 | 166897 | 188191
7 | 41:49.17 | 5:08.43 | 188192 | 211334
8 | 46:57.60 | 11:53.05 | 211335 | 264814


Range status and errors

Selected range

Filename C:\Users\Meijin\Desktop\ALLexxess\ELP\1970 Emerson, Lake & Palmer (Mini LP PT-SHM K2HD Victor Japan 2014)\Emerson, Lake & Palmer - Emerson, Lake & Palmer PT-SHM.wav

Peak level 100.0 %
Extraction speed 7.5 X
Range quality 100.0 %
Test CRC F3B2BFB6
Copy CRC F3B2BFB6
Copy OK

No errors occurred


AccurateRip summary

Track 1 not present in database
Track 2 not present in database
Track 3 not present in database
Track 4 not present in database
Track 5 not present in database
Track 6 not present in database
Track 7 not present in database
Track 8 not present in database

None of the tracks are present in the AccurateRip database

End of status report

==== Log checksum 0F8B4CC6F2C7D59DF8625D81497E1A49FA59EFB2021011A3792A98981AB04821 ====


[CUETools log; Date: 13.02.2015 17:43:30; Version: 2.1.4]
[CTDB TOCID: c6q5Acrtn1IAnGP9zdT6DFfQMVU-] found.
Track | CTDB Status
1 | (3/3) Accurately ripped
2 | (3/3) Accurately ripped
3 | (3/3) Accurately ripped
4 | (3/3) Accurately ripped
5 | (3/3) Accurately ripped
6 | (3/3) Accurately ripped
7 | (3/3) Accurately ripped
8 | (3/3) Accurately ripped
[AccurateRip ID: 0011cb48-00763f9a-600dca08] found.
Track [ CRC | V2 ] Status
01 [e40f031b|0d4facc3] (0+4/4) Accurately ripped
02 [aead2a7d|963d417d] (0+4/4) Accurately ripped
03 [54bc9873|2fb9ce73] (0+4/4) Accurately ripped
04 [67129757|acbb9bfc] (0+4/4) Accurately ripped
05 [2134a306|150f852c] (0+4/4) Accurately ripped
06 [d0875a94|0f2b51ee] (0+4/4) Accurately ripped
07 [d6dddd34|08cbe363] (0+4/4) Accurately ripped
08 [f1f2ac25|4f206207] (0+4/4) Accurately ripped

Track Peak [ CRC32 ] [W/O NULL] [ LOG ]
– 100,0 [F3B2BFB6] [4D76CB81] CRC32
01 100,0 [579FAC40] [296BA6FF]
02 100,0 [CEE190BD] [A6CD02D4]
03 100,0 [0C623E8C] [57AD6849]
04 100,0 [EA6B9E45] [E15E287C]
05 100,0 [13A5F313] [3C5673CF]
06 100,0 [156362DD] [2CAD0CB4]
07 98,5 [94C835A1] [7860760E]
08 98,5 [7D42B7C1] [7386C6D5]


Emerson, Lake & Palmer - Emerson, Lake & Palmer (1970) [Japanese Platinum SHM-CD]

All thanks go to ALLexxess

Emerson, Lake & Palmer in my Blog

Download Emerson, Lake & Palmer - Emerson, Lake & Palmer (1970):