Tags
Language
Tags

Emerson String Quartet - Ludwig van Beethoven: The String Quartets [7CDs] (1997)

Posted By: ArlegZ
Emerson String Quartet - Ludwig van Beethoven: The String Quartets [7CDs] (1997)

Emerson String Quartet - Ludwig van Beethoven: The String Quartets [7CDs] (1997)
EAC | FLAC | Image (Cue & Log) ~ 2.04 Gb | Total time: 08:11:09 | Scans included
Classical | Label: Deutsche Grammophon | # 447 075-2 | Recorded: 1994-1995

The nine-time GRAMMY Award-winning Emerson String Quartet has firmly established its authority in interpreting Beethoven’s string quartets since its first Beethoven Cycle performed in 1980 through its complete recording of his quartets on Deutsche Grammophon which won a 1998 GRAMMY Award.

Performer:
Emerson String Quartet:
Eugene Drucker, violin
Philip Setzer, violin
Lawrence Dutton, viola
David Finckel, cello

Track List:
CD1:
Quartet in D Major, Op. 18
01. Allegro
02. Andante con moto
03. Allegro
04. Presto
Quartet in F Major, Op. 18
05. Allegro con brio
06. Adagio affettuoso ed appassionato
07. Scherzo: Allegro molto
08. Allegro
Quartet in G Major, Op. 18
09. Allegro
10. Adagio cantabile - Allegro - Tempo I
11. Scherzo: Allegro
12. Allegro molto, quasi presto
CD2:
Quartet in C Minor, Op. 18
01. Allegro ma non tanto
02. Andante scherzoso quasi Allegretto
03. Menuetto: Allegretto
04. Allegro - Prestissimo
Quartet in A Major, Op. 18
05. Allegro
06. Menuetto
07. Andante cantabile
08. Allegro
Quartet in B-flat Major, Op. 18
09. Allegro con brio
10. Adagio ma non troppo
11. Scherzo: Allegro
12. La Malinconia: Adagio - Allegretto quasi Allegro
CD3:
Quartet in F Major, Op. 59 ("Razumovsky")
01. Allegro
02. Allegretto vivace e sempre scherzando
03. Adagio molto e mesto - attacca
04. Thème russe: Allegro
Quartet in E Minor, Op. 59 ("Razumovsky")
05. Allegro
06. Molto adagio: Si tratta questo pezzo con molto di sentimento
07. Allegretto - Maggiore (Thème russe)
08. Finale: Presto
CD4:
Quartet in C Major, Op. 59 ("Razumovsky")
01. Introduzione: Andante con moto - Allegro vivace
02. Andante con moto quasi Allegretto
03. Menuetto grazioso - attacca
04. Allegro molto
Quartet in E-flat Major, Op. 74 ("Harp")
05. Poco Adagio - Allegro
06. Adagio ma non troppo
07. Presto - Più presto quasi prestissimo - attacca
08. Allegretto con Variazioni
Quartet in F Minor, Op. 95 ("Quartett[o] Serioso")
09. Allegro con brio
10. Allegretto ma non troppo - attacca:
11. Allegro assai vivace ma serioso
12. Larghetto espressivo - Allegretto agitato - Allegro
CD5:
Quartet in E-flat Major, Op. 127
01. Maestoso - Allegro
02. Adagio, ma non troppo e molto cantabile - Andante con moto - Adagio molto espressivo - Tempo I
03. Scherzo: Vivace
04. Allegro - Allegro comodo
Quartet in C-sharp Minor, Op. 131
05. Adagio, ma non troppo e molto espressivo - attacca
06. Allegro molto vivace - attacca
07. Allegro moderato - attacca
08. Andante, ma non troppo e molto cantabile - Più mosso - Andante moderato e lusinghiero - Adagio - Allegretto - Adagio, ma non troppo e semplice - Allegretto - attacca
09. Presto - attacca
10. Adagio quasi un poco andante - attacca
11. Allegro
CD6:
Quartet in A Minor, Op. 132
01. Assai sostenuto - Allegro
02. Allegro ma mon tanto
03. Heiliger Dankgesang eines Genesenen an die Gottheit, in der lydischen Tonart: Molto adagio - Neue Kraft fühlend
04. Alla Marcia, assai vivace - Più allegro - attacca
05. Allegro appassionato - Presto
Quartet in F Major, Op. 133
06. Allegretto
07. Vivace
08. Lento assai, cantante e tranquillo
09. Der schwer gefasste Entschluss: Grave, ma non troppo tanto (Muss es sein?) - Allegro (Es muss sein!) - Grave, ma non troppo tratto - Allegro
CD7:
Quartet in B-flat Major, Op. 130
01. Adagio Ma Non Troppo - Allegro
02. Presto
03. Andante con moto, ma non troppo
04. Alla danza tedesca: Allegro assai
05. Cavatina: Adagio molto espressivo
06. Grosse Fuge (Op. 133) - Overtura: Allegro - Meno mosso e moderato - Allegro; Fuga: [Allegro] - Meno mosso e moderato - Allegro molto e con brio - Allegro
07. Final: Allegro (Alternative finale)



Exact Audio Copy V1.6 from 23. October 2020

EAC extraction logfile from 30. June 2021, 9:44

Emerson String Quartet / Beethoven: The String Quartets (Disc 1)

Used drive : HL-DT-STDVDRAM GH24NSD5 Adapter: 1 ID: 0

Read mode : Secure
Utilize accurate stream : Yes
Defeat audio cache : Yes
Make use of C2 pointers : No

Read offset correction : 6
Overread into Lead-In and Lead-Out : No
Fill up missing offset samples with silence : Yes
Delete leading and trailing silent blocks : No
Null samples used in CRC calculations : Yes
Used interface : Native Win32 interface for Win NT & 2000

Used output format : User Defined Encoder
Selected bitrate : 1024 kBit/s
Quality : High
Add ID3 tag : No
Command line compressor : C:\Program Files (x86)\Exact Audio Copy\FLAC\FLAC.EXE
Additional command line options : -6 -V -T "ARTIST=%artist%" -T "TITLE=%title%" -T "ALBUM=%albumtitle%" -T "DATE=%year%" -T "TRACKNUMBER=%tracknr%" -T "GENRE=%genre%" -T "COMMENT=%comment%" -T "BAND=%albuminterpret%" -T "ALBUMARTIST=%albuminterpret%" -T "COMPOSER=%composer%" %haslyrics%–tag-from-file=LYRICS="%lyricsfile%"%haslyrics% -T "DISCNUMBER=%cdnumber%" -T "TOTALDISCS=%totalcds%" -T "TOTALTRACKS=%numtracks%" %hascover%–picture="%coverfile%"%hascover% %source% -o %dest%


TOC of the extracted CD

Track | Start | Length | Start sector | End sector
––––––––––––––––––––––––––––-
1 | 0:00.32 | 7:33.00 | 32 | 34006
2 | 7:33.32 | 7:08.00 | 34007 | 66106
3 | 14:41.32 | 2:43.00 | 66107 | 78331
4 | 17:24.32 | 5:42.00 | 78332 | 103981
5 | 23:06.32 | 8:37.00 | 103982 | 142756
6 | 31:43.32 | 8:49.00 | 142757 | 182431
7 | 40:32.32 | 3:04.00 | 182432 | 196231
8 | 43:36.32 | 6:19.00 | 196232 | 224656
9 | 49:55.32 | 7:23.00 | 224657 | 257881
10 | 57:18.32 | 5:54.00 | 257882 | 284431
11 | 63:12.32 | 4:04.00 | 284432 | 302731
12 | 67:16.32 | 5:10.00 | 302732 | 325981


Range status and errors

Selected range

Filename I:\Rips\Beethoven - The String Quartets - Emerson String Quartet\CD1\Emerson String Quartet - Beethoven- The String Quartets (Disc 1).wav

Peak level 86.6 %
Extraction speed 2.0 X
Range quality 100.0 %
Test CRC 9B14785A
Copy CRC 9B14785A
Copy OK

No errors occurred


AccurateRip summary

Track 1 accurately ripped (confidence 77) [1EED0192] (AR v2)
Track 2 accurately ripped (confidence 77) [5B50E97B] (AR v2)
Track 3 accurately ripped (confidence 77) [E61A15AC] (AR v2)
Track 4 accurately ripped (confidence 75) [6937C4F8] (AR v2)
Track 5 accurately ripped (confidence 74) [77BFBA30] (AR v2)
Track 6 accurately ripped (confidence 77) [F7548696] (AR v2)
Track 7 accurately ripped (confidence 77) [41D70E14] (AR v2)
Track 8 accurately ripped (confidence 76) [3DF08885] (AR v2)
Track 9 accurately ripped (confidence 76) [3E746467] (AR v2)
Track 10 accurately ripped (confidence 74) [8D5C648E] (AR v2)
Track 11 accurately ripped (confidence 76) [475CCFF3] (AR v2)
Track 12 accurately ripped (confidence 72) [B7B0F1DF] (AR v2)

All tracks accurately ripped

End of status report

–– CUETools DB Plugin V2.1.6

[CTDB TOCID: WjX.YG7LVvlvRDxm67kWMrxVbtQ-] found
Submit result: WjX.YG7LVvlvRDxm67kWMrxVbtQ- has been confirmed
Track | CTDB Status
1 | (242/244) Accurately ripped
2 | (242/244) Accurately ripped
3 | (243/244) Accurately ripped
4 | (240/244) Accurately ripped
5 | (241/244) Accurately ripped
6 | (242/244) Accurately ripped
7 | (244/244) Accurately ripped
8 | (243/244) Accurately ripped
9 | (243/244) Accurately ripped
10 | (243/244) Accurately ripped
11 | (243/244) Accurately ripped
12 | (239/244) Accurately ripped


==== Log checksum FF5E9286C6E0BB77A10C633184BA3BA6A6A806C0576A05FF4A6087BDD82B3C01 ====


Exact Audio Copy V1.6 from 23. October 2020

EAC extraction logfile from 30. June 2021, 13:13

Emerson String Quartet / Beethoven: The String Quartets (Disc 2)

Used drive : HL-DT-STDVDRAM GH24NSD5 Adapter: 1 ID: 0

Read mode : Secure
Utilize accurate stream : Yes
Defeat audio cache : Yes
Make use of C2 pointers : No

Read offset correction : 6
Overread into Lead-In and Lead-Out : No
Fill up missing offset samples with silence : Yes
Delete leading and trailing silent blocks : No
Null samples used in CRC calculations : Yes
Used interface : Native Win32 interface for Win NT & 2000

Used output format : User Defined Encoder
Selected bitrate : 1024 kBit/s
Quality : High
Add ID3 tag : No
Command line compressor : C:\Program Files (x86)\Exact Audio Copy\FLAC\FLAC.EXE
Additional command line options : -6 -V -T "ARTIST=%artist%" -T "TITLE=%title%" -T "ALBUM=%albumtitle%" -T "DATE=%year%" -T "TRACKNUMBER=%tracknr%" -T "GENRE=%genre%" -T "COMMENT=%comment%" -T "BAND=%albuminterpret%" -T "ALBUMARTIST=%albuminterpret%" -T "COMPOSER=%composer%" %haslyrics%–tag-from-file=LYRICS="%lyricsfile%"%haslyrics% -T "DISCNUMBER=%cdnumber%" -T "TOTALDISCS=%totalcds%" -T "TOTALTRACKS=%numtracks%" %hascover%–picture="%coverfile%"%hascover% %source% -o %dest%


TOC of the extracted CD

Track | Start | Length | Start sector | End sector
––––––––––––––––––––––––––––-
1 | 0:00.00 | 8:09.00 | 0 | 36674
2 | 8:09.00 | 7:01.00 | 36675 | 68249
3 | 15:10.00 | 3:22.00 | 68250 | 83399
4 | 18:32.00 | 4:13.00 | 83400 | 102374
5 | 22:45.00 | 6:18.00 | 102375 | 130724
6 | 29:03.00 | 4:57.00 | 130725 | 152999
7 | 34:00.00 | 8:56.00 | 153000 | 193199
8 | 42:56.00 | 6:21.00 | 193200 | 221774
9 | 49:17.00 | 5:52.00 | 221775 | 248174
10 | 55:09.00 | 6:52.00 | 248175 | 279074
11 | 62:01.00 | 3:00.00 | 279075 | 292574
12 | 65:01.00 | 8:16.00 | 292575 | 329774


Range status and errors

Selected range

Filename I:\Rips\Beethoven - The String Quartets - Emerson String Quartet\CD2\Emerson String Quartet - Beethoven- The String Quartets (Disc 2).wav

Peak level 92.5 %
Extraction speed 1.9 X
Range quality 99.9 %
Test CRC 09D148C1
Copy CRC 09D148C1
Copy OK

No errors occurred


AccurateRip summary

Track 1 accurately ripped (confidence 17) [C47AABF2] (AR v2)
Track 2 accurately ripped (confidence 17) [BF8FDC3D] (AR v2)
Track 3 accurately ripped (confidence 17) [32397202] (AR v2)
Track 4 accurately ripped (confidence 17) [DC48BEDD] (AR v2)
Track 5 accurately ripped (confidence 17) [681B10CF] (AR v2)
Track 6 accurately ripped (confidence 17) [86D84954] (AR v2)
Track 7 accurately ripped (confidence 17) [E8CA0250] (AR v2)
Track 8 accurately ripped (confidence 17) [3FFF9098] (AR v2)
Track 9 accurately ripped (confidence 17) [6FEC264F] (AR v2)
Track 10 accurately ripped (confidence 17) [266E412B] (AR v2)
Track 11 accurately ripped (confidence 17) [6F4C3120] (AR v2)
Track 12 accurately ripped (confidence 16) [A2E0DFF7] (AR v2)

All tracks accurately ripped

End of status report

–– CUETools DB Plugin V2.1.6

[CTDB TOCID: FYrgMYm9U1i9QRKIcbeeRa6T8bU-] found
Submit result: FYrgMYm9U1i9QRKIcbeeRa6T8bU- has been confirmed, FYrgMYm9U1i9QRKIcbeeRa6T8bU- has been confirmed
Track | CTDB Status
1 | (532/533) Accurately ripped
2 | (532/533) Accurately ripped
3 | (532/533) Accurately ripped
4 | (528/533) Accurately ripped
5 | (532/533) Accurately ripped
6 | (532/533) Accurately ripped
7 | (532/533) Accurately ripped
8 | (527/533) Accurately ripped
9 | (528/533) Accurately ripped
10 | (528/533) Accurately ripped
11 | (529/533) Accurately ripped
12 | (527/533) Accurately ripped


==== Log checksum A18E6963506E35AC93EEFCA1BCEAA9855D97628FDEBA0B7280082F6351825295 ====


Exact Audio Copy V1.6 from 23. October 2020

EAC extraction logfile from 30. June 2021, 15:16

Emerson String Quartet / Beethoven: The String Quartets (Disc 3)

Used drive : HL-DT-STDVDRAM GH24NSD5 Adapter: 1 ID: 0

Read mode : Secure
Utilize accurate stream : Yes
Defeat audio cache : Yes
Make use of C2 pointers : No

Read offset correction : 6
Overread into Lead-In and Lead-Out : No
Fill up missing offset samples with silence : Yes
Delete leading and trailing silent blocks : No
Null samples used in CRC calculations : Yes
Used interface : Native Win32 interface for Win NT & 2000

Used output format : User Defined Encoder
Selected bitrate : 1024 kBit/s
Quality : High
Add ID3 tag : No
Command line compressor : C:\Program Files (x86)\Exact Audio Copy\FLAC\FLAC.EXE
Additional command line options : -6 -V -T "ARTIST=%artist%" -T "TITLE=%title%" -T "ALBUM=%albumtitle%" -T "DATE=%year%" -T "TRACKNUMBER=%tracknr%" -T "GENRE=%genre%" -T "COMMENT=%comment%" -T "BAND=%albuminterpret%" -T "ALBUMARTIST=%albuminterpret%" -T "COMPOSER=%composer%" %haslyrics%–tag-from-file=LYRICS="%lyricsfile%"%haslyrics% -T "DISCNUMBER=%cdnumber%" -T "TOTALDISCS=%totalcds%" -T "TOTALTRACKS=%numtracks%" %hascover%–picture="%coverfile%"%hascover% %source% -o %dest%


TOC of the extracted CD

Track | Start | Length | Start sector | End sector
––––––––––––––––––––––––––––-
1 | 0:00.32 | 10:14.00 | 32 | 46081
2 | 10:14.32 | 8:35.00 | 46082 | 84706
3 | 18:49.32 | 11:40.10 | 84707 | 137216
4 | 30:29.42 | 7:16.65 | 137217 | 169981
5 | 37:46.32 | 9:12.00 | 169982 | 211381
6 | 46:58.32 | 12:06.00 | 211382 | 265831
7 | 59:04.32 | 7:25.00 | 265832 | 299206
8 | 66:29.32 | 5:17.00 | 299207 | 322981


Range status and errors

Selected range

Filename I:\Rips\Beethoven - The String Quartets - Emerson String Quartet\CD3\Emerson String Quartet - Beethoven- The String Quartets (Disc 3).wav

Peak level 98.0 %
Extraction speed 2.0 X
Range quality 100.0 %
Test CRC 01222B40
Copy CRC 01222B40
Copy OK

No errors occurred


AccurateRip summary

Track 1 accurately ripped (confidence 12) [5C72BBFC] (AR v2)
Track 2 accurately ripped (confidence 12) [E816E2CF] (AR v2)
Track 3 accurately ripped (confidence 11) [63BAB4D3] (AR v2)
Track 4 accurately ripped (confidence 12) [263D1DE2] (AR v2)
Track 5 accurately ripped (confidence 12) [D19DCC64] (AR v2)
Track 6 accurately ripped (confidence 12) [50D306B7] (AR v2)
Track 7 accurately ripped (confidence 12) [EBC0A3A5] (AR v2)
Track 8 accurately ripped (confidence 12) [36077BB9] (AR v2)

All tracks accurately ripped

End of status report

–– CUETools DB Plugin V2.1.6

[CTDB TOCID: JfTCdHysAVzAa5bHLpEVbsOMhpM-] found
Submit result: JfTCdHysAVzAa5bHLpEVbsOMhpM- has been confirmed
Track | CTDB Status
1 | (330/331) Accurately ripped
2 | (329/331) Accurately ripped
3 | (330/331) Accurately ripped
4 | (327/331) Accurately ripped
5 | (327/331) Accurately ripped
6 | (329/331) Accurately ripped
7 | (328/331) Accurately ripped
8 | (325/331) Accurately ripped


==== Log checksum 5F6AC0C5279CD483D3EF70F2DAB713082BF30354E48D35AA2267AD7B7556ABE0 ====


Exact Audio Copy V1.6 from 23. October 2020

EAC extraction logfile from 30. June 2021, 16:06

Emerson String Quartet / Beethoven: The String Quartets (Disc 4)

Used drive : HL-DT-STDVDRAM GH24NSD5 Adapter: 1 ID: 0

Read mode : Secure
Utilize accurate stream : Yes
Defeat audio cache : Yes
Make use of C2 pointers : No

Read offset correction : 6
Overread into Lead-In and Lead-Out : No
Fill up missing offset samples with silence : Yes
Delete leading and trailing silent blocks : No
Null samples used in CRC calculations : Yes
Used interface : Native Win32 interface for Win NT & 2000

Used output format : User Defined Encoder
Selected bitrate : 1024 kBit/s
Quality : High
Add ID3 tag : No
Command line compressor : C:\Program Files (x86)\Exact Audio Copy\FLAC\FLAC.EXE
Additional command line options : -6 -V -T "ARTIST=%artist%" -T "TITLE=%title%" -T "ALBUM=%albumtitle%" -T "DATE=%year%" -T "TRACKNUMBER=%tracknr%" -T "GENRE=%genre%" -T "COMMENT=%comment%" -T "BAND=%albuminterpret%" -T "ALBUMARTIST=%albuminterpret%" -T "COMPOSER=%composer%" %haslyrics%–tag-from-file=LYRICS="%lyricsfile%"%haslyrics% -T "DISCNUMBER=%cdnumber%" -T "TOTALDISCS=%totalcds%" -T "TOTALTRACKS=%numtracks%" %hascover%–picture="%coverfile%"%hascover% %source% -o %dest%


TOC of the extracted CD

Track | Start | Length | Start sector | End sector
––––––––––––––––––––––––––––-
1 | 0:00.00 | 10:06.00 | 0 | 45449
2 | 10:06.00 | 8:49.00 | 45450 | 85124
3 | 18:55.00 | 5:06.12 | 85125 | 108086
4 | 24:01.12 | 5:31.63 | 108087 | 132974
5 | 29:33.00 | 9:10.00 | 132975 | 174224
6 | 38:43.00 | 8:54.00 | 174225 | 214274
7 | 47:37.00 | 4:46.05 | 214275 | 235729
8 | 52:23.05 | 6:41.70 | 235730 | 265874
9 | 59:05.00 | 3:57.00 | 265875 | 283649
10 | 63:02.00 | 6:30.15 | 283650 | 312914
11 | 69:32.15 | 4:02.60 | 312915 | 331124
12 | 73:35.00 | 4:16.00 | 331125 | 350324


Range status and errors

Selected range

Filename I:\Rips\Beethoven - The String Quartets - Emerson String Quartet\CD4\Emerson String Quartet - Beethoven- The String Quartets (Disc 4).wav

Peak level 96.2 %
Extraction speed 2.1 X
Range quality 100.0 %
Test CRC 68467604
Copy CRC 68467604
Copy OK

No errors occurred


AccurateRip summary

Track 1 accurately ripped (confidence 71) [42F79EB9] (AR v2)
Track 2 accurately ripped (confidence 71) [D81809A5] (AR v2)
Track 3 accurately ripped (confidence 71) [0860C7B0] (AR v2)
Track 4 accurately ripped (confidence 68) [ED327ACC] (AR v2)
Track 5 accurately ripped (confidence 71) [AA777453] (AR v2)
Track 6 accurately ripped (confidence 71) [3FEF0B5B] (AR v2)
Track 7 accurately ripped (confidence 72) [82F25A1B] (AR v2)
Track 8 accurately ripped (confidence 72) [A8570528] (AR v2)
Track 9 accurately ripped (confidence 72) [E5DB776D] (AR v2)
Track 10 accurately ripped (confidence 71) [F6B5E37F] (AR v2)
Track 11 accurately ripped (confidence 72) [D59EB304] (AR v2)
Track 12 accurately ripped (confidence 69) [219BA415] (AR v2)

All tracks accurately ripped

End of status report

–– CUETools DB Plugin V2.1.6

[CTDB TOCID: SWo8xXhP_j4sF3ieoZj_c7xUAH4-] found
Submit result: SWo8xXhP_j4sF3ieoZj_c7xUAH4- has been confirmed
Track | CTDB Status
1 | (311/314) Accurately ripped
2 | (312/314) Accurately ripped
3 | (314/314) Accurately ripped
4 | (313/314) Accurately ripped
5 | (312/314) Accurately ripped
6 | (311/314) Accurately ripped
7 | (313/314) Accurately ripped
8 | (278/314) Accurately ripped
9 | (314/314) Accurately ripped
10 | (313/314) Accurately ripped
11 | (314/314) Accurately ripped
12 | (310/314) Accurately ripped


==== Log checksum D278508383C7CF9FD02DB6755EEA282CB018E80B80610D43BC23A41FABA62D52 ====


Exact Audio Copy V1.6 from 23. October 2020

EAC extraction logfile from 30. June 2021, 17:18

Emerson String Quartet / Beethoven: The String Quartets (Disc 5)

Used drive : HL-DT-STDVDRAM GH24NSD5 Adapter: 1 ID: 0

Read mode : Secure
Utilize accurate stream : Yes
Defeat audio cache : Yes
Make use of C2 pointers : No

Read offset correction : 6
Overread into Lead-In and Lead-Out : No
Fill up missing offset samples with silence : Yes
Delete leading and trailing silent blocks : No
Null samples used in CRC calculations : Yes
Used interface : Native Win32 interface for Win NT & 2000

Used output format : User Defined Encoder
Selected bitrate : 1024 kBit/s
Quality : High
Add ID3 tag : No
Command line compressor : C:\Program Files (x86)\Exact Audio Copy\FLAC\FLAC.EXE
Additional command line options : -6 -V -T "ARTIST=%artist%" -T "TITLE=%title%" -T "ALBUM=%albumtitle%" -T "DATE=%year%" -T "TRACKNUMBER=%tracknr%" -T "GENRE=%genre%" -T "COMMENT=%comment%" -T "BAND=%albuminterpret%" -T "ALBUMARTIST=%albuminterpret%" -T "COMPOSER=%composer%" %haslyrics%–tag-from-file=LYRICS="%lyricsfile%"%haslyrics% -T "DISCNUMBER=%cdnumber%" -T "TOTALDISCS=%totalcds%" -T "TOTALTRACKS=%numtracks%" %hascover%–picture="%coverfile%"%hascover% %source% -o %dest%


TOC of the extracted CD

Track | Start | Length | Start sector | End sector
––––––––––––––––––––––––––––-
1 | 0:00.32 | 6:56.00 | 32 | 31231
2 | 6:56.32 | 14:23.00 | 31232 | 95956
3 | 21:19.32 | 8:13.00 | 95957 | 132931
4 | 29:32.32 | 6:43.00 | 132932 | 163156
5 | 36:15.32 | 6:13.33 | 163157 | 191164
6 | 42:28.65 | 2:44.67 | 191165 | 203531
7 | 45:13.57 | 0:44.25 | 203532 | 206856
8 | 45:58.07 | 13:20.40 | 206857 | 266896
9 | 59:18.47 | 4:33.30 | 266897 | 287401
10 | 63:52.02 | 1:52.48 | 287402 | 295849
11 | 65:44.50 | 6:16.57 | 295850 | 324106


Range status and errors

Selected range

Filename I:\Rips\Beethoven - The String Quartets - Emerson String Quartet\CD5\Emerson String Quartet - Beethoven- The String Quartets (Disc 5).wav

Peak level 97.2 %
Extraction speed 2.0 X
Range quality 100.0 %
Test CRC 5C1319D6
Copy CRC 5C1319D6
Copy OK

No errors occurred


AccurateRip summary

Track 1 accurately ripped (confidence 33) [48D58E26] (AR v2)
Track 2 accurately ripped (confidence 33) [4B00E20B] (AR v2)
Track 3 accurately ripped (confidence 33) [08C0999B] (AR v2)
Track 4 accurately ripped (confidence 33) [FFD7D8EF] (AR v2)
Track 5 accurately ripped (confidence 32) [446299C4] (AR v2)
Track 6 accurately ripped (confidence 32) [3F7086EE] (AR v2)
Track 7 accurately ripped (confidence 32) [1164E5B4] (AR v2)
Track 8 accurately ripped (confidence 32) [9475AE40] (AR v2)
Track 9 accurately ripped (confidence 32) [13525939] (AR v2)
Track 10 accurately ripped (confidence 32) [59A19328] (AR v2)
Track 11 accurately ripped (confidence 32) [AF05A399] (AR v2)

All tracks accurately ripped

End of status report

–– CUETools DB Plugin V2.1.6

[CTDB TOCID: St2Gcqs4fN7l8sipq1HMAKIXbdQ-] found
Submit result: St2Gcqs4fN7l8sipq1HMAKIXbdQ- has been confirmed
Track | CTDB Status
1 | (256/260) Accurately ripped
2 | (257/260) Accurately ripped
3 | (257/260) Accurately ripped
4 | (257/260) Accurately ripped
5 | (257/260) Accurately ripped
6 | (257/260) Accurately ripped
7 | (257/260) Accurately ripped
8 | (257/260) Accurately ripped
9 | (257/260) Accurately ripped
10 | (257/260) Accurately ripped
11 | (257/260) Accurately ripped


==== Log checksum CD1EE3BC5E5874E6FB8D4EBB05E7CCC9B4377F00A99CC392ECE1782E86871800 ====


Exact Audio Copy V1.6 from 23. October 2020

EAC extraction logfile from 30. June 2021, 23:29

Emerson String Quartet / Beethoven: The String Quartets (Disc 6)

Used drive : HL-DT-STDVDRAM GH24NSD5 Adapter: 1 ID: 0

Read mode : Secure
Utilize accurate stream : Yes
Defeat audio cache : Yes
Make use of C2 pointers : No

Read offset correction : 6
Overread into Lead-In and Lead-Out : No
Fill up missing offset samples with silence : Yes
Delete leading and trailing silent blocks : No
Null samples used in CRC calculations : Yes
Used interface : Native Win32 interface for Win NT & 2000

Used output format : User Defined Encoder
Selected bitrate : 1024 kBit/s
Quality : High
Add ID3 tag : No
Command line compressor : C:\Program Files (x86)\Exact Audio Copy\FLAC\FLAC.EXE
Additional command line options : -6 -V -T "ARTIST=%artist%" -T "TITLE=%title%" -T "ALBUM=%albumtitle%" -T "DATE=%year%" -T "TRACKNUMBER=%tracknr%" -T "GENRE=%genre%" -T "COMMENT=%comment%" -T "BAND=%albuminterpret%" -T "ALBUMARTIST=%albuminterpret%" -T "COMPOSER=%composer%" %haslyrics%–tag-from-file=LYRICS="%lyricsfile%"%haslyrics% -T "DISCNUMBER=%cdnumber%" -T "TOTALDISCS=%totalcds%" -T "TOTALTRACKS=%numtracks%" %hascover%–picture="%coverfile%"%hascover% %source% -o %dest%


TOC of the extracted CD

Track | Start | Length | Start sector | End sector
––––––––––––––––––––––––––––-
1 | 0:00.00 | 9:34.00 | 0 | 43049
2 | 9:34.00 | 9:25.00 | 43050 | 85424
3 | 18:59.00 | 17:50.00 | 85425 | 165674
4 | 36:49.00 | 2:08.72 | 165675 | 175346
5 | 38:57.72 | 6:09.03 | 175347 | 203024
6 | 45:07.00 | 6:20.00 | 203025 | 231524
7 | 51:27.00 | 3:01.00 | 231525 | 245099
8 | 54:28.00 | 6:49.00 | 245100 | 275774
9 | 61:17.00 | 6:21.00 | 275775 | 304349


Range status and errors

Selected range

Filename I:\Rips\Beethoven - The String Quartets - Emerson String Quartet\CD6\Emerson String Quartet - Beethoven- The String Quartets (Disc 6).wav

Peak level 97.4 %
Extraction speed 2.0 X
Range quality 99.9 %
Test CRC 1B5A60D6
Copy CRC 1B5A60D6
Copy OK

No errors occurred


AccurateRip summary

Track 1 accurately ripped (confidence 94) [9AFBD585] (AR v2)
Track 2 accurately ripped (confidence 94) [D3694761] (AR v2)
Track 3 accurately ripped (confidence 94) [E1FD2399] (AR v2)
Track 4 accurately ripped (confidence 95) [AA4AF982] (AR v2)
Track 5 accurately ripped (confidence 95) [2C5F2443] (AR v2)
Track 6 accurately ripped (confidence 95) [B13999DE] (AR v2)
Track 7 accurately ripped (confidence 95) [B8CD6FEB] (AR v2)
Track 8 accurately ripped (confidence 96) [95DA4A1B] (AR v2)
Track 9 accurately ripped (confidence 90) [C69AD5F7] (AR v2)

All tracks accurately ripped

End of status report

–– CUETools DB Plugin V2.1.6

[CTDB TOCID: tgRXCskYZSR8rGHJvc0hHgVUItQ-] found
Submit result: tgRXCskYZSR8rGHJvc0hHgVUItQ- has been confirmed
Track | CTDB Status
1 | (289/290) Accurately ripped
2 | (288/290) Accurately ripped
3 | (289/290) Accurately ripped
4 | (290/290) Accurately ripped
5 | (288/290) Accurately ripped
6 | (289/290) Accurately ripped
7 | (290/290) Accurately ripped
8 | (285/290) Accurately ripped, or (3/290) differs in 24 samples @05:55:04,05:58:46
9 | (276/290) Accurately ripped, or (6/290) differs in 5878 samples @06:20:59-06:20:64, or (3/290) differs in 23 samples @00:26:66,00:33:37


==== Log checksum DCA76DD5D7AD7132E64402188CA97ABDDF6636EBFD53307CCEFEBC8DE3E6F930 ====


Exact Audio Copy V1.6 from 23. October 2020

EAC extraction logfile from 1. July 2021, 1:25

Emerson String Quartet / Beethoven: The String Quartets (Disc 7)

Used drive : HL-DT-STDVDRAM GH24NSD5 Adapter: 1 ID: 0

Read mode : Secure
Utilize accurate stream : Yes
Defeat audio cache : Yes
Make use of C2 pointers : No

Read offset correction : 6
Overread into Lead-In and Lead-Out : No
Fill up missing offset samples with silence : Yes
Delete leading and trailing silent blocks : No
Null samples used in CRC calculations : Yes
Used interface : Native Win32 interface for Win NT & 2000

Used output format : User Defined Encoder
Selected bitrate : 1024 kBit/s
Quality : High
Add ID3 tag : No
Command line compressor : C:\Program Files (x86)\Exact Audio Copy\FLAC\FLAC.EXE
Additional command line options : -6 -V -T "ARTIST=%artist%" -T "TITLE=%title%" -T "ALBUM=%albumtitle%" -T "DATE=%year%" -T "TRACKNUMBER=%tracknr%" -T "GENRE=%genre%" -T "COMMENT=%comment%" -T "BAND=%albuminterpret%" -T "ALBUMARTIST=%albuminterpret%" -T "COMPOSER=%composer%" %haslyrics%–tag-from-file=LYRICS="%lyricsfile%"%haslyrics% -T "DISCNUMBER=%cdnumber%" -T "TOTALDISCS=%totalcds%" -T "TOTALTRACKS=%numtracks%" %hascover%–picture="%coverfile%"%hascover% %source% -o %dest%


TOC of the extracted CD

Track | Start | Length | Start sector | End sector
––––––––––––––––––––––––––––-
1 | 0:00.32 | 13:00.00 | 32 | 58531
2 | 13:00.32 | 1:54.00 | 58532 | 67081
3 | 14:54.32 | 6:48.00 | 67082 | 97681
4 | 21:42.32 | 3:34.00 | 97682 | 113731
5 | 25:16.32 | 7:13.00 | 113732 | 146206
6 | 32:29.32 | 14:54.00 | 146207 | 213256
7 | 47:23.32 | 9:50.00 | 213257 | 257506


Range status and errors

Selected range

Filename I:\Rips\Beethoven - The String Quartets - Emerson String Quartet\CD7\Emerson String Quartet - Beethoven- The String Quartets (Disc 7).wav

Peak level 97.9 %
Extraction speed 1.8 X
Range quality 100.0 %
Test CRC 2C04EAC5
Copy CRC 2C04EAC5
Copy OK

No errors occurred


AccurateRip summary

Track 1 accurately ripped (confidence 11) [A48626A0] (AR v2)
Track 2 accurately ripped (confidence 11) [F829B2CF] (AR v2)
Track 3 accurately ripped (confidence 11) [C3EA656E] (AR v2)
Track 4 accurately ripped (confidence 11) [9F6A9BC1] (AR v2)
Track 5 accurately ripped (confidence 11) [CAA4B0ED] (AR v2)
Track 6 accurately ripped (confidence 11) [B9EEE141] (AR v2)
Track 7 accurately ripped (confidence 11) [ECBC78A1] (AR v2)

All tracks accurately ripped

End of status report

–– CUETools DB Plugin V2.1.6

[CTDB TOCID: 3r1ST5foJUI7bVOjq3uie7T9eaY-] found
Submit result: 3r1ST5foJUI7bVOjq3uie7T9eaY- has been confirmed
Track | CTDB Status
1 | (264/265) Accurately ripped
2 | (265/265) Accurately ripped
3 | (265/265) Accurately ripped
4 | (265/265) Accurately ripped
5 | (265/265) Accurately ripped
6 | (263/265) Accurately ripped
7 | (263/265) Accurately ripped


==== Log checksum ABE87733DC2FF5881D1B662E4FA13259430A65FF445B30C7EA4482A93F1629C7 ====


Emerson String Quartet - Ludwig van Beethoven: The String Quartets [7CDs] (1997)

Thanks to the original releaser