Tags
Language
Tags

Emilio Diaz - Adios (2020) {Emilio Diaz}

Posted By:
Emilio Diaz - Adios (2020) {Emilio Diaz}

Emilio Diaz - Adios (2020) {Emilio Diaz}
WEB | FLAC tracks | Front | 376MB + 5% Recovery
MP3 CBR 320 Kbps | 140MB + 5% Recovery
Genre: Smooth Jazz, Latin Jazz, Fusion

Emilio Díaz, guitarist, arranger and Argentine composer. From an open and versatile musical style in genres, jazz, funk and blues, Latin jazz, Argentine music, candombe, bossa nova, samba and African rhythms are mixed in a unique style of guitar and electric guitar playing. It reached an exceptional musical level, like composer and arranger. It was an early child who started playing the guitar at the age of 4 in an autodidact manner; Since then it showed a great natural talent, and at 14 it played with soloists and bands of its city. Born in the province of Jujuy, northern Argentina, then in 2006 he settled in the city of Tucumán. In 2013, he auditioned for Berkle College of Music with Oscar Stagnaro, an outstanding musician. Accepted to the institution. His artistic activity as sideman was varied, of flamenco, Argentine folklore, tango, rock and Latin music, recording and directing several musical projects. His musical activity as a solo project began in 2012 with different performances in bars and pubs, managing to consolidate the project in 2013. In 2015 he performed at the "Jazz Salta 2015" National Jazz Festival along with prominent musicians from the Argentine jazz scene Oscar Giunta, Hernan Jacinto, Richard Nant.
Track List
01. Adios
02. Enero
03. Dias Azuis
04. Tarde
05. Velas Içadas
06. Tal Vez Manana
07. Estate
08. Noche
09. Lembra de Mim
10. Espero Blues
11. Y Te Vas
12. Dinorah, Dinorah


AUDIOCHECKER v2.0 beta (build 457) - by Dester - opdester@freemail.hu
~~~~~~~~~~~~~~~~~~~~~~~~~~~~~~~~~~

Started at: суббота, 25. 01. 2020. - 14:01.12
12 files found

01 -===- C:\Users\Андрей\Desktop\Emilio Diaz - Adios (2020) [FLAC]\01. Adios.flac
Extracted successfully
Conclusion: this track is CDDA with probability 100%
Tempfile successfully deleted.

02 -===- C:\Users\Андрей\Desktop\Emilio Diaz - Adios (2020) [FLAC]\02. Enero.flac
Extracted successfully
Conclusion: this track is CDDA with probability 100%
Tempfile successfully deleted.

03 -===- C:\Users\Андрей\Desktop\Emilio Diaz - Adios (2020) [FLAC]\03. Dias Azuis.flac
Extracted successfully
Conclusion: this track is CDDA with probability 100%
Tempfile successfully deleted.

04 -===- C:\Users\Андрей\Desktop\Emilio Diaz - Adios (2020) [FLAC]\04. Tarde.flac
Extracted successfully
Conclusion: this track is CDDA with probability 100%
Tempfile successfully deleted.

05 -===- C:\Users\Андрей\Desktop\Emilio Diaz - Adios (2020) [FLAC]\05. Velas Icadas.flac
Extracted successfully
Conclusion: this track is CDDA with probability 100%
Tempfile successfully deleted.

06 -===- C:\Users\Андрей\Desktop\Emilio Diaz - Adios (2020) [FLAC]\06. Tal Vez Manana.flac
Extracted successfully
Conclusion: this track is CDDA with probability 100%
Tempfile successfully deleted.

07 -===- C:\Users\Андрей\Desktop\Emilio Diaz - Adios (2020) [FLAC]\07. Estate.flac
Extracted successfully
Conclusion: this track is CDDA with probability 100%
Tempfile successfully deleted.

08 -===- C:\Users\Андрей\Desktop\Emilio Diaz - Adios (2020) [FLAC]\08. Noche.flac
Extracted successfully
Conclusion: this track is CDDA with probability 100%
Tempfile successfully deleted.

09 -===- C:\Users\Андрей\Desktop\Emilio Diaz - Adios (2020) [FLAC]\09. Lembra de Mim.flac
Extracted successfully
Conclusion: this track is CDDA with probability 100%
Tempfile successfully deleted.

10 -===- C:\Users\Андрей\Desktop\Emilio Diaz - Adios (2020) [FLAC]\10. Espero Blues.flac
Extracted successfully
Conclusion: this track is CDDA with probability 99%
Tempfile successfully deleted.

11 -===- C:\Users\Андрей\Desktop\Emilio Diaz - Adios (2020) [FLAC]\11. Y Te Vas.flac
Extracted successfully
Conclusion: this track is CDDA with probability 100%
Tempfile successfully deleted.

12 -===- C:\Users\Андрей\Desktop\Emilio Diaz - Adios (2020) [FLAC]\12. Dinorah, Dinorah.flac
Extracted successfully
Conclusion: this track is CDDA with probability 99%
Tempfile successfully deleted.


Finished at: суббота, 25. 01. 2020. - 14:09.42 (operation time: 0:08.29)


foobar2000 1.3.13 / Dynamic Range Meter 1.1.1
log date: 2020-01-26 18:24:20

––––––––––––––––––––––––––––––––––––––––
Analyzed: Emilio Diaz / Adios
––––––––––––––––––––––––––––––––––––––––

DR Peak RMS Duration Track
––––––––––––––––––––––––––––––––––––––––
DR8 -0.31 dB -9.48 dB 5:57 01-Adios
DR6 -0.31 dB -8.42 dB 5:10 02-Enero
DR8 -0.31 dB -10.32 dB 4:31 03-Dias Azuis
DR7 -0.31 dB -8.61 dB 5:51 04-Tarde
DR7 -0.31 dB -9.18 dB 4:23 05-Velas Icadas
DR8 -0.31 dB -9.79 dB 3:33 06-Tal Vez Manana
DR8 -0.31 dB -9.57 dB 5:02 07-Estate
DR7 -0.31 dB -8.67 dB 5:17 08-Noche
DR8 -0.31 dB -9.93 dB 4:47 09-Lembra de Mim
DR7 -0.31 dB -9.00 dB 6:14 10-Espero Blues
DR7 -0.31 dB -9.13 dB 5:33 11-Y Te Vas
DR6 -0.31 dB -7.89 dB 4:07 12-Dinorah, Dinorah
––––––––––––––––––––––––––––––––––––––––

Number of tracks: 12
Official DR value: DR7

Samplerate: 44100 Hz
Channels: 2
Bits per sample: 16
Bitrate: 967 kbps
Codec: FLAC
================================================================================


Thanks to the original customer