Tags
Language
Tags

Eminem - The Marshall Mathers LP [Japan SHM-CD] (2012)

Posted By: JET 1
Eminem - The Marshall Mathers LP [Japan SHM-CD] (2012)

Eminem - The Marshall Mathers LP [Japan SHM-CD] (2012)
EAC Rip | FLAC (Tracks) +CUE, LOG | 614 MB | Scans
Genre: Hip-Hop | Label: Aftermath Entertainment | Catalog Number: UICY-20342

Will the real Slim Shady please stand up? On Eminem's sophomore album, he can't decide who he wants to be: the deranged pseudo-psycho of the Slim Shady LP, or a nice guy who just likes to rhyme about slicing and dicing his girlfriend ("Kim"). Of course, according to Eminem, he's just kidding. He refuses to take responsibility for the misogynistic, homophobic bile he spews, whining that he's the victim of people who don't get his unique sense of humor. It's good old America's fault if the kids aren't alright (Eminem blames bad parenting), and he's just capitalizing on Uncle Sam's dark side. On the Marshall Mathers LP, he's ambivalent about his fame, angry at his life, pissed off that people take him seriously, and fightin' mad at boy bands–and a lot of other white people. But the blue-eyed brat is acutely aware of his status as rap's resident alien: he has the most offensive mouth running, but never uses the "N" word. He gives lyrical love to tragic (black) legends like Tupac and Biggie while dissing white rappers hard. Even sitting duck Puffy gets the kid-gloves treatment. Of course, Eminem is an interesting, witty rapper, and there's some nice production on this CD, courtesy of Dr. Dre and others. But the hatred in Eminem's rhymes makes the album rotten at its core. And his protests that Slim Shady is just a persona become less convincing with each arrest. Then again, Eminem's got it hard: he's rich, famous, white, and male. –Lizz Mendez Berry.

Exact Audio Copy V1.0 beta 3 from 29. August 2011

EAC extraction logfile from 22. March 2013, 22:23

Eminem / The Marshall Mathers LP

Used drive : TSSTcorpCDDVDW SH-S223C Adapter: 2 ID: 1

Read mode : Secure
Utilize accurate stream : Yes
Defeat audio cache : Yes
Make use of C2 pointers : No

Read offset correction : 697
Overread into Lead-In and Lead-Out : No
Fill up missing offset samples with silence : Yes
Delete leading and trailing silent blocks : No
Null samples used in CRC calculations : Yes
Used interface : Installed external ASPI interface
Gap handling : Appended to previous track

Used output format : User Defined Encoder
Selected bitrate : 1024 kBit/s
Quality : High
Add ID3 tag : No
Command line compressor : C:\Program Files\Exact Audio Copy\FLAC\FLAC.EXE
Additional command line options : -8 -V -T "ARTIST=%artist%" -T "TITLE=%title%" -T "ALBUM=%albumtitle%" -T "DATE=%year%" -T "TRACKNUMBER=%tracknr%" -T "GENRE=%genre%" -T "COMMENT=%comment%" -T "BAND=%albuminterpret%" -T "ALBUMARTIST=%albuminterpret%" -T "COMPOSER=%composer%" %haslyrics%–tag-from-file=LYRICS="%lyricsfile%"%haslyrics% -T "DISCNUMBER=%cdnumber%" -T "TOTALDISCS=%totalcds%" -T "TOTALTRACKS=%numtracks%" %hascover%–picture="%coverfile%"%hascover% %source% -o %dest%


TOC of the extracted CD

Track | Start | Length | Start sector | End sector
––––––––––––––––––––––––––––-
1 | 0:00.00 | 0:25.60 | 0 | 1934
2 | 0:25.60 | 4:24.30 | 1935 | 21764
3 | 4:50.15 | 6:44.10 | 21765 | 52074
4 | 11:34.25 | 0:10.45 | 52075 | 52869
5 | 11:44.70 | 3:47.53 | 52870 | 69947
6 | 15:32.48 | 0:53.47 | 69948 | 73969
7 | 16:26.20 | 4:50.33 | 73970 | 95752
8 | 21:16.53 | 4:44.40 | 95753 | 117092
9 | 26:01.18 | 3:38.40 | 117093 | 133482
10 | 29:39.58 | 5:10.10 | 133483 | 156742
11 | 34:49.68 | 5:20.65 | 156743 | 180807
12 | 40:10.58 | 1:01.57 | 180808 | 185439
13 | 41:12.40 | 5:00.23 | 185440 | 207962
14 | 46:12.63 | 4:14.55 | 207963 | 227067
15 | 50:27.43 | 4:48.15 | 227068 | 248682
16 | 55:15.58 | 6:17.70 | 248683 | 277027
17 | 61:33.53 | 5:22.20 | 277028 | 301197
18 | 66:55.73 | 5:18.60 | 301198 | 325107


Track 1

Filename D:\Eminem - 2000 - The Marshall Mathers LP [2012 Reissue, SHM-CD] (UICY-20342) (JP)\01 - Public Service Announcement 2000.wav

Pre-gap length 0:00:02.00

Peak level 55.6 %
Extraction speed 0.9 X
Track quality 100.0 %
Test CRC A8388423
Copy CRC A8388423
Cannot be verified as accurate (confidence 3) [C9B7E42C], AccurateRip returned [0FFB942C] (AR v2)
Copy OK

Track 2

Filename D:\Eminem - 2000 - The Marshall Mathers LP [2012 Reissue, SHM-CD] (UICY-20342) (JP)\02 - Kill You.wav

Peak level 98.8 %
Extraction speed 2.1 X
Track quality 100.0 %
Test CRC 88339138
Copy CRC 88339138
Cannot be verified as accurate (confidence 4) [09EABB51], AccurateRip returned [5AE2598D] (AR v2)
Copy OK

Track 3

Filename D:\Eminem - 2000 - The Marshall Mathers LP [2012 Reissue, SHM-CD] (UICY-20342) (JP)\03 - Stan (feat. Dido).wav

Peak level 98.8 %
Extraction speed 2.2 X
Track quality 100.0 %
Test CRC 53841451
Copy CRC 53841451
Cannot be verified as accurate (confidence 3) [87DFB123], AccurateRip returned [6A6B3647] (AR v2)
Copy OK

Track 4

Filename D:\Eminem - 2000 - The Marshall Mathers LP [2012 Reissue, SHM-CD] (UICY-20342) (JP)\04 - Paul (Skit).wav

Peak level 72.6 %
Extraction speed 0.2 X
Track quality 98.9 %
Test CRC 5C057B6B
Copy CRC 5C057B6B
Cannot be verified as accurate (confidence 4) [BA62349C], AccurateRip returned [8942A519] (AR v2)
Copy OK

Track 5

Filename D:\Eminem - 2000 - The Marshall Mathers LP [2012 Reissue, SHM-CD] (UICY-20342) (JP)\05 - Who Knew.wav

Peak level 98.8 %
Extraction speed 1.8 X
Track quality 99.9 %
Test CRC F40375EF
Copy CRC F40375EF
Cannot be verified as accurate (confidence 4) [84FF9584], AccurateRip returned [52B750CE] (AR v2)
Copy OK

Track 6

Filename D:\Eminem - 2000 - The Marshall Mathers LP [2012 Reissue, SHM-CD] (UICY-20342) (JP)\06 - Steve Berman.wav

Peak level 98.8 %
Extraction speed 1.4 X
Track quality 100.0 %
Test CRC D49B1CC2
Copy CRC D49B1CC2
Cannot be verified as accurate (confidence 4) [5FF4E554], AccurateRip returned [4F54B961] (AR v2)
Copy OK

Track 7

Filename D:\Eminem - 2000 - The Marshall Mathers LP [2012 Reissue, SHM-CD] (UICY-20342) (JP)\07 - The Way I Am.wav

Peak level 98.8 %
Extraction speed 2.1 X
Track quality 100.0 %
Test CRC AF5CECB9
Copy CRC AF5CECB9
Cannot be verified as accurate (confidence 4) [7E725FB9], AccurateRip returned [70C27D86] (AR v2)
Copy OK

Track 8

Filename D:\Eminem - 2000 - The Marshall Mathers LP [2012 Reissue, SHM-CD] (UICY-20342) (JP)\08 - The Real Slim Shady.wav

Peak level 98.8 %
Extraction speed 1.9 X
Track quality 99.9 %
Test CRC 98B5DD8D
Copy CRC 98B5DD8D
Cannot be verified as accurate (confidence 4) [DAFEBB98], AccurateRip returned [E727361C] (AR v2)
Copy OK

Track 9

Filename D:\Eminem - 2000 - The Marshall Mathers LP [2012 Reissue, SHM-CD] (UICY-20342) (JP)\09 - Remember Me (feat. RBX & Sticky Fingaz).wav

Pre-gap length 0:00:00.14

Peak level 98.8 %
Extraction speed 2.0 X
Track quality 100.0 %
Test CRC 74EAD3A6
Copy CRC 74EAD3A6
Cannot be verified as accurate (confidence 4) [68BAE0DC], AccurateRip returned [EEC29D66] (AR v2)
Copy OK

Track 10

Filename D:\Eminem - 2000 - The Marshall Mathers LP [2012 Reissue, SHM-CD] (UICY-20342) (JP)\10 - I'm Back.wav

Peak level 98.8 %
Extraction speed 2.1 X
Track quality 100.0 %
Test CRC 8D85B828
Copy CRC 8D85B828
Cannot be verified as accurate (confidence 3) [4CF08B4F], AccurateRip returned [5271A198] (AR v2)
Copy OK

Track 11

Filename D:\Eminem - 2000 - The Marshall Mathers LP [2012 Reissue, SHM-CD] (UICY-20342) (JP)\11 - Marshall Mathers.wav

Pre-gap length 0:00:00.27

Peak level 98.8 %
Extraction speed 2.1 X
Track quality 100.0 %
Test CRC 28540F0E
Copy CRC 28540F0E
Cannot be verified as accurate (confidence 3) [AC1CD22F], AccurateRip returned [5DE79E32] (AR v2)
Copy OK

Track 12

Filename D:\Eminem - 2000 - The Marshall Mathers LP [2012 Reissue, SHM-CD] (UICY-20342) (JP)\12 - Ken Kaniff (Skit).wav

Peak level 98.8 %
Extraction speed 1.0 X
Track quality 99.8 %
Test CRC 057D18AC
Copy CRC 057D18AC
Cannot be verified as accurate (confidence 3) [40E9A588], AccurateRip returned [FB6C08AE] (AR v2)
Copy OK

Track 13

Filename D:\Eminem - 2000 - The Marshall Mathers LP [2012 Reissue, SHM-CD] (UICY-20342) (JP)\13 - Drug Ballad.wav

Peak level 98.8 %
Extraction speed 2.1 X
Track quality 100.0 %
Test CRC 4C3A9980
Copy CRC 4C3A9980
Cannot be verified as accurate (confidence 4) [5DBEF162], AccurateRip returned [4A7D4C8B] (AR v2)
Copy OK

Track 14

Filename D:\Eminem - 2000 - The Marshall Mathers LP [2012 Reissue, SHM-CD] (UICY-20342) (JP)\14 - Amityville (feat. Bizarre).wav

Peak level 98.8 %
Extraction speed 2.1 X
Track quality 100.0 %
Test CRC B47ED707
Copy CRC B47ED707
Cannot be verified as accurate (confidence 4) [4194F5EA], AccurateRip returned [FBAB6645] (AR v2)
Copy OK

Track 15

Filename D:\Eminem - 2000 - The Marshall Mathers LP [2012 Reissue, SHM-CD] (UICY-20342) (JP)\15 - Bitch Please II (feat. Dr. Dre, Snoop Dogg, Xzibit & Nate Dogg).wav

Peak level 98.8 %
Extraction speed 2.1 X
Track quality 100.0 %
Test CRC 584D6380
Copy CRC 584D6380
Cannot be verified as accurate (confidence 4) [2F5E6753], AccurateRip returned [96E8A9EA] (AR v2)
Copy OK

Track 16

Filename D:\Eminem - 2000 - The Marshall Mathers LP [2012 Reissue, SHM-CD] (UICY-20342) (JP)\16 - Kim.wav

Peak level 98.8 %
Extraction speed 2.2 X
Track quality 100.0 %
Test CRC E731392A
Copy CRC E731392A
Cannot be verified as accurate (confidence 3) [C4FD19E9], AccurateRip returned [2A5B5E96] (AR v2)
Copy OK

Track 17

Filename D:\Eminem - 2000 - The Marshall Mathers LP [2012 Reissue, SHM-CD] (UICY-20342) (JP)\17 - Under The Influence (feat. D12).wav

Peak level 98.8 %
Extraction speed 2.1 X
Track quality 100.0 %
Test CRC 203F7B96
Copy CRC 203F7B96
Cannot be verified as accurate (confidence 3) [2F1D3A4B], AccurateRip returned [0CD37812] (AR v2)
Copy OK

Track 18

Filename D:\Eminem - 2000 - The Marshall Mathers LP [2012 Reissue, SHM-CD] (UICY-20342) (JP)\18 - Criminal.wav

Pre-gap length 0:00:00.47

Peak level 98.8 %
Extraction speed 2.1 X
Track quality 100.0 %
Test CRC 01B58C12
Copy CRC 01B58C12
Cannot be verified as accurate (confidence 4) [683E96DB], AccurateRip returned [787365F2] (AR v2)
Copy OK


No tracks could be verified as accurate
You may have a different pressing from the one(s) in the database

No errors occurred

End of status report

–– CUETools DB Plugin V2.1.4

[CTDB TOCID: NIcApPwSHPMPBBW5q.W5ndQi6h0-] found
Submit result: NIcApPwSHPMPBBW5q.W5ndQi6h0- has been confirmed
Track | CTDB Status
1 | (8/8) Accurately ripped
2 | (8/8) Accurately ripped
3 | (8/8) Accurately ripped
4 | (8/8) Accurately ripped
5 | (8/8) Accurately ripped
6 | (8/8) Accurately ripped
7 | (8/8) Accurately ripped
8 | (8/8) Accurately ripped
9 | (8/8) Accurately ripped
10 | (8/8) Accurately ripped
11 | (8/8) Accurately ripped
12 | (8/8) Accurately ripped
13 | (8/8) Accurately ripped
14 | (8/8) Accurately ripped
15 | (8/8) Accurately ripped
16 | (8/8) Accurately ripped
17 | (7/8) Accurately ripped, or (1/8) differs in 4 samples @00:25:26
18 | (7/8) Accurately ripped, or (1/8) differs in 8 samples @03:44:58


==== Log checksum 8096E120AF5C89E95BA230C99E77E6AC20C398BEF7852C4BE23462512B251921 ====

Tracklist ::::
01. Public Service Announcement 2000 [0:00:25.60]
02. Kill You [0:04:24.30]
03. Stan (feat. Dido) [0:06:44.10]
04. Paul (Skit) [0:00:10.45]
05. Who Knew [0:03:47.53]
06. Steve Berman [0:00:53.47]
07. The Way I Am [0:04:50.33]
08. The Real Slim Shady [0:04:44.40]
09. Remember Me (feat. RBX & Sticky Fingaz) [0:03:38.40]
10. I'm Back [0:05:10.10]
11. Marshall Mathers [0:05:20.65]
12. Ken Kaniff (Skit) [0:01:01.57]
13. Drug Ballad [0:05:00.23]
14. Amityville (feat. Bizarre) [0:04:14.55]
15. Bitch Please II (feat. Dr. Dre, Snoop Dogg, Xzibit & Nate Dogg) [0:04:48.15]
16. Kim [0:06:17.70]
17. Under The Influence (feat. D12) [0:05:22.20]
18. Criminal [0:05:18.60]

Thanks to Original Re-leaser.