Tags
Language
Tags

Emmanuel Pahud, François Leleux, Orchestre de Chambre de Paris - Mozart & Flute in Paris (2021)

Posted By: ArlegZ
Emmanuel Pahud, François Leleux, Orchestre de Chambre de Paris - Mozart & Flute in Paris (2021)

Emmanuel Pahud, François Leleux, Orchestre de Chambre de Paris - Mozart & Flute in Paris (2021)
EAC | FLAC | Image (Cue & Log) ~ 569 Mb | Total time: 123:33 | Scans included
Classical | Label: Warner Classics | # 0190296739323 | Recorded: 2020, 2021

This double album, Mozart & Flute in Paris, brings together nine captivating works, all with their origins in Paris, which feature a solo flute. Emmanuel Pahud is joined by his colleagues from ‘wind supergroup’ Les Vents Français – oboist François Leleux (here also conducting the Orchestre de chambre de Paris), clarinettist Paul Meyer, bassoonist Gilbert Audin and horn-player Radovan Vlatković – and by Belgian harpist Anneleen Lenaerts.
“The pieces on this album represent different golden ages of the flute,” says Pahud. The earliest, dating from 1778 are two concertante works that Mozart wrote while visiting Paris. The newest, premiered in 2014 by Pahud and the Orchestre de chambre de Paris, is Dreamtime by Philippe Hersant. The intervening period is represented by pieces by Saint-Saëns, Fauré, Chaminade and Poulenc, composers whose music embodies France’s special relationship with the flute.

Performer:
Emmanuel Pahud, flute
Anneleen Lenaerts, harp (CD2: 4-6)
Gilbert Audin, bassoon (CD2: 1-3)
François Leleux, oboe (CD2: 1-3)
Paul Meyer, clarinet (CD1: 9)
Radovan Vlatković, horn (CD2: 1-3)
Orchestre de Chambre de Paris
François Leleux, conductor

Track List:
CD1:
Philippe Hersant (b. 1948)
01. Dreamtime
Camille Saint-Saëns (1835 - 1921)
02. Romance, Op.37
03. Odelette, Op.162
Cécile Chaminade (1857 - 1944)
04. Concertino, Op.107
Francis Poulenc (1899 - 1963)
Flute Sonata, FP 164
05. I. Allegretto malinconico
06. II. Cantilena. Assez lent
07. III. Presto giocoso
Gabriel Fauré (1845 - 1924)
08. Fantaisie, Op.79
Camille Saint-Saëns
09. Tarentelle, Op.6
CD2:
Wolfgang Amadeus Mozart (1756-1791)
Sinfonia concertante in E flat major, K Anh. 9 (297b)
01. I. Allegro
02. II. Adagio
03. III. Andantino con variazioni. Thema - Andantino
Concerto for flute and harp, K299 (297c)
04. I. Allegro
05. II. Andantino
06. III. Rondeau (Allegro)


Exact Audio Copy V1.5 from 20. February 2020

EAC extraction logfile from 28. October 2021, 22:10

Emmanuel Pahud, Orchestre de Chambre de Paris, François Leleux / Mozart & Flute in Paris - CD1

Used drive : ASUS SDRW-08U7M-U Adapter: 1 ID: 0

Read mode : Secure
Utilize accurate stream : Yes
Defeat audio cache : Yes
Make use of C2 pointers : No

Read offset correction : 6
Overread into Lead-In and Lead-Out : No
Fill up missing offset samples with silence : Yes
Delete leading and trailing silent blocks : No
Null samples used in CRC calculations : Yes
Used interface : Native Win32 interface for Win NT & 2000

Used output format : User Defined Encoder
Selected bitrate : 128 kBit/s
Quality : High
Add ID3 tag : No
Command line compressor : C:\Program Files (x86)\Exact Audio Copy\Flac\flac.exe
Additional command line options : -V -8 -T "Date=%year%" -T "Genre=%genre%" %source%


TOC of the extracted CD

Track | Start | Length | Start sector | End sector
––––––––––––––––––––––––––––-
1 | 0:00.00 | 18:41.16 | 0 | 84090
2 | 18:41.16 | 6:14.02 | 84091 | 112142
3 | 24:55.18 | 8:08.55 | 112143 | 148797
4 | 33:03.73 | 8:26.54 | 148798 | 186801
5 | 41:30.52 | 4:46.69 | 186802 | 208320
6 | 46:17.46 | 4:16.45 | 208321 | 227565
7 | 50:34.16 | 3:47.37 | 227566 | 244627
8 | 54:21.53 | 5:26.38 | 244628 | 269115
9 | 59:48.16 | 6:24.20 | 269116 | 297935


Range status and errors

Selected range

Filename C:\temp\Mozart & Flute in Paris - Emmanuel Pahud - 2021\CD1\Mozart & Flute in Paris - CD1.wav

Peak level 98.8 %
Extraction speed 5.1 X
Range quality 100.0 %
Test CRC 5B7C19D1
Copy CRC 5B7C19D1
Copy OK

No errors occurred


AccurateRip summary

Track 1 not present in database
Track 2 not present in database
Track 3 not present in database
Track 4 not present in database
Track 5 not present in database
Track 6 not present in database
Track 7 not present in database
Track 8 not present in database
Track 9 not present in database

None of the tracks are present in the AccurateRip database

End of status report

==== Log checksum 1AA428206E884D0FB3650FA579CACA1F953EA4C8D4833AC7E76CDD5152D747BE ====


Exact Audio Copy V1.5 from 20. February 2020

EAC extraction logfile from 28. October 2021, 22:53

Emmanuel Pahud, Orchestre de Chambre de Paris, François Leleux / Mozart & Flute in Paris - CD2

Used drive : ASUS SDRW-08U7M-U Adapter: 1 ID: 0

Read mode : Secure
Utilize accurate stream : Yes
Defeat audio cache : Yes
Make use of C2 pointers : No

Read offset correction : 6
Overread into Lead-In and Lead-Out : No
Fill up missing offset samples with silence : Yes
Delete leading and trailing silent blocks : No
Null samples used in CRC calculations : Yes
Used interface : Native Win32 interface for Win NT & 2000

Used output format : User Defined Encoder
Selected bitrate : 128 kBit/s
Quality : High
Add ID3 tag : No
Command line compressor : C:\Program Files (x86)\Exact Audio Copy\Flac\flac.exe
Additional command line options : -V -8 -T "Date=%year%" -T "Genre=%genre%" %source%


TOC of the extracted CD

Track | Start | Length | Start sector | End sector
––––––––––––––––––––––––––––-
1 | 0:00.00 | 9:50.43 | 0 | 44292
2 | 9:50.43 | 6:18.39 | 44293 | 72681
3 | 16:09.07 | 11:42.64 | 72682 | 125395
4 | 27:51.71 | 10:37.01 | 125396 | 173171
5 | 38:28.72 | 8:32.42 | 173172 | 211613
6 | 47:01.39 | 10:19.45 | 211614 | 258083


Range status and errors

Selected range

Filename C:\temp\Mozart & Flute in Paris - Emmanuel Pahud - 2021\CD2\Mozart & Flute in Paris - CD2.wav

Peak level 98.8 %
Extraction speed 4.6 X
Range quality 100.0 %
Test CRC C0A1CAD2
Copy CRC C0A1CAD2
Copy OK

No errors occurred


AccurateRip summary

Track 1 not present in database
Track 2 not present in database
Track 3 not present in database
Track 4 not present in database
Track 5 not present in database
Track 6 not present in database

None of the tracks are present in the AccurateRip database

End of status report

==== Log checksum E5D233AE7D1D0C8F3F8DB9E201B806EEB9C4BCD216F712749EE0741ACDE7A527 ====

Emmanuel Pahud, François Leleux, Orchestre de Chambre de Paris - Mozart & Flute in Paris (2021)

Thanks to the original releaser