Tags
Language
Tags

Emmylou Harris - Stumble Into Grace (2003)

Posted By: v3122
Emmylou Harris - Stumble Into Grace (2003)

Emmylou Harris - Stumble Into Grace (2003)
EAC | Flac(Image) + Cue + Log & MP3 CBR 320Kbps
Nonesuch Records, 79805-2 | ~ 280 or 111 Mb | Scans Included
Rock, Folk, World, Country

There's something just the slightest bit comic about calling an Emmylou Harris album Stumble into Grace. While Harris has always sounded as if both earthly and spiritual grace were created with her in mind, when she sings, it seems she can no more stumble than a dolphin can be taught to walk on dry land. Stumble into Grace finds Harris following in the same creative path she began to pursue with Wrecking Ball and Red Dirt Girl, which is to say that the influence of her country-influenced material is more felt than heard as she dips her toes into the spectral and atmospheric accents of folk, indie pop, and world music. While Harris has long been just as interested in nuance and blank spaces as the notes of her songs, producer Malcolm Burn (who also collaborated with her on Red Dirt Girl) knows what to make of the purposefully spare surfaces of these new songs (which, again, like Red Dirt Girl, were, for the most part, written by Harris herself), and the results are splendid. Part of the revelation of Wrecking Ball and Red Dirt Girl was hearing Harris moving in a startling new direction, and while Stumble into Grace seems less novel in the context of its immediate predecessors, the bitter clarity of "Time in Babylon," the gentle but energetic textures of "Little Bird," and the funky shuffle of "Jupiter Rising" confirm that she hasn't run out of new avenues to explore. After three decades as a world-class talent, what's most heartening is that Harris is not only making some of the finest music of her career at a time when many artists would be treading water, but she's delightfully confounding expectations at the same time. Stumble into Grace shows she's still playing at the top of her game.

by Mark Deming, allmusic
Emmylou Harris - Stumble Into Grace (2003):

Emmylou Harris - Stumble Into Grace (2003)

Tracklist:

01. Here I Am (03:48)
02. I Will Dream (05:03)
03. Little Bird (03:15)
04. Time in Babylon (04:37)
05. Can You Hear Me Now (05:37)
06. Strong Hand (03:17)
07. Jupiter Rising (03:03)
08. O Evangeline (05:41)
09. Plaisir d'Amour (02:23)
10. Lost Unto This World (04:37)
11. Cup of Kindness (03:55)

Converted to Image (CUETools 2.1.4)

Exact Audio Copy V0.99 prebeta 4 from 23. January 2008

EAC extraction logfile from 24. June 2009, 17:56

Emmylou Harris / Stumble Into Grace

Used drive : CREATIVECD-RW RW121032E Adapter: 1 ID: 0

Read mode : Secure
Utilize accurate stream : Yes
Defeat audio cache : Yes
Make use of C2 pointers : No

Read offset correction : 99
Overread into Lead-In and Lead-Out : No
Fill up missing offset samples with silence : Yes
Delete leading and trailing silent blocks : No
Null samples used in CRC calculations : Yes
Used interface : Native Win32 interface for Win NT & 2000
Gap handling : Appended to previous track

Used output format : User Defined Encoder
Selected bitrate : 320 kBit/s
Quality : High
Add ID3 tag : No
Command line compressor : C:\Program Files\FLAC\flac.exe
Additional command line options : -8 -V -T "ARTIST=%a" -T "TITLE=%t" -T "ALBUM=%g" -T "DATE=%y" -T "TRACKNUMBER=%n" -T "GENRE=%m" -T "COMMENT=EAC FLAC -8" %s


TOC of the extracted CD

Track | Start | Length | Start sector | End sector
––––––––––––––––––––––––––––-
1 | 0:00.00 | 3:48.15 | 0 | 17114
2 | 3:48.15 | 5:02.72 | 17115 | 39836
3 | 8:51.12 | 3:14.48 | 39837 | 54434
4 | 12:05.60 | 4:37.27 | 54435 | 75236
5 | 16:43.12 | 5:36.68 | 75237 | 100504
6 | 22:20.05 | 3:16.65 | 100505 | 115269
7 | 25:36.70 | 3:03.20 | 115270 | 129014
8 | 28:40.15 | 5:41.30 | 129015 | 154619
9 | 34:21.45 | 2:22.47 | 154620 | 165316
10 | 36:44.17 | 4:36.48 | 165317 | 186064
11 | 41:20.65 | 3:55.10 | 186065 | 203699


Track 1

Filename D:\downloads 2\EAC rips\01 - Here I Am.wav

Pre-gap length 0:00:02.00

Peak level 99.8 %
Track quality 100.0 %
Test CRC 14AD5EA7
Copy CRC 14AD5EA7
Accurately ripped (confidence 32) [5C0C07AE]
Copy OK

Track 2

Filename D:\downloads 2\EAC rips\02 - I Will Dream.wav

Peak level 99.8 %
Track quality 100.0 %
Test CRC E42C540D
Copy CRC E42C540D
Accurately ripped (confidence 33) [6903E48F]
Copy OK

Track 3

Filename D:\downloads 2\EAC rips\03 - Little Bird.wav

Peak level 94.1 %
Track quality 100.0 %
Test CRC C9DE481F
Copy CRC C9DE481F
Accurately ripped (confidence 33) [5BF7FF63]
Copy OK

Track 4

Filename D:\downloads 2\EAC rips\04 - Time In Babylon.wav

Peak level 99.8 %
Track quality 100.0 %
Test CRC E7908F11
Copy CRC E7908F11
Accurately ripped (confidence 32) [9FA320DA]
Copy OK

Track 5

Filename D:\downloads 2\EAC rips\05 - Can You Hear Me Now.wav

Peak level 99.8 %
Track quality 100.0 %
Test CRC AB6C4C5D
Copy CRC AB6C4C5D
Accurately ripped (confidence 32) [CC7D8142]
Copy OK

Track 6

Filename D:\downloads 2\EAC rips\06 - Strong Hand.wav

Pre-gap length 0:00:00.70

Peak level 95.9 %
Track quality 100.0 %
Test CRC 2A8244BF
Copy CRC 2A8244BF
Accurately ripped (confidence 32) [4E06AB05]
Copy OK

Track 7

Filename D:\downloads 2\EAC rips\07 - Jupiter Rising.wav

Pre-gap length 0:00:01.13

Peak level 99.8 %
Track quality 99.9 %
Test CRC DDD6807E
Copy CRC DDD6807E
Accurately ripped (confidence 33) [47F846AE]
Copy OK

Track 8

Filename D:\downloads 2\EAC rips\08 - O Evangeline.wav

Peak level 99.8 %
Track quality 100.0 %
Test CRC 91BEFB63
Copy CRC 91BEFB63
Accurately ripped (confidence 32) [BB07BEF7]
Copy OK

Track 9

Filename D:\downloads 2\EAC rips\09 - Plaisir d'Amour.wav

Peak level 99.8 %
Track quality 100.0 %
Test CRC 3B9739C1
Copy CRC 3B9739C1
Accurately ripped (confidence 32) [B4CD3A6C]
Copy OK

Track 10

Filename D:\downloads 2\EAC rips\10 - Lost Unto This World.wav

Pre-gap length 0:00:00.62

Peak level 99.8 %
Track quality 100.0 %
Test CRC BAEF19CB
Copy CRC BAEF19CB
Accurately ripped (confidence 32) [D0D92CB0]
Copy OK

Track 11

Filename D:\downloads 2\EAC rips\11 - Cup Of Kindness.wav

Peak level 99.8 %
Track quality 99.9 %
Test CRC B1989E7C
Copy CRC B1989E7C
Accurately ripped (confidence 32) [8C2A8BA8]
Copy OK


All tracks accurately ripped

No errors occurred

End of status report

foobar2000 1.2.9 / Dynamic Range Meter 1.1.1
log date: 2017-06-19 12:10:50

––––––––––––––––––––––––––––––––––––––––
Analyzed: Emmylou Harris / Stumble Into Grace
––––––––––––––––––––––––––––––––––––––––

DR Peak RMS Duration Track
––––––––––––––––––––––––––––––––––––––––
DR8 -0.01 dB -10.25 dB 3:48 01-Here I Am
DR9 -0.01 dB -11.55 dB 5:03 02-I Will Dream
DR8 -0.53 dB -11.74 dB 3:15 03-Little Bird
DR8 -0.01 dB -9.50 dB 4:37 04-Time In Babylon
DR10 -0.01 dB -12.90 dB 5:37 05-Can You Hear Me Now
DR8 -0.36 dB -11.52 dB 3:17 06-Strong Hand
DR8 -0.01 dB -9.42 dB 3:03 07-Jupiter Rising
DR10 -0.01 dB -11.71 dB 5:41 08-O Evangeline
DR11 -0.01 dB -15.63 dB 2:23 09-Plaisir d'Amour
DR9 -0.01 dB -10.50 dB 4:37 10-Lost Unto This World
DR9 -0.01 dB -10.86 dB 3:55 11-Cup Of Kindness
––––––––––––––––––––––––––––––––––––––––

Number of tracks: 11
Official DR value: DR9

Samplerate: 44100 Hz
Channels: 2
Bits per sample: 16
Bitrate: 828 kbps
Codec: FLAC

[CUETools log; Date: 19.06.2017 12:10:45; Version: 2.1.4]
[CTDB TOCID: ZNWQBbqmKSHC985qF12yg6DOxZA-] found.
Track | CTDB Status
1 | (163/169) Accurately ripped
2 | (163/169) Accurately ripped
3 | (163/169) Accurately ripped
4 | (161/169) Accurately ripped
5 | (161/169) Accurately ripped
6 | (162/169) Accurately ripped
7 | (159/169) Accurately ripped
8 | (162/169) Accurately ripped
9 | (164/169) Accurately ripped
10 | (163/169) Accurately ripped
11 | (159/169) Accurately ripped
[AccurateRip ID: 0012f01c-00a3a8c4-740a9c0b] found.
Track [ CRC | V2 ] Status
01 [5c0c07ae|5973d7fc] (079+091/314) Accurately ripped
02 [6903e48f|10558a4a] (080+091/316) Accurately ripped
03 [5bf7ff63|a78c4efa] (080+091/316) Accurately ripped
04 [9fa320da|40ee7e3b] (080+089/315) Accurately ripped
05 [cc7d8142|90577101] (080+090/317) Accurately ripped
06 [4e06ab05|8fff0671] (079+090/316) Accurately ripped
07 [47f846ae|1136e09c] (079+089/313) Accurately ripped
08 [bb07bef7|29c3a6e4] (079+090/314) Accurately ripped
09 [b4cd3a6c|be230f26] (079+090/312) Accurately ripped
10 [d0d92cb0|18a1c0a3] (079+087/310) Accurately ripped
11 [8c2a8ba8|c6298c46] (078+090/313) Accurately ripped
Offsetted by 141:
01 [c7eb6cdc] (079/314) Accurately ripped
02 [ec47438d] (080/316) Accurately ripped
03 [6c1687af] (079/316) Accurately ripped
04 [a6df213e] (079/315) Accurately ripped
05 [70191910] (080/317) Accurately ripped
06 [091f20e2] (080/316) Accurately ripped
07 [2024d1bd] (079/313) Accurately ripped
08 [d5734d66] (078/314) Accurately ripped
09 [0f1684d5] (078/312) Accurately ripped
10 [20aada73] (079/310) Accurately ripped
11 [fd1df6ef] (078/313) Accurately ripped
Offsetted by -1176:
01 [984b523e] (000/314) No match (V2 was not tested)
02 [dbf52c64] (000/316) No match (V2 was not tested)
03 [b35cc332] (000/316) No match (V2 was not tested)
04 [bb2dd475] (000/315) No match (V2 was not tested)
05 [a89a0b38] (000/317) No match (V2 was not tested)
06 [b2bfe177] (000/316) No match (V2 was not tested)
07 [544507ef] (000/313) No match (V2 was not tested)
08 [97bbdaa4] (000/314) No match (V2 was not tested)
09 [a7e6e38b] (000/312) No match (V2 was not tested)
10 [0222cf13] (000/310) No match (V2 was not tested)
11 [0e9b179c] (000/313) No match (V2 was not tested)
Offsetted by -36:
01 [70ab179a] (000/314) No match (V2 was not tested)
02 [28c22433] (000/316) No match (V2 was not tested)
03 [ff5436a0] (000/316) No match (V2 was not tested)
04 [edf99a06] (000/315) No match (V2 was not tested)
05 [a4f8536f] (000/317) No match (V2 was not tested)
06 [2ff2224c] (000/316) No match (V2 was not tested)
07 [a8bfd409] (000/313) No match (V2 was not tested)
08 [b5d19991] (000/314) No match (V2 was not tested)
09 [b76983e0] (000/312) No match (V2 was not tested)
10 [875b6a3b] (000/310) No match (V2 was not tested)
11 [3110add7] (000/313) No match (V2 was not tested)
Offsetted by -30:
01 [293b69ae] (000/314) No match (V2 was not tested)
02 [bb163d8e] (000/316) No match (V2 was not tested)
03 [264271a9] (000/316) No match (V2 was not tested)
04 [8d9a7dd7] (000/315) No match (V2 was not tested)
05 [a5c0aaea] (000/317) No match (V2 was not tested)
06 [b4ef63db] (000/316) No match (V2 was not tested)
07 [19268eea] (000/313) No match (V2 was not tested)
08 [f5299f0b] (000/314) No match (V2 was not tested)
09 [67e8344f] (000/312) No match (V2 was not tested)
10 [3e3b0abd] (000/310) No match (V2 was not tested)
11 [acabafac] (000/313) No match (V2 was not tested)
Offsetted by -6:
01 [28b64256] (000/314) No match (V2 was not tested)
02 [ae86f10e] (000/316) No match (V2 was not tested)
03 [275d569c] (002/316) Accurately ripped
04 [04bb2e14] (002/315) Accurately ripped
05 [ca01beb6] (002/317) Accurately ripped
06 [c8f769a7] (002/316) Accurately ripped
07 [d8a430ae] (002/313) Accurately ripped
08 [88ffde5b] (002/314) Accurately ripped
09 [10a58d73] (000/312) No match (V2 was not tested)
10 [19e78c61] (000/310) No match (V2 was not tested)
11 [0ffe5ba7] (002/313) Accurately ripped

Track Peak [ CRC32 ] [W/O NULL] [ LOG ]
– 99,8 [968FFFF9] [60C0450B]
01 99,8 [14AD5EA7] [5A760F94] CRC32
02 99,8 [E42C540D] [4099F71C] CRC32
03 94,1 [C9DE481F] [251BA39B] CRC32
04 99,8 [E7908F11] [668C2698] CRC32
05 99,8 [AB6C4C5D] [06A36EA7] CRC32
06 95,9 [2A8244BF] [B1B1399F] CRC32
07 99,8 [DDD6807E] [A5D5B0A3] CRC32
08 99,8 [91BEFB63] [0B75BC69] CRC32
09 99,8 [3B9739C1] [AAE44DB1] CRC32
10 99,8 [BAEF19CB] [74FA6F36] CRC32
11 99,8 [B1989E7C] [18C8D0A2] CRC32

Emmylou Harris - Stumble Into Grace (2003)

All thanks go to spellboy

Emmylou Harris in my Blog

Download Emmylou Harris - Stumble Into Grace (2003):