Subcategories
Tags
Language
Tags

Enigma - Singles Collection [7CD] (1990-1997)

Posted By: gribovar
Enigma - Singles Collection [7CD] (1990-1997)

Enigma - Singles Collection [7CD] (1990-1997)
EAC Rip | FLAC (image/tracks+.cue+log) - 997 MB | MP3 CBR 320 kbps (LAME 3.93) - 349 MB | Covers - 293 MB
Genre: New Age, Enigmatic | RAR 3% Rec. | Label: Virgin, Charisma

Highly successful worldbeat dance project headed by Michael Cretu that broke through with the international hit "Sadeness" in 1991.
A worldbeat dance fixture of the late 20th century and beyond, having sold tens of millions of albums worldwide, Enigma were an instant success with their unlikely combination of new age tones, chilled-out club production, and samples of Gregorian chant. The project arrived with their single "Sadeness (Pt. I)," which immediately became an international hit and the calling card for their unique sound. Over the next three decades, Enigma would release upwards of eight albums and collections, many of which spent time in the Billboard charts.

Enigma - Singles Collection [7CD] (1990-1997)

Enigma - Sadeness Part I (1990)
EAC Rip | FLAC (image+.cue+log) - 119 MB | MP3 CBR 320 kbps (LAME 3.93) - 41 MB | Covers - 44 MB
Genre: New Age, Enigmatic | RAR 3% Rec. | Label: Virgin (663 703)

Tracklist:
01. Sadeness Part I (Radio Edit)
02. Sadeness Part I (Violent US Remix)
03. Sadeness Part I (Extended Trance Mix)
04. Sadeness Part I (Meditation Mix)

Total time: 17:30

Exact Audio Copy V0.99 prebeta 5 from 4. May 2009

Отчёт EAC об извлечении, выполненном 3. марта 2010, 21:53

Enigma / Sadeness Part I

Дисковод: _NEC DVD_RW ND-4571A Adapter: 0 ID: 2

Режим чтения : Достоверность
Использование точного потока : Да
Отключение кэша аудио : Да
Использование указателей C2 : Нет

Коррекция смещения при чтении : 48
Способность читать области Lead-in и Lead-out : Нет
Заполнение пропущенных сэмплов тишиной : Да
Удаление блоков с тишиной в начале и конце : Нет
При вычислениях CRC использовались нулевые сэмплы : Да
Интерфейс : Встроенный Win32-интерфейс для Win NT/2000

Выходной формат : Пользовательский кодировщик
Выбранный битрейт : 768 kBit/s
Качество : Высокий
Добавление ID3-тэга : Нет
Утилита сжатия : C:\Program Files\Exact Audio Copy\FLAC\FLAC.EXE
Дополнительные параметры : -6 -V -T "ARTIST=%a" -T "TITLE=%t" -T "ALBUM=%g" -T "DATE=%y" -T "TRACKNUMBER=%n" -T "GENRE=%m" -T "COMMENT=%e" %s -o %d


TOC извлечённого CD

Трек | Старт | Длительность | Начальный сектор | Конечный сектор
––––––––––––––––––––––––––––––––––-
1 | 0:00.33 | 4:20.30 | 33 | 19562
2 | 4:20.63 | 5:05.52 | 19563 | 42489
3 | 9:26.40 | 5:02.23 | 42490 | 65162
4 | 14:28.63 | 3:01.42 | 65163 | 78779


Характеристики диапазона извлечения и сообщения об ошибках

Выбранный диапазон

Имя файла M:\Свои\Enigma - 1990 - Sadeness Part I (CDM) (Germany).wav

Пиковый уровень 100.0 %
Качество диапазона 100.0 %
CRC теста 7409BB81
CRC копии 7409BB81
Копирование… OK

Ошибок не произошло


AccurateRip: сводка

Трек 1 точное извлечение (доверие 62) [AFAF7F15]
Трек 2 точное извлечение (доверие 61) [DAA6D70B]
Трек 3 точное извлечение (доверие 60) [73E3E563]
Трек 4 точное извлечение (доверие 59) [B360866B]

Все треки извлечены точно

Конец отчёта

[CUETools log; Date: 03.06.2021 0:31:38; Version: 2.1.4]
Pregap length 00:00:33.
[CTDB TOCID: 1JN14KNC24slbPiNMTiIDoXXGeU-] found.
Track | CTDB Status
1 | (564/566) Accurately ripped
2 | (561/566) Accurately ripped
3 | (563/566) Accurately ripped
4 | (559/566) Accurately ripped
[AccurateRip ID: 000324cd-000c87bd-2e041a04] found.
Track [ CRC | V2 ] Status
01 [afaf7f15|97d5439f] (097+194/313) Accurately ripped
02 [daa6d70b|2f392e0c] (096+188/306) Accurately ripped
03 [73e3e563|e2e67480] (097+193/312) Accurately ripped
04 [b360866b|1fcbf9b0] (093+189/304) Accurately ripped
Offsetted by -900:
01 [0b08ff35] (003/313) Accurately ripped
02 [b075a5d7] (003/306) Accurately ripped
03 [84d2d993] (003/312) Accurately ripped
04 [b9ba7123] (003/304) Accurately ripped
Offsetted by -669:
01 [c4a7c8fd] (008/313) Accurately ripped
02 [f39bdfb2] (008/306) Accurately ripped
03 [711e0d3f] (008/312) Accurately ripped
04 [bd37d7e1] (008/304) Accurately ripped
Offsetted by -66:
01 [7aa6b325] (000/313) No match (V2 was not tested)
02 [ec09a1f1] (000/306) No match (V2 was not tested)
03 [9e178d7b] (000/312) No match (V2 was not tested)
04 [fb85d6c7] (000/304) No match (V2 was not tested)

Track Peak [ CRC32 ] [W/O NULL] [ LOG ]
– 100,0 [7409BB81] [FE337A8C] CRC32
01 100,0 [0AF08EBA] [C3AEEED0]
02 100,0 [BD805FF0] [1122DA61]
03 100,0 [5FC54302] [2D66A7ED]
04 96,9 [57B0915B] [2603FFC3]

Enigma - Singles Collection [7CD] (1990-1997)

Enigma - Mea Culpa Part II (1990)
EAC Rip | FLAC (tracks+.cue+log) - 154 MB | MP3 CBR 320 kbps (LAME 3.93) - 56 MB | Covers - 76 MB
Genre: New Age, Enigmatic | RAR 3% Rec. | Label: Charisma (2-96352)

Tracklist:
01. Mea Culpa Part II (Fading Shades Mix)
02. Mea Culpa Part II (Catholic Version)
03. Mea Culpa Part II (Orthodox Version)
04. Mea Culpa Part II (LP Version)
05. Communion: O Sacrum Convivium A 5: Andrea Gabrieli 1565

Total time: 24:03

Exact Audio Copy V1.0 beta 3 from 29. August 2011

EAC extraction logfile from 26. June 2013, 18:37

Enigma / Mea Culpa Part II

Used drive : ASUS DRW-1814BL Adapter: 3 ID: 0

Read mode : Secure
Utilize accurate stream : Yes
Defeat audio cache : Yes
Make use of C2 pointers : No

Read offset correction : 6
Overread into Lead-In and Lead-Out : No
Fill up missing offset samples with silence : Yes
Delete leading and trailing silent blocks : No
Null samples used in CRC calculations : Yes
Used interface : Native Win32 interface for Win NT & 2000
Gap handling : Appended to previous track

Used output format : User Defined Encoder
Selected bitrate : 896 kBit/s
Quality : High
Add ID3 tag : Yes
Command line compressor : C:\Program Files\Exact Audio Copy\Flac\flac.exe
Additional command line options : -V -8 -T "Genre=%genre%" -T "Artist=%artist%" -T "Title=%title%" -T "Album=%albumtitle%" -T "Date=%year%" -T "Tracknumber=%tracknr%" -T "Comment=%comment%" %source%


TOC of the extracted CD

Track | Start | Length | Start sector | End sector
––––––––––––––––––––––––––––-
1 | 0:00.50 | 6:15.35 | 50 | 28209
2 | 6:16.10 | 3:56.50 | 28210 | 45959
3 | 10:12.60 | 4:03.70 | 45960 | 64254
4 | 14:16.55 | 5:05.15 | 64255 | 87144
5 | 19:21.70 | 4:42.27 | 87145 | 108321


Track 1

Filename E:\music\Enigma - 1990 - Mea Culpa Part II\01. Mea Culpa Part II (Fading Shades Mix).wav

Pre-gap length 0:00:02.50

Peak level 98.4 %
Extraction speed 3.4 X
Track quality 99.9 %
Test CRC F00BD00F
Copy CRC F00BD00F
Accurately ripped (confidence 7) [96945415] (AR v1)
Copy OK

Track 2

Filename E:\music\Enigma - 1990 - Mea Culpa Part II\02. Mea Culpa Part II (Catholic Version).wav

Pre-gap length 0:00:02.48

Peak level 100.0 %
Extraction speed 4.0 X
Track quality 100.0 %
Test CRC 5C30EC14
Copy CRC 5C30EC14
Accurately ripped (confidence 7) [875C1498] (AR v1)
Copy OK

Track 3

Filename E:\music\Enigma - 1990 - Mea Culpa Part II\03. Mea Culpa Part II (Orthodox Version).wav

Pre-gap length 0:00:02.63

Peak level 99.1 %
Extraction speed 4.4 X
Track quality 100.0 %
Test CRC 89F7D5C0
Copy CRC 89F7D5C0
Accurately ripped (confidence 7) [AFEB2094] (AR v1)
Copy OK

Track 4

Filename E:\music\Enigma - 1990 - Mea Culpa Part II\04. Mea Culpa Part II (LP Version).wav

Pre-gap length 0:00:02.63

Peak level 100.0 %
Extraction speed 4.9 X
Track quality 100.0 %
Test CRC 3D5B9F8E
Copy CRC 3D5B9F8E
Accurately ripped (confidence 8) [8454A62C] (AR v1)
Copy OK

Track 5

Filename E:\music\Enigma - 1990 - Mea Culpa Part II\05. Communion- O sacrum convivium a 5- Andrea Gabrieli 1565.wav

Pre-gap length 0:00:02.63

Peak level 96.6 %
Extraction speed 5.2 X
Track quality 100.0 %
Test CRC 702EACF4
Copy CRC 702EACF4
Accurately ripped (confidence 7) [21764699] (AR v1)
Copy OK


All tracks accurately ripped

No errors occurred

End of status report

==== Log checksum 2D339EA40757552672BDD58BE52C2124F58C4F8EA1022B7AF5BE14B256F573BC ====

[CUETools log; Date: 02.06.2021 21:37:11; Version: 2.1.4]
Pregap length 00:00:50.
[CTDB TOCID: .rtXXAgkvNgsPqhw7eBsU9TpxUc-] found.
Track | CTDB Status
1 | (33/33) Accurately ripped
2 | (32/33) Accurately ripped
3 | (33/33) Accurately ripped
4 | (33/33) Accurately ripped
5 | (32/33) Accurately ripped
[AccurateRip ID: 00051876-00177403-3f05a405] found.
Track [ CRC | V2 ] Status
01 [96945415|557c9d9e] (07+23/35) Accurately ripped
02 [875c1498|73ad9b35] (07+23/35) Accurately ripped
03 [afeb2094|9cb2850c] (07+23/35) Accurately ripped
04 [8454a62c|5dc45eae] (08+23/36) Accurately ripped
05 [21764699|ccd91b57] (07+17/29) Accurately ripped
Offsetted by 63:
01 [a7cda227] (00/35) No match (V2 was not tested)
02 [e2eb53a8] (00/35) No match (V2 was not tested)
03 [244cb565] (00/35) No match (V2 was not tested)
04 [6e99dba9] (00/36) No match (V2 was not tested)
05 [843d8912] (00/29) No match (V2 was not tested)

Track Peak [ CRC32 ] [W/O NULL] [ LOG ]
– 100,0 [B535FCDF] [9DF95E90]
01 98,4 [F00BD00F] [C4E18414] CRC32
02 100,0 [5C30EC14] [C5138AB4] CRC32
03 99,1 [89F7D5C0] [42A50724] CRC32
04 100,0 [3D5B9F8E] [DA742780] CRC32
05 96,6 [702EACF4] [980EB263] CRC32

Enigma - Singles Collection [7CD] (1990-1997)

Enigma - Principles Of Lust (1991)
EAC Rip | FLAC (image+.cue+log) - 115 MB | MP3 CBR 320 kbps (LAME 3.93) - 41 MB | Covers - 41 MB
Genre: New Age, Enigmatic | RAR 3% Rec. | Label: Virgin (VJCP-14030)

Tracklist:
01. Principles of Lust (Radio Edit)
02. Principles of Lust (Everlasting Lust Mix)
03. Principles of Lust (The Omen Mix)
04. Sadeness Part I (Meditation Mix)

Total time: 17:35

Exact Audio Copy V0.99 prebeta 5 from 4. May 2009

Отчёт EAC об извлечении, выполненном 3. марта 2010, 21:29

Enigma / Principles of Lust

Дисковод: _NEC DVD_RW ND-4571A Adapter: 0 ID: 2

Режим чтения : Достоверность
Использование точного потока : Да
Отключение кэша аудио : Да
Использование указателей C2 : Нет

Коррекция смещения при чтении : 48
Способность читать области Lead-in и Lead-out : Нет
Заполнение пропущенных сэмплов тишиной : Да
Удаление блоков с тишиной в начале и конце : Нет
При вычислениях CRC использовались нулевые сэмплы : Да
Интерфейс : Встроенный Win32-интерфейс для Win NT/2000

Выходной формат : Пользовательский кодировщик
Выбранный битрейт : 768 kBit/s
Качество : Высокий
Добавление ID3-тэга : Нет
Утилита сжатия : C:\Program Files\Exact Audio Copy\FLAC\FLAC.EXE
Дополнительные параметры : -6 -V -T "ARTIST=%a" -T "TITLE=%t" -T "ALBUM=%g" -T "DATE=%y" -T "TRACKNUMBER=%n" -T "GENRE=%m" -T "COMMENT=%e" %s -o %d


TOC извлечённого CD

Трек | Старт | Длительность | Начальный сектор | Конечный сектор
––––––––––––––––––––––––––––––––––-
1 | 0:00.00 | 3:26.67 | 0 | 15516
2 | 3:26.67 | 5:09.33 | 15517 | 38724
3 | 8:36.25 | 5:55.02 | 38725 | 65351
4 | 14:31.27 | 3:04.08 | 65352 | 79159


Характеристики диапазона извлечения и сообщения об ошибках

Выбранный диапазон

Имя файла M:\Свои\Enigma - 1991 - Principles of Lust (CDM) (Japan).wav

Пиковый уровень 100.0 %
Качество диапазона 100.0 %
CRC теста D7CACBB7
CRC копии D7CACBB7
Копирование… OK

Ошибок не произошло


AccurateRip: сводка

Трек 1 нет в базе данных
Трек 2 нет в базе данных
Трек 3 нет в базе данных
Трек 4 нет в базе данных

Ни одного трека нет в базе AccurateRip

Конец отчёта

[CUETools log; Date: 02.06.2021 21:57:28; Version: 2.1.4]
[CTDB TOCID: 24D5fYSa7UoXFi77oSRurDcxOrg-] found.
Track | CTDB Status
1 | (11/11) Accurately ripped
2 | (11/11) Accurately ripped
3 | (11/11) Accurately ripped
4 | (11/11) Accurately ripped
[AccurateRip ID: 00030862-000c4642-2c041f04] found.
Track [ CRC | V2 ] Status
01 [2bd5c962|d2170eee] (0+2/2) Accurately ripped
02 [6da2c5f1|7e5fa97f] (0+2/2) Accurately ripped
03 [3efef2b0|95fb4a1d] (0+2/2) Accurately ripped
04 [435ebe86|54aab788] (0+2/2) Accurately ripped

Track Peak [ CRC32 ] [W/O NULL] [ LOG ]
– 100,0 [D7CACBB7] [B2DDC54C] CRC32
01 95,5 [763158EA] [4889DDDE]
02 99,5 [6CBB3126] [412C4590]
03 100,0 [910CD4E0] [5BF6ED7A]
04 99,6 [19070755] [8BBAA2CC]

Enigma - Singles Collection [7CD] (1990-1997)

Enigma - Return To Innocence (1993)
EAC Rip | FLAC (image+.cue+log) - 141 MB | MP3 CBR 320 kbps (LAME 3.93) - 47 MB | Covers - 38 MB
Genre: New Age, Enigmatic | RAR 3% Rec. | Label: Virgin (VJCP-12015)

Tracklist:
01. Return To Innocence (Radio Edit)
02. Return To Innocence (Long & Alive Version)
03. Return To Innocence (380 Midnight Mix)
04. Return To Innocence (Short Radio Edit)

Total time: 20:19

Exact Audio Copy V0.99 prebeta 5 from 4. May 2009

Отчёт EAC об извлечении, выполненном 3. марта 2010, 21:17

Enigma / Return To Innocence

Дисковод: _NEC DVD_RW ND-4571A Adapter: 0 ID: 2

Режим чтения : Достоверность
Использование точного потока : Да
Отключение кэша аудио : Да
Использование указателей C2 : Нет

Коррекция смещения при чтении : 48
Способность читать области Lead-in и Lead-out : Нет
Заполнение пропущенных сэмплов тишиной : Да
Удаление блоков с тишиной в начале и конце : Нет
При вычислениях CRC использовались нулевые сэмплы : Да
Интерфейс : Встроенный Win32-интерфейс для Win NT/2000

Выходной формат : Пользовательский кодировщик
Выбранный битрейт : 768 kBit/s
Качество : Высокий
Добавление ID3-тэга : Нет
Утилита сжатия : C:\Program Files\Exact Audio Copy\FLAC\FLAC.EXE
Дополнительные параметры : -6 -V -T "ARTIST=%a" -T "TITLE=%t" -T "ALBUM=%g" -T "DATE=%y" -T "TRACKNUMBER=%n" -T "GENRE=%m" -T "COMMENT=%e" %s -o %d


TOC извлечённого CD

Трек | Старт | Длительность | Начальный сектор | Конечный сектор
––––––––––––––––––––––––––––––––––-
1 | 0:00.32 | 4:11.33 | 32 | 18889
2 | 4:11.65 | 7:07.57 | 18890 | 50971
3 | 11:19.47 | 5:56.40 | 50972 | 77711
4 | 17:16.12 | 3:02.33 | 77712 | 91394


Характеристики диапазона извлечения и сообщения об ошибках

Выбранный диапазон

Имя файла M:\Свои\Enigma - 1993 - Return To Innocence (CDM) (Japan).wav

Пиковый уровень 100.0 %
Качество диапазона 100.0 %
CRC теста FEAB8FF8
CRC копии FEAB8FF8
Копирование… OK

Ошибок не произошло


AccurateRip: сводка

Трек 1 нет в базе данных
Трек 2 нет в базе данных
Трек 3 нет в базе данных
Трек 4 нет в базе данных

Ни одного трека нет в базе AccurateRip

Конец отчёта

[CUETools log; Date: 03.06.2021 0:32:24; Version: 2.1.4]
Pregap length 00:00:32.
[CTDB TOCID: DYNqTatlQuYJHeKHLn5fdeD2NpM-] found.
Track | CTDB Status
1 | (17/17) Accurately ripped
2 | (17/17) Accurately ripped
3 | (17/17) Accurately ripped
4 | (17/17) Accurately ripped
[AccurateRip ID: 0003a599-000ea057-2704c204] found.
Track [ CRC | V2 ] Status
01 [95bba6ce|590e52da] (0+3/3) Accurately ripped
02 [19a90f94|557d2fed] (0+3/3) Accurately ripped
03 [e1e77e01|dfe30af0] (0+3/3) Accurately ripped
04 [76544ac7|015891e0] (0+3/3) Accurately ripped

Track Peak [ CRC32 ] [W/O NULL] [ LOG ]
– 100,0 [FEAB8FF8] [0552BC8D] CRC32
01 100,0 [3E2A6E45] [78F3BD7C]
02 100,0 [23FDD623] [87F1B89C]
03 99,0 [82EEB0D5] [7AB8EA18]
04 100,0 [BC37A775] [68AA3B11]

Enigma - Singles Collection [7CD] (1990-1997)

Enigma - The Eyes Of Truth (1994)
EAC Rip | FLAC (tracks+.cue+log) - 168 MB | MP3 CBR 320 kbps (LAME 3.93) - 58 MB | Covers - 41 MB
Genre: New Age, Enigmatic | RAR 3% Rec. | Label: Virgin (7243 8 92432 2 2)

Tracklist:
01. The Eyes Of Truth (The Goetterdaemmerung Mix / The Twiglight Of The Gods)
02. Sadeness Part I (Extended Trance Mix)
03. Mea Culpa Part II (Fading Shades Mix)
04. Principles Of Lust (Omen Mix)

Total time: 24:30

Exact Audio Copy V1.0 beta 3 from 29. August 2011

Отчёт EAC об извлечении, выполненном 2. августа 2015, 22:29

Enigma / The Eyes Of Truth (Virgin - 7243 8 92432 2 2/DINSDX 126)

Дисковод: Optiarc DVD RW AD-7803H Adapter: 1 ID: 0

Режим чтения : Достоверность
Использование точного потока : Да
Отключение кэша аудио : Да
Использование указателей C2 : Нет

Коррекция смещения при чтении : 48
Способность читать области Lead-in и Lead-out : Нет
Заполнение пропущенных сэмплов тишиной : Да
Удаление блоков с тишиной в начале и конце : Нет
При вычислениях CRC использовались нулевые сэмплы : Да
Интерфейс : Встроенный Win32-интерфейс для Win NT/2000
Обработка зазоров : Добавлено к предыдущему треку

Выходной формат : Пользовательский кодировщик
Выбранный битрейт : 1024 kBit/s
Качество : Высокий
Добавление ID3-тега : Нет
Утилита сжатия : C:\Windows.old\Program Files (x86)\Exact Audio Copy\Flac\flac.exe
Дополнительные параметры : -8 -V -T "ARTIST=%artist%" -T "TITLE=%title%" -T "ALBUM=%albumtitle%" -T "DATE=%year%" -T "TRACKNUMBER=%tracknr%" -T "GENRE=%genre%" -T "COMMENT=ripped by Jurassic Giant Bird" %source%


TOC извлечённого CD

Трек | Старт | Длительность | Начальный сектор | Конечный сектор
––––––––––––––––––––––––––––––––––-
1 | 0:00.00 | 7:18.70 | 0 | 32919
2 | 7:18.70 | 5:03.07 | 32920 | 55651
3 | 12:22.02 | 6:15.45 | 55652 | 83821
4 | 18:37.47 | 5:52.33 | 83822 | 110254


Трек 1

Имя файла D:\01. The Eyes Of Truth (The Goetterdaemmerung Mix,The Twiglight Of The Gods).wav

Длина предзазора 0:00:02.00

Пиковый уровень 99.0 %
Скорость извлечения 1.2 X
Качество трека 100.0 %
CRC теста F04B6C08
CRC копии F04B6C08
Точное извлечение (достоверность 3) [8C943E5B] (AR v2)
Копирование… OK

Трек 2

Имя файла D:\02. Sadeness Part I (Extended Trance Mix).wav

Длина предзазора 0:00:01.45

Пиковый уровень 100.0 %
Скорость извлечения 1.3 X
Качество трека 99.9 %
CRC теста 0B2463DF
CRC копии 0B2463DF
Точное извлечение (достоверность 3) [CDFFF57C] (AR v2)
Копирование… OK

Трек 3

Имя файла D:\03. Mea Culpa Part II (Fading Shades Mix).wav

Длина предзазора 0:00:02.27

Пиковый уровень 98.4 %
Скорость извлечения 1.6 X
Качество трека 100.0 %
CRC теста 0FD40157
CRC копии 0FD40157
Точное извлечение (достоверность 3) [C58A3849] (AR v2)
Копирование… OK

Трек 4

Имя файла D:\04. Principles Of Lust (Omen Mix).wav

Длина предзазора 0:00:01.22

Пиковый уровень 87.1 %
Скорость извлечения 1.7 X
Качество трека 100.0 %
CRC теста AF3DC5EC
CRC копии AF3DC5EC
Точное извлечение (достоверность 4) [10705838] (AR v2)
Копирование… OK


Все треки извлечены точно

Ошибок не произошло

Конец отчёта

[CUETools log; Date: 03.06.2021 0:30:40; Version: 2.1.4]
[CTDB TOCID: ahuPxObkAMeQE2yeZKQ5X2NNJDs-] found.
Track | CTDB Status
1 | (22/22) Accurately ripped
2 | (22/22) Accurately ripped
3 | (22/22) Accurately ripped
4 | (22/22) Accurately ripped
[AccurateRip ID: 00045019-00111480-2505be04] found.
Track [ CRC | V2 ] Status
01 [d69781e5|8c943e5b] (05+12/17) Accurately ripped
02 [75114a52|cdfff57c] (05+12/17) Accurately ripped
03 [85bd415a|c58a3849] (05+12/17) Accurately ripped
04 [e7347ab5|10705838] (05+13/18) Accurately ripped

Track Peak [ CRC32 ] [W/O NULL] [ LOG ]
– 100,0 [0A357519] [FD0D13AB]
01 99,0 [F04B6C08] [95669F59] CRC32
02 100,0 [0B2463DF] [1DAA7AA2] CRC32
03 98,4 [0FD40157] [424B6FA1] CRC32
04 87,1 [AF3DC5EC] [97990B7A] CRC32

Enigma - Singles Collection [7CD] (1990-1997)

Enigma - Age Of Loneliness (1994)
EAC Rip | FLAC (tracks+.cue+log) - 169 MB | MP3 CBR 320 kbps (LAME 3.93) - 62 MB | Covers - 48 MB
Genre: New Age, Enigmatic | RAR 3% Rec. | Label: Virgin (7243 8 92525 2 1)

Tracklist:
01. Age Of Loneliness (Radio Edit)
02. Age Of Loneliness (Clubby Radio Edit)
03. Age Of Loneliness (Enigmatic Club Mix) (128 bpm)
04. Age Of Loneliness (Jam & Spoon Remix) (93 bpm)
05. Age Of Loneliness (Album Version)

Total time: 26:03

Exact Audio Copy V1.0 beta 3 from 29. August 2011

EAC extraction logfile from 22. December 2013, 8:25

Enigma / Age Of Loneliness

Used drive : ASUS BW-12B1ST Adapter: 1 ID: 1

Read mode : Secure
Utilize accurate stream : Yes
Defeat audio cache : Yes
Make use of C2 pointers : No

Read offset correction : 6
Overread into Lead-In and Lead-Out : No
Fill up missing offset samples with silence : Yes
Delete leading and trailing silent blocks : No
Null samples used in CRC calculations : Yes
Used interface : Native Win32 interface for Win NT & 2000
Gap handling : Appended to previous track

Used output format : User Defined Encoder
Selected bitrate : 1024 kBit/s
Quality : High
Add ID3 tag : No
Command line compressor : C:\Program Files (x86)\Exact Audio Copy\Flac\flac.exe
Additional command line options : -8 -V -T "ARTIST=%artist%" -T "TITLE=%title%" -T "ALBUM=%albumtitle%" -T "DATE=%year%" -T "TRACKNUMBER=%tracknr%" -T "GENRE=%genre%" -T "PERFORMER=%albuminterpret%" -T "COMPOSER=%composer%" %haslyrics%–tag-from-file=LYRICS="%lyricsfile%"%haslyrics% -T "ALBUMARTIST=%albumartist%" -T "DISCNUMBER=%cdnumber%" -T "TOTALDISCS=%totalcds%" -T "TOTALTRACKS=%numtracks%" -T "COMMENT=%comment%" %source% -o %dest%


TOC of the extracted CD

Track | Start | Length | Start sector | End sector
––––––––––––––––––––––––––––-
1 | 0:00.00 | 4:16.72 | 0 | 19271
2 | 4:16.72 | 3:32.30 | 19272 | 35201
3 | 7:49.27 | 6:23.00 | 35202 | 63926
4 | 14:12.27 | 6:30.45 | 63927 | 93221
5 | 20:42.72 | 5:20.25 | 93222 | 117246


Track 1

Filename E:\Enigma - Age Of Loneliness (1994)\01 Age Of Loneliness (Radio Edit).wav

Pre-gap length 0:00:02.00

Peak level 99.3 %
Extraction speed 3.7 X
Track quality 99.9 %
Test CRC 83F861B4
Copy CRC 83F861B4
Accurately ripped (confidence 7) [E40D9AA5] (AR v2)
Copy OK

Track 2

Filename E:\Enigma - Age Of Loneliness (1994)\02 Age Of Loneliness (Clubby Radio Edit).wav

Pre-gap length 0:00:02.29

Peak level 99.3 %
Extraction speed 4.7 X
Track quality 100.0 %
Test CRC DCAA3EB3
Copy CRC DCAA3EB3
Accurately ripped (confidence 7) [FB6B615C] (AR v2)
Copy OK

Track 3

Filename E:\Enigma - Age Of Loneliness (1994)\03 Age Of Loneliness (Enigmatic Club Mix) [128 bpm].wav

Pre-gap length 0:00:01.02

Peak level 99.3 %
Extraction speed 5.6 X
Track quality 100.0 %
Test CRC 2B7E4E95
Copy CRC 2B7E4E95
Accurately ripped (confidence 8) [817A8A8B] (AR v2)
Copy OK

Track 4

Filename E:\Enigma - Age Of Loneliness (1994)\04 Age Of Loneliness (Jam & Spoon Remix) [93 bpm].wav

Pre-gap length 0:00:01.69

Peak level 80.3 %
Extraction speed 6.4 X
Track quality 100.0 %
Test CRC 58318612
Copy CRC 58318612
Accurately ripped (confidence 8) [9B325042] (AR v2)
Copy OK

Track 5

Filename E:\Enigma - Age Of Loneliness (1994)\05 Age Of Loneliness (Album Version).wav

Pre-gap length 0:00:01.62

Peak level 90.2 %
Extraction speed 6.7 X
Track quality 100.0 %
Test CRC BDCD2C6A
Copy CRC BDCD2C6A
Accurately ripped (confidence 8) [7E31D06E] (AR v2)
Copy OK


All tracks accurately ripped

No errors occurred

End of status report

==== Log checksum C5079D87C648818EC3885EC4736AEFE28863EA7FA1037BF442148A2FFFF11DC7 ====

[CUETools log; Date: 03.06.2021 0:29:35; Version: 2.1.4]
[CTDB TOCID: IZ2801c76OmGcCg0nLWPZLrAVV0-] found.
Track | CTDB Status
1 | (72/72) Accurately ripped
2 | (72/72) Accurately ripped
3 | (72/72) Accurately ripped
4 | (72/72) Accurately ripped
5 | (72/72) Accurately ripped
[AccurateRip ID: 000504a6-0017f2ab-39061b05] found.
Track [ CRC | V2 ] Status
01 [9eb59c0f|e40d9aa5] (14+28/71) Accurately ripped
02 [457cddf6|fb6b615c] (14+29/72) Accurately ripped
03 [a48898f1|817a8a8b] (13+30/72) Accurately ripped
04 [c8bb106b|9b325042] (13+30/72) Accurately ripped
05 [a2ee686b|7e31d06e] (14+30/72) Accurately ripped
Offsetted by -183:
01 [6f9f0686] (08/71) Accurately ripped
02 [4035a6f6] (08/72) Accurately ripped
03 [7ba4fe88] (08/72) Accurately ripped
04 [b0b87b06] (08/72) Accurately ripped
05 [d79ff422] (08/72) Accurately ripped
Offsetted by -66:
01 [1837f4d1] (00/71) No match (V2 was not tested)
02 [e7419bf6] (00/72) No match (V2 was not tested)
03 [95c96573] (00/72) No match (V2 was not tested)
04 [af48d225] (00/72) No match (V2 was not tested)
05 [f91542ad] (00/72) No match (V2 was not tested)

Track Peak [ CRC32 ] [W/O NULL] [ LOG ]
– 99,2 [0ADD7A2A] [91F5E5D5]
01 99,2 [83F861B4] [DC3535A1] CRC32
02 99,2 [DCAA3EB3] [DE595C1F] CRC32
03 99,2 [2B7E4E95] [C62DE1A4] CRC32
04 80,3 [58318612] [18FDC51D] CRC32
05 90,2 [BDCD2C6A] [75E775CA] CRC32

Enigma - Singles Collection [7CD] (1990-1997)

Enigma - T.N.T. For The Brain (1997)
EAC Rip | FLAC (image+.cue+log) - 131 MB | MP3 CBR 320 kbps (LAME 3.93) - 44 MB | Covers - 5 MB
Genre: New Age, Enigmatic | RAR 3% Rec. | Label: Virgin (7243 8 94049 2 0)

Tracklist:
01. T.N.T. For The Brain (Radio Edit)
02. T.N.T. For The Brain (Midnight Man Remix)
03. T.N.T. For The Brain (Album Version)
04. T.N.T. For The Brain (Instrumental Mix)

Total time: 18:45

Exact Audio Copy V0.99 prebeta 3 from 28. July 2007

EAC extraction logfile from 14. December 2008, 14:35

Enigma / T.N.T. For The Brain

Used drive : TSSTcorpCDDVDW SH-S203B Adapter: 2 ID: 0

Read mode : Secure
Utilize accurate stream : Yes
Defeat audio cache : Yes
Make use of C2 pointers : No

Read offset correction : 6
Overread into Lead-In and Lead-Out : No
Fill up missing offset samples with silence : Yes
Delete leading and trailing silent blocks : No
Null samples used in CRC calculations : Yes
Used interface : Native Win32 interface for Win NT & 2000

Used output format : Monkey's Audio Lossless Encoder v3.99 DLL
Sample format : Normal Lossless Compression


TOC of the extracted CD

Track | Start | Length | Start sector | End sector
––––––––––––––––––––––––––––-
1 | 0:00.32 | 4:03.68 | 32 | 18324
2 | 4:04.25 | 5:57.62 | 18325 | 45161
3 | 10:02.12 | 4:35.38 | 45162 | 65824
4 | 14:37.50 | 4:07.57 | 65825 | 84406


Range status and errors

Selected range

Filename E:\01 Audio\CD IMAGES\Enigma\Singles\1997 T.N.T. For The Brain\Enigma - T.N.T. For The Brain.ape

Peak level 100.0 %
Range quality 100.0 %
Test CRC 18751A44
Copy CRC 18751A44
Copy OK

No errors occurred


AccurateRip summary

Track 1 accurately ripped (confidence 4) [F47FBE4C]
Track 2 accurately ripped (confidence 4) [2A4E9ED1]
Track 3 accurately ripped (confidence 4) [16B7725F]
Track 4 accurately ripped (confidence 4) [77BE5566]

All tracks accurately ripped

End of status report

[CUETools log; Date: 02.06.2021 21:43:20; Version: 2.1.4]
Pregap length 00:00:32.
[CTDB TOCID: U_kQd8s.MpLaDO4SNRuKQSjxkhw-] found.
Track | CTDB Status
1 | (52/52) Accurately ripped
2 | (52/52) Accurately ripped
3 | (52/52) Accurately ripped
4 | (52/52) Accurately ripped
[AccurateRip ID: 000342f7-000d159f-30046504] found.
Track [ CRC | V2 ] Status
01 [f47fbe4c|6c0719d0] (12+19/46) Accurately ripped
02 [2a4e9ed1|4458ef14] (12+19/47) Accurately ripped
03 [16b7725f|34bd6aa8] (12+19/46) Accurately ripped
04 [77be5566|3a5cbf86] (12+19/46) Accurately ripped
Offsetted by -1470:
01 [bf4df796] (02/46) Accurately ripped
02 [9f600e8f] (02/47) Accurately ripped
03 [24b8029d] (02/46) Accurately ripped
04 [e34be202] (02/46) Accurately ripped

Track Peak [ CRC32 ] [W/O NULL] [ LOG ]
– 100,0 [18751A44] [5407BD56] CRC32
01 100,0 [7AC07C3D] [E8796059]
02 100,0 [BBD9BD30] [1839E0BD]
03 100,0 [7EF193B6] [390726DB]
04 100,0 [C0AFB78A] [CAA386DB]

Thanks to the original releasers