Ensemble 21 - Jason Eckardt: Out of Chaos (2004)

Posted By: tirexiss
Ensemble 21 - Jason Eckardt: Out of Chaos (2004)

Ensemble 21 - Jason Eckardt: Out of Chaos (2004)
EAC | FLAC (image+.cue, log) | Covers Included | 01:02:52 | 292 MB
Genre: Classical | Label: Mode Records | Catalog: mode 137

Jason Eckardt steps forward with this Mode release as a fearless young proponent of modernism in all its complexity, a shining alternative to the prevalent eclecticism of our time. His Ensemble 21, formed in 1993, deserves acclaim as well, a unit seemingly out of step with the American musical landscape, and not surprisingly pursuing collaborations with Boulez's IRCAM and other European composers and musicians.

Included here are 4 works. "After Serra" (2000) is a wild number featuring "aggressive outbursts and bizarre, spinning resonances" (from Marilyn Nonken's liner notes). The use of bass clarinet provides an unusual timbral contrast. "Tangled Loops" (1996) features the saxophone of Taimur Sullivan, with Marilyn Nonken on piano. A fully composed work, it takes as its model the improvisations of Parker, Coltrane, and Dolphy – a fantastic high-energy piece. "A Glimpse Retraced" (1999) is a chamber concerto for piano and four instruments, and Marilyn Nonken, co-founder with Eckhardt of Ensemble 21, is superb. Finally, "Polarities" (1998) is a fascinating web of changing relations among the players in two movements. The second movement introduces something shocking in the context of what has gone before – a long, slow, quiet droning section which erupts half-way through with piano, and then the other instruments, vaulted back into furious motion.

Eckardt began in music as a guitarist, who was first drawn to the complexity of heavy metal and jazz. But on the road to Damascus, he discovered Webern, and he has transferred the drive of jazz and rock to the realm of contemporary classical composition. OUT OF CHAOS is definitely one of the best releases of 2004, and it marks the emergence of an important new voice beyond the limited precincts of new music, where Eckhardt has already been a professor and the recipient of many prestigious grants, commissions and awards.

Ensemble 21 - Jason Eckardt: Out of Chaos (2004)

Track List:

Jason Eckardt (b.1971)

[1] After Serra
for flute, Bb clarinet, violin, cello & piano
[2] Tangled Loops
soprano saxophone, piano
[3] A Glimpse Retracted
for piano solo, flute, Bb clarinet, violin & cello
[4]-[5] Polarities
for flute, Bb clarinet, violin, viola, cello, piano & percussion

Performers:
Ensemble 21

Exact Audio Copy V1.0 beta 3 from 29. August 2011

EAC extraction logfile from 6. October 2014, 20:53

Ensemble 21 / Eckardt - Out of Chaos

Used drive : HL-DT-STDVDRAM GU70N Adapter: 0 ID: 0

Read mode : Secure
Utilize accurate stream : Yes
Defeat audio cache : Yes
Make use of C2 pointers : No

Read offset correction : 48
Overread into Lead-In and Lead-Out : No
Fill up missing offset samples with silence : Yes
Delete leading and trailing silent blocks : No
Null samples used in CRC calculations : Yes
Used interface : Native Win32 interface for Win NT & 2000

Used output format : User Defined Encoder
Selected bitrate : 128 kBit/s
Quality : High
Add ID3 tag : No
Command line compressor : C:\Program Files (x86)\Exact Audio Copy\Flac\flac.exe
Additional command line options : -V -8 -T "Date=%year%" -T "Genre=%genre%" %source%


TOC of the extracted CD

Track | Start | Length | Start sector | End sector
––––––––––––––––––––––––––––-
1 | 0:00.00 | 14:24.35 | 0 | 64834
2 | 14:24.35 | 7:39.03 | 64835 | 99262
3 | 22:03.38 | 14:10.10 | 99263 | 163022
4 | 36:13.48 | 9:52.23 | 163023 | 207445
5 | 46:05.71 | 16:46.11 | 207446 | 282906


Range status and errors

Selected range

Filename C:\temp\Eckardt - Out of Chaos\Eckardt - Out of Chaos.wav

Peak level 99.9 %
Extraction speed 2.1 X
Range quality 100.0 %
Test CRC 1AF1E53F
Copy CRC 1AF1E53F
Copy OK

No errors occurred


AccurateRip summary

Track 1 not present in database
Track 2 not present in database
Track 3 not present in database
Track 4 not present in database
Track 5 not present in database

None of the tracks are present in the AccurateRip database

End of status report

==== Log checksum D83E515A4A74C1D5810D6121D1FCBCEC473697C71D4C866B2E0D812A40983DF6 ====

Thanks to the Original ripper A-Z!

Download: