Tags
Language
Tags

Ensemble Sonnerie - Fontana, Cima, Turini: Sonatas (1996)

Posted By: ArlegZ
Ensemble Sonnerie - Fontana, Cima, Turini: Sonatas (1996)

Ensemble Sonnerie - Fontana, Cima, Turini: Sonatas (1996)
EAC | FLAC | Image (Cue & Log) ~ 714 Mb | Total time: 72:38+73:13 | Scans included
Classical | Label: Virgin Veritas | 7243 5 45199 2 5 | Recorded: 1995

This delightful pair of CDs contains music from three collections published in northern Italy between 1610 and 1641. The earliest is a volume published in Milan in 1610, Concerti ecclesiastici, which is made up of music by the two brothers Giovanni Paolo Cima and Andrea Cima and contains the ‘Sei sonate, per instrumenti à due, tre e quarto’ recorded here; the next, chronologically speaking, is the Madrigali, libro II of Francesco Turini, published in Venice in 1624, from which six sonatas for two violins and continuo have here been extracted. The last is another Venetian publication (of 1641) the Sonate a 12.2.3. per il violono or cornetto, fagotto, chitarone, violoncino o simile altro istrumento of Giovanni Battista Fontana.
The two Cimas were both organists in their native Milan, composing both sacred music and instrumental music. Giovanni’s work, more clearly than that of his brother, registers that crucial development in the early baroque music if northern Italy, the movement away from polyphonic textures towards solo (or due) melodies supported rhythmically and harmonically by a continuo bass, or to put it another way, the movement in which the usually polyphonic canzona gradually lost ground to the sonata. Eleanor Selfridge-Field (Early Music, February 1991) has shown that most organist-composers of the period were largely given to the composition of canzone rather than sonatas, but Giovanni Paolo Cima is an exception. The published scores of Cima’s sonatas are quite specific as to instrumentation, foregrounding the cornet and the violin as soloists. Andrea Cima’s instrumental music included in the 1610 collection is closer in structure and method to the declining form of the canzona, and the presentation on this CD of work by both brothers enables one to see (or rather hear) the nature of the transition which was taking place.
Turini’s sonatas belong very much to the new development of the sonata; indeed they are amongst the earliest examples of the trio sonata. Turini is an interesting figure, a an innovative and accomplished composer. Of Italian stock, he was born in Prague and became court organist there at the early age of 12; he was sent to Italy to study, returned to Prague at least briefly, and then from the late 1610s made his living in Italy. From 1620 he held the post of organist at the cathedral in Brescia. His publications included three volumes of madrigals – with parts for violins - in 1621, 1624 and 1629; his other publications included volumes of motets (1629 and 1640) and a set of masses (1643). The sonatas included here are fine works. The Sonata a 2 violini, which opens the second CD, is a piece of exquisite beauty, subtle melodic twists and changes of direction, quiet yet vivacious; the use of chitarrone alongside the harpsichord to provide the continuo, a practice which Turini himself advocated, produces some beautiful effects. Turini’s set of variations on the song ‘E tanto tempo hornai’ is thoroughly engaging, inventive and delightfully varied in instrumental colouring in this excellent performance by Ensemble Sonnerie.
The greater part of this set is given over to all eighteen sonatas printed in Giovanni Battista Fontana’s 1641 posthumous collection – born in Brescia, Fontana had died around 1630, possibly a victim of the dreadful plague which affected northern Italy between 1629 and 1631 and which claimed the life of so many musicians (including Giovanni Paolo Cima). We cannot know whether the designation of these sonatas as for il violono or cornetto, fagotto, chitarone, violoncino o simile altro istrumento is Fontana’s own or was the work of a later editor or publisher. According to Selfridge-Field this was the earliest such volume to specify the use of the violoncello as part of the continuo instrumentation. Fontana’s sonatas are here played so as to make use of the kind of variety of instrumentation which the 1641 title page allows, perhaps even encourages. No.1, for example, is played by cornet and organ alone, while no.2 uses violin, harp, chitarrone, lirone and virginals; no.9 is played by cornet, dulcian and organ, no.18 by violin, cornet, dulcian, organ, harp and chitarrone. The resulting variety of colours and dynamics is a constant source of aural pleasure; the performers’ choice never seem merely wilful or eccentric, but to respond to the nature of the music in each particular sonata (which isn’t to say that other choices might not be made by other performers or, indeed, by the same group on different occasions).
Ensemble Sonnerie’s playing throughout is the height of sensitivity and aptness; while based on sound historical scholarship it is never remotely pedantic. The performances, by soloists such as Monica Huggett and Bruce Dickey, and by the ensemble as a whole, are full of an obvious, but never indulgent, love of the music. The whole project has a distinctive air of Lombardy and Venice about it – the relishing of instrumental colours, the evident sophistication, the sensuality, remind one irresistibly of north Italian painting of the same (and slightly earlier) generations.
These CDs provide an exemplary illustration of the north Italian emergence of chamber music. But to say that runs the risk of making them sound merely like worthy historical documents. But they are so much more than just that – the first adjective I used at the beginning of this review was “delightful”. It deserves to be one of the last, too; these CDs will be a source of great pleasure to anybody with an interest in the instrumental music of the early seventeenth century.
– Glyn Pursglove

Performer:
Ensemble Sonnerie:
Monica Huggett, violin
Siobhán Armstrong, harp
Elizabeth Kenny, chitarrone
Gary Cooper, virginal
Erin Headley, lirone

Track List:
CD1:
Giovanni Battista Fontana (1571-1630)
01. Sonata No. 2
02. Sonata No. 4
03. Sonata No. 14
04. Sonata No. 7
05. Sonata No. 9
06. Sonata No. 11
07. Sonata No. 1
08. Sonata No. 12
09. Sonata No. 8
10. Sonata No. 13
11. Sonata No. 3
12. Sonata No. 10
13. Sonata No. 16
CD2:
Francesco Turini (c1595-1656)
01. Sonata A 2 Violini
Andrea Cima (um1580-1627)
02. Capriccio A 2
Francesco Turini
03. Sonata A 3 "Il Corisino"
Giovanni Paolo Cima (um1575-1630)
04. Sonata A 3
Giovanni Battista Fontana
05. Sonata No. 15
Francesco Turini
06. Sinfonia A 3
07. Gagliarda A 3
Giovanni Paolo Cima
08. Sonata A 2
Giovanni Battista Fontana
09. Sonata No. 17
Francesco Turini
10. Sonata A 3 "E Tatnto Tempo Hormai"
Giovanni Battista Fontana
11. Sonata No. 6
Giovanni Paolo Cima
12. Sonata A 4
Francesco Turini
13. Sonata A 3
Giovanni Paolo Cima
14. Sonata A 2
Giovanni Battista Fontana
15. Sonnata No. 5
Andrea Cima
16. Capriccio A 4
Giovanni Battista Fontana
17. Sonata No. 18


Exact Audio Copy V1.3 from 2. September 2016

EAC extraction logfile from 14. February 2020, 2:04

Ensemble Sonnerie / Fontana Cima Turini CD1

Used drive : ASUS DRW-24B1ST j Adapter: 1 ID: 0

Read mode : Secure
Utilize accurate stream : Yes
Defeat audio cache : Yes
Make use of C2 pointers : No

Read offset correction : 6
Overread into Lead-In and Lead-Out : No
Fill up missing offset samples with silence : Yes
Delete leading and trailing silent blocks : No
Null samples used in CRC calculations : Yes
Used interface : Native Win32 interface for Win NT & 2000

Used output format : User Defined Encoder
Selected bitrate : 896 kBit/s
Quality : High
Add ID3 tag : Yes
Command line compressor : C:\Program Files (x86)\Exact Audio Copy\FLAC\FLAC.EXE
Additional command line options : -6 -V -T "ARTIST=%artist%" -T "TITLE=%title%" -T "ALBUM=%albumtitle%" -T "DATE=%year%" -T "TRACKNUMBER=%tracknr%" -T "GENRE=%genre%" -T "COMMENT=%comment%" -T "BAND=%albuminterpret%" -T "ALBUMARTIST=%albuminterpret%" -T "COMPOSER=%composer%" %haslyrics%–tag-from-file=LYRICS="%lyricsfile%"%haslyrics% -T "DISCNUMBER=%cdnumber%" -T "TOTALDISCS=%totalcds%" -T "TOTALTRACKS=%numtracks%" %hascover%–picture="%coverfile%"%hascover% %source% -o %dest%


TOC of the extracted CD

Track | Start | Length | Start sector | End sector
––––––––––––––––––––––––––––-
1 | 0:00.33 | 6:17.00 | 33 | 28307
2 | 6:17.33 | 5:14.62 | 28308 | 51919
3 | 11:32.20 | 6:04.30 | 51920 | 79249
4 | 17:36.50 | 5:28.40 | 79250 | 103889
5 | 23:05.15 | 5:36.58 | 103890 | 129147
6 | 28:41.73 | 5:02.52 | 129148 | 151849
7 | 33:44.50 | 3:46.03 | 151850 | 168802
8 | 37:30.53 | 5:24.25 | 168803 | 193127
9 | 42:55.03 | 7:55.30 | 193128 | 228782
10 | 50:50.33 | 5:18.25 | 228783 | 252657
11 | 56:08.58 | 4:41.17 | 252658 | 273749
12 | 60:50.00 | 6:35.13 | 273750 | 303387
13 | 67:25.13 | 5:13.30 | 303388 | 326892


Range status and errors

Selected range

Filename M:\Fontana - Cima - Turina - Byrd - Bull - Sonnerie - Leonhardt\Ensemble Sonnerie - Fontana Cima Turini CD1\Ensemble Sonnerie - Fontana Cima Turini CD1.wav

Peak level 99.1 %
Extraction speed 3.4 X
Range quality 100.0 %
Test CRC E71BAB4D
Copy CRC E71BAB4D
Copy OK

No errors occurred


AccurateRip summary

Track 1 accurately ripped (confidence 4) [1706259D] (AR v2)
Track 2 accurately ripped (confidence 4) [B3BF25FB] (AR v2)
Track 3 accurately ripped (confidence 4) [70D364CB] (AR v2)
Track 4 accurately ripped (confidence 4) [F1200075] (AR v2)
Track 5 accurately ripped (confidence 4) [9596B22B] (AR v2)
Track 6 accurately ripped (confidence 4) [93AD2F54] (AR v2)
Track 7 accurately ripped (confidence 4) [59572D61] (AR v2)
Track 8 accurately ripped (confidence 4) [58C8DC3D] (AR v2)
Track 9 accurately ripped (confidence 4) [EC4ECC17] (AR v2)
Track 10 accurately ripped (confidence 4) [92D3EF53] (AR v2)
Track 11 accurately ripped (confidence 4) [DED0300F] (AR v2)
Track 12 accurately ripped (confidence 4) [CCF88F8B] (AR v2)
Track 13 accurately ripped (confidence 4) [F40B8065] (AR v2)

All tracks accurately ripped

End of status report

–– CUETools DB Plugin V2.1.6

[CTDB TOCID: Q8tX9i2UWjQFxQOWtL83y91FHo8-] found
Submit result: Q8tX9i2UWjQFxQOWtL83y91FHo8- has been confirmed
Track | CTDB Status
1 | (7/7) Accurately ripped
2 | (7/7) Accurately ripped
3 | (7/7) Accurately ripped
4 | (7/7) Accurately ripped
5 | (7/7) Accurately ripped
6 | (7/7) Accurately ripped
7 | (7/7) Accurately ripped
8 | (7/7) Accurately ripped
9 | (7/7) Accurately ripped
10 | (7/7) Accurately ripped
11 | (7/7) Accurately ripped
12 | (7/7) Accurately ripped
13 | (7/7) Accurately ripped


==== Log checksum DF20F368AE5FA740C311650F51B7390C312D05A6959DE25E7F4079D3DA91FD1C ====


Exact Audio Copy V1.3 from 2. September 2016

EAC extraction logfile from 14. February 2020, 2:32

Ensemble Sonnerie / Fontana Cima Turini CD2

Used drive : ASUS DRW-24B1ST j Adapter: 1 ID: 0

Read mode : Secure
Utilize accurate stream : Yes
Defeat audio cache : Yes
Make use of C2 pointers : No

Read offset correction : 6
Overread into Lead-In and Lead-Out : No
Fill up missing offset samples with silence : Yes
Delete leading and trailing silent blocks : No
Null samples used in CRC calculations : Yes
Used interface : Native Win32 interface for Win NT & 2000

Used output format : User Defined Encoder
Selected bitrate : 896 kBit/s
Quality : High
Add ID3 tag : Yes
Command line compressor : C:\Program Files (x86)\Exact Audio Copy\FLAC\FLAC.EXE
Additional command line options : -6 -V -T "ARTIST=%artist%" -T "TITLE=%title%" -T "ALBUM=%albumtitle%" -T "DATE=%year%" -T "TRACKNUMBER=%tracknr%" -T "GENRE=%genre%" -T "COMMENT=%comment%" -T "BAND=%albuminterpret%" -T "ALBUMARTIST=%albuminterpret%" -T "COMPOSER=%composer%" %haslyrics%–tag-from-file=LYRICS="%lyricsfile%"%haslyrics% -T "DISCNUMBER=%cdnumber%" -T "TOTALDISCS=%totalcds%" -T "TOTALTRACKS=%numtracks%" %hascover%–picture="%coverfile%"%hascover% %source% -o %dest%


TOC of the extracted CD

Track | Start | Length | Start sector | End sector
––––––––––––––––––––––––––––-
1 | 0:00.33 | 4:29.42 | 33 | 20249
2 | 4:30.00 | 4:00.05 | 20250 | 38254
3 | 8:30.05 | 4:08.65 | 38255 | 56919
4 | 12:38.70 | 3:24.58 | 56920 | 72277
5 | 16:03.53 | 4:44.20 | 72278 | 93597
6 | 20:47.73 | 2:22.00 | 93598 | 104247
7 | 23:09.73 | 1:44.30 | 104248 | 112077
8 | 24:54.28 | 4:22.12 | 112078 | 131739
9 | 29:16.40 | 5:15.38 | 131740 | 155402
10 | 34:32.03 | 3:47.05 | 155403 | 172432
11 | 38:19.08 | 6:06.65 | 172433 | 199947
12 | 44:25.73 | 3:54.35 | 199948 | 217532
13 | 48:20.33 | 5:59.57 | 217533 | 244514
14 | 54:20.15 | 4:11.03 | 244515 | 263342
15 | 58:31.18 | 5:03.52 | 263343 | 286119
16 | 63:34.70 | 3:44.30 | 286120 | 302949
17 | 67:19.25 | 5:54.30 | 302950 | 329529


Range status and errors

Selected range

Filename M:\Fontana - Cima - Turina - Byrd - Bull - Sonnerie - Leonhardt\Ensemble Sonnerie - Fontana Cima Turini CD1\Ensemble Sonnerie - Fontana Cima Turini CD2.wav

Peak level 84.2 %
Extraction speed 7.9 X
Range quality 99.9 %
Test CRC 9BCC5FD5
Copy CRC 9BCC5FD5
Copy OK

No errors occurred


AccurateRip summary

Track 1 accurately ripped (confidence 4) [8231B0EE] (AR v2)
Track 2 accurately ripped (confidence 4) [2C4BB3E5] (AR v2)
Track 3 accurately ripped (confidence 4) [4E23F2E1] (AR v2)
Track 4 accurately ripped (confidence 4) [75A6F576] (AR v2)
Track 5 accurately ripped (confidence 4) [D326E034] (AR v2)
Track 6 accurately ripped (confidence 4) [A29FC165] (AR v2)
Track 7 accurately ripped (confidence 4) [004427D5] (AR v2)
Track 8 accurately ripped (confidence 4) [3264FDBB] (AR v2)
Track 9 accurately ripped (confidence 4) [7F0EB12F] (AR v2)
Track 10 accurately ripped (confidence 4) [2DA0811C] (AR v2)
Track 11 accurately ripped (confidence 4) [DECFA725] (AR v2)
Track 12 accurately ripped (confidence 4) [A87F9CDC] (AR v2)
Track 13 accurately ripped (confidence 4) [4C786D1F] (AR v2)
Track 14 accurately ripped (confidence 4) [368C59E3] (AR v2)
Track 15 accurately ripped (confidence 4) [B3432E2F] (AR v2)
Track 16 accurately ripped (confidence 4) [A9DB2FB0] (AR v2)
Track 17 accurately ripped (confidence 4) [86DA1819] (AR v2)

All tracks accurately ripped

End of status report

–– CUETools DB Plugin V2.1.6

[CTDB TOCID: THXGrbCvVXDq7.XHpNVzRdn9E1Q-] found
Submit result: THXGrbCvVXDq7.XHpNVzRdn9E1Q- has been confirmed
Track | CTDB Status
1 | (8/8) Accurately ripped
2 | (8/8) Accurately ripped
3 | (8/8) Accurately ripped
4 | (8/8) Accurately ripped
5 | (8/8) Accurately ripped
6 | (8/8) Accurately ripped
7 | (8/8) Accurately ripped
8 | (8/8) Accurately ripped
9 | (8/8) Accurately ripped
10 | (8/8) Accurately ripped
11 | (8/8) Accurately ripped
12 | (8/8) Accurately ripped
13 | (8/8) Accurately ripped
14 | (8/8) Accurately ripped
15 | (8/8) Accurately ripped
16 | (8/8) Accurately ripped
17 | (8/8) Accurately ripped


==== Log checksum 3F4117C728514AB20AFE3A1CD1ED77826DBBE3309CB0F731F8BAD886A7230AE3 ====

Ensemble Sonnerie - Fontana, Cima, Turini: Sonatas (1996)

Thanks to the original releaser