Tags
Language
Tags

Equilibrium - Rekreatur (2010) [Limited Ed. Digipak] 2CD Combined Repost

Posted By: Andi_Deris
Equilibrium - Rekreatur (2010) [Limited Ed. Digipak] 2CD Combined Repost

Equilibrium - Rekreatur (2010) [Limited Ed. Digipak] 2CD
EAC Rip | FLAC: Image+Cue+Log | 627 Mb | MP3 CBR 320 kbps | 214 Mb | Scans | 84 Mb | Time: 01:02:22 + 20:57
Nuclear Blast Records | NB 2343-0 / 27361 23430
Epic Folk/Viking Metal, Symphonic Metal

In winter 2010 the new album „Rekreatur“ was recorded together with new vocalist Robse. „Rekreatur“ showcases once again what this band is able to do. Although original singer Helge Stang had left the band earlier that year, the album doesn’t have any weak moment to it. The new man on the mic fits perfectly and helps the band to step up to even higher levels with his voices diversity and powerful presence. If it comes to the music itself, EQUILIBRIUM stick to what they know: thunderous metal, an epic vibe, hymns and that special battlefield-feeling at its best. Being extremely smart at crossing genres and experimenting with exotic elementsmakes “Rekreatur” stand out even more.

Equilibrium - Rekreatur (2010) [Limited Ed. Digipak] 2CD Combined Repost




Equilibrium - Rekreatur (2010) [Limited Ed. Digipak] 2CD Combined Repost


Track Listing

01. In heiligen Hallen (06:13)
02. Der ewige Sieg (04:19)
03. Verbrannte Erde (05:45)
04. Die Affeninsel (05:10)
05. Der Wassermann (06:34)
06. Aus ferner Zeit (09:24)
07. Fahrtwind (04:52)
08. Wenn Erdreich bricht (07:01)
09. Kurzes Epos (13:02)

Equilibrium - Rekreatur (2010) [Limited Ed. Digipak] 2CD Combined Repost


Bonus CD Acoustic-Versions:

01. Der ewige Sieg (Rekreatur) (04:19)
02. Nach dem Winter (Demo 2003) (04:12)
03. Blut im Auge (Sagas) (04:44)
04. Die Prophezeiung (Turis Fratyr) (05:10)
05. Heimwarts (Sagas) (02:33)

Produced by René Berthiaume

The Band

• Robert "Robse" Dahn - Vocals
• René Berthiaume - Guitars & Keyboards
• Andreas Völkl - Guitar
• Sandra Völkl - Bass
• Manu Di Camillo - Drums

*****
• Tuval "Hati" Refaeli - drums
• Gaby Koss - female vocals

Exact Audio Copy V1.3 from 2. September 2016

EAC extraction logfile from 3. July 2017, 17:52

Equilibrium / Rekreatur (CD1)

Used drive : MATSHITADVD-RAM UJ8G6 Adapter: 1 ID: 0

Read mode : Secure
Utilize accurate stream : Yes
Defeat audio cache : Yes
Make use of C2 pointers : No

Read offset correction : 103
Overread into Lead-In and Lead-Out : No
Fill up missing offset samples with silence : Yes
Delete leading and trailing silent blocks : No
Null samples used in CRC calculations : Yes
Used interface : Native Win32 interface for Win NT & 2000

Used output format : User Defined Encoder
Selected bitrate : 1024 kBit/s
Quality : High
Add ID3 tag : No
Command line compressor : C:\Program Files (x86)\Exact Audio Copy\FLAC\FLAC.EXE
Additional command line options : -V -8 -T "Date=%year%" -T"Genre=%genre%" -T"COMMENT=Ripped by Ilijan - ilko" -8 -V %source%


TOC of the extracted CD

Track | Start | Length | Start sector | End sector
––––––––––––––––––––––––––––-
1 | 0:00.00 | 6:13.18 | 0 | 27992
2 | 6:13.18 | 4:18.72 | 27993 | 47414
3 | 10:32.15 | 5:45.31 | 47415 | 73320
4 | 16:17.46 | 5:10.01 | 73321 | 96571
5 | 21:27.47 | 6:34.30 | 96572 | 126151
6 | 28:02.02 | 9:23.54 | 126152 | 168430
7 | 37:25.56 | 4:51.63 | 168431 | 190318
8 | 42:17.44 | 7:01.01 | 190319 | 221894
9 | 49:18.45 | 13:02.28 | 221895 | 280572


Range status and errors

Selected range

Filename D:\ilko\Equilibrium - Rekreatur (CD1).wav

Peak level 96.6 %
Extraction speed 4.1 X
Range quality 99.9 %
Test CRC 0C093A51
Copy CRC 0C093A51
Copy OK

No errors occurred


AccurateRip summary

Track 1 accurately ripped (confidence 27) [42EAE619] (AR v2)
Track 2 accurately ripped (confidence 27) [FF8E2A4B] (AR v2)
Track 3 accurately ripped (confidence 27) [B9C32481] (AR v2)
Track 4 accurately ripped (confidence 27) [867319E7] (AR v2)
Track 5 accurately ripped (confidence 27) [27FA48C8] (AR v2)
Track 6 accurately ripped (confidence 27) [7AE5C4AC] (AR v2)
Track 7 accurately ripped (confidence 27) [57FBE8EB] (AR v2)
Track 8 accurately ripped (confidence 27) [FAD5FE52] (AR v2)
Track 9 accurately ripped (confidence 27) [79D39BBF] (AR v2)

All tracks accurately ripped

End of status report

–– CUETools DB Plugin V2.1.6

[CTDB TOCID: zRYtfx.K_39_.PgJ5WfH5.YNfHg-] found
Submit result: already submitted
Track | CTDB Status
1 | (115/115) Accurately ripped
2 | (115/115) Accurately ripped
3 | (115/115) Accurately ripped
4 | (115/115) Accurately ripped
5 | (115/115) Accurately ripped
6 | (115/115) Accurately ripped
7 | (115/115) Accurately ripped
8 | (115/115) Accurately ripped
9 | (114/115) Accurately ripped


==== Log checksum 192D66A862EC43AB0F89316603347D0F839CEFC551D07208149F2D7CA0E05F59 ====

Exact Audio Copy V1.3 from 2. September 2016

EAC extraction logfile from 3. July 2017, 18:07

Equilibrium / Rekreatur (Bonus CD)

Used drive : MATSHITADVD-RAM UJ8G6 Adapter: 1 ID: 0

Read mode : Secure
Utilize accurate stream : Yes
Defeat audio cache : Yes
Make use of C2 pointers : No

Read offset correction : 103
Overread into Lead-In and Lead-Out : No
Fill up missing offset samples with silence : Yes
Delete leading and trailing silent blocks : No
Null samples used in CRC calculations : Yes
Used interface : Native Win32 interface for Win NT & 2000

Used output format : User Defined Encoder
Selected bitrate : 1024 kBit/s
Quality : High
Add ID3 tag : No
Command line compressor : C:\Program Files (x86)\Exact Audio Copy\FLAC\FLAC.EXE
Additional command line options : -V -8 -T "Date=%year%" -T"Genre=%genre%" -T"COMMENT=Ripped by Ilijan - ilko" -8 -V %source%


TOC of the extracted CD

Track | Start | Length | Start sector | End sector
––––––––––––––––––––––––––––-
1 | 0:00.00 | 4:18.37 | 0 | 19386
2 | 4:18.37 | 4:12.02 | 19387 | 38288
3 | 8:30.39 | 4:43.52 | 38289 | 59565
4 | 13:14.16 | 5:10.14 | 59566 | 82829
5 | 18:24.30 | 2:32.44 | 82830 | 94273


Range status and errors

Selected range

Filename D:\ilko\Equilibrium - Rekreatur (Bonus CD).wav

Peak level 97.0 %
Extraction speed 3.2 X
Range quality 100.0 %
Test CRC 19E825FE
Copy CRC 19E825FE
Copy OK

No errors occurred


AccurateRip summary

Track 1 accurately ripped (confidence 15) [8F6EF7A7] (AR v2)
Track 2 accurately ripped (confidence 16) [E995B09A] (AR v2)
Track 3 accurately ripped (confidence 15) [B1B307D1] (AR v2)
Track 4 accurately ripped (confidence 15) [CB600DEB] (AR v2)
Track 5 accurately ripped (confidence 15) [55615D88] (AR v2)

All tracks accurately ripped

End of status report

–– CUETools DB Plugin V2.1.6

[CTDB TOCID: JGgOKQGX9g2zSr70vfCU4BG93jM-] found
Submit result: already submitted
Track | CTDB Status
1 | (40/40) Accurately ripped
2 | (40/40) Accurately ripped
3 | (40/40) Accurately ripped
4 | (40/40) Accurately ripped
5 | (39/40) Accurately ripped


==== Log checksum D2A5C526E6500358432DADAB9900A95A38B3BFB9BAC501290FAD150C31AFDF24 ====


Many thanks to the original uploader: Ilijan