Tags
Language
Tags

Erasure - Run To The Sun & Run To The Sun (Remixes) [CDS] (1994)

Posted By: gribovar
Erasure - Run To The Sun & Run To The Sun (Remixes) [CDS] (1994)

Erasure - Run To The Sun & Run To The Sun (Remixes) [CDS] (1994)
EAC Rip | FLAC (tracks+.cue+log) - 298 MB | MP3 CBR 320 kbps (LAME 3.93) - 104 MB | Covers - 83 MB
Genre: Synth-pop, House | RAR 3% Rec. | Label: Mute

"Run to the Sun" is a song by British synth-pop duo Erasure, released as the second single from their sixth studio album, I Say I Say I Say (1994). Released on 18 July 1994, "Run to the Sun" peaked at number six on the UK Singles Chart, becoming Erasure's 15th UK top-10 hit. In the US, the song reached number 24 on the Billboard Bubbling Under Hot 100 Singles chart and number 14 on the Billboard Hot Dance Music/Club Play. Elsewhere, the song reached number five in Finland, number 19 in Ireland and Sweden, and number 49 in Germany.

Erasure - Run To The Sun & Run To The Sun (Remixes) [CDS] (1994)

Erasure - Run To The Sun (1994)
EAC Rip | FLAC (tracks+.cue+log) - 120 MB | MP3 CBR 320 kbps (LAME 3.93) - 41 MB | Covers - 38 MB
Genre: Synth-pop | RAR 3% Rec. | Label: Mute (Cd Mute 153)

Tracklist:
01. Run To The Sun
02. Tenderest Moments
03. Run To The Sun (Beatmasters' Galactic Mix)

Total time: 17:00

Exact Audio Copy V1.5 from 20. February 2020

EAC extraction logfile from 8. January 2021, 0:14

Erasure / Run To The Sun

Used drive : PIONEER DVD-RW DVR-212D Adapter: 1 ID: 2

Read mode : Secure
Utilize accurate stream : Yes
Defeat audio cache : Yes
Make use of C2 pointers : No

Read offset correction : 48
Overread into Lead-In and Lead-Out : No
Fill up missing offset samples with silence : Yes
Delete leading and trailing silent blocks : No
Null samples used in CRC calculations : Yes
Used interface : Native Win32 interface for Win NT & 2000
Gap handling : Appended to previous track

Used output format : User Defined Encoder
Selected bitrate : 1024 kBit/s
Quality : High
Add ID3 tag : No
Command line compressor : C:\Program Files (x86)\Exact Audio Copy\FLAC\FLAC.EXE
Additional command line options : -6 -V -T "COMMENT=Ripped by RRCLtd" -T "ARTIST=%artist%" -T "TITLE=%title%" -T "ALBUM=%albumtitle%" -T "DATE=%year%" -T "TRACKNUMBER=%tracknr%" -T "GENRE=%genre%" -T "BAND=%albuminterpret%" -T "ALBUMARTIST=%albuminterpret%" -T "COMPOSER=%composer%" %haslyrics%–tag-from-file=LYRICS="%lyricsfile%"%haslyrics% -T "DISCNUMBER=%cdnumber%" -T "TOTALDISCS=%totalcds%" -T "TOTALTRACKS=%numtracks%" %hascover%–picture="%coverfile%"%hascover% %source%


TOC of the extracted CD

Track | Start | Length | Start sector | End sector
––––––––––––––––––––––––––––-
1 | 0:00.00 | 4:12.40 | 0 | 18939
2 | 4:12.40 | 5:28.50 | 18940 | 43589
3 | 9:41.15 | 7:19.10 | 43590 | 76524


Track 1

Filename E:\RRCLtd Rip\01 - Run To The Sun.wav

Pre-gap length 0:00:02.00

Peak level 99.2 %
Extraction speed 4.5 X
Track quality 100.0 %
Test CRC B528AEC2
Copy CRC B528AEC2
Accurately ripped (confidence 25) [939BD753] (AR v2)
Copy OK

Track 2

Filename E:\RRCLtd Rip\02 - Tenderest Moment.wav

Pre-gap length 0:00:00.50

Peak level 99.2 %
Extraction speed 4.8 X
Track quality 99.9 %
Test CRC F77CCCE1
Copy CRC F77CCCE1
Accurately ripped (confidence 28) [B96FB20C] (AR v2)
Copy OK

Track 3

Filename E:\RRCLtd Rip\03 - Run To The Sun (Beatmasters' Galactic Mix).wav

Pre-gap length 0:00:00.03

Peak level 99.2 %
Extraction speed 6.0 X
Track quality 100.0 %
Test CRC 13E24E29
Copy CRC 13E24E29
Accurately ripped (confidence 26) [C26030B8] (AR v2)
Copy OK


All tracks accurately ripped

No errors occurred

End of status report

–– CUETools DB Plugin V2.1.6

[CTDB TOCID: Nd5xjF8Yszhq7i4TIYKSG2wzBE0-] found
Submit result: Nd5xjF8Yszhq7i4TIYKSG2wzBE0- has been confirmed, Nd5xjF8Yszhq7i4TIYKSG2wzBE0- has been confirmed
Track | CTDB Status
1 | (69/69) Accurately ripped
2 | (69/69) Accurately ripped
3 | (68/69) Accurately ripped


==== Log checksum 8D82FB96E2DB9989330577323E007BA3B5013E8B0E8BE833F7E8778A9C757BF0 ====

[CUETools log; Date: 01.08.2021 21:17:33; Version: 2.1.4]
[CTDB TOCID: Nd5xjF8Yszhq7i4TIYKSG2wzBE0-] found.
Track | CTDB Status
1 | (79/79) Accurately ripped
2 | (79/79) Accurately ripped
3 | (78/79) Accurately ripped
[AccurateRip ID: 00021f2f-00073e7f-1d03fc03] found.
Track [ CRC | V2 ] Status
01 [7a1c91a9|939bd753] (12+26/59) Accurately ripped
02 [3d27a8c4|b96fb20c] (12+29/62) Accurately ripped
03 [87791709|c26030b8] (12+27/60) Accurately ripped
Offsetted by -788:
01 [25acd18d] (07/59) Accurately ripped
02 [9914c780] (07/62) Accurately ripped
03 [7ad3f39c] (00/60) No match (V2 was not tested)

Track Peak [ CRC32 ] [W/O NULL] [ LOG ]
– 99,2 [43F063CE] [967CE16F]
01 99,2 [B528AEC2] [0E254E57] CRC32
02 99,2 [F77CCCE1] [B1FA609D] CRC32
03 99,2 [13E24E29] [DAB56BFC] CRC32

Erasure - Run To The Sun & Run To The Sun (Remixes) [CDS] (1994)

Erasure - Run To The Sun (Remixes) (1994)
EAC Rip | FLAC (tracks+.cue+log) - 178 MB | MP3 CBR 320 kbps (LAME 3.93) - 63 MB | Covers - 45 MB
Genre: Synth-pop, House | RAR 3% Rec. | Label: Mute (Lcd Mute 153)

Tracklist:
01. Run To The Sun (Beatmasters' Outergalactic Mix)
02. Run To The Sun (The Simon + Diamond Bhangra Remix)
03. Run To The Sun (Set The Controls For The Heart Of The Sun)
04. Run To The Sun (Amber Solaire)

Total time: 26:32

Exact Audio Copy V1.5 from 20. February 2020

EAC extraction logfile from 8. January 2021, 0:05

Erasure / Run To The Sun (Remixes)

Used drive : PIONEER DVD-RW DVR-212D Adapter: 1 ID: 2

Read mode : Secure
Utilize accurate stream : Yes
Defeat audio cache : Yes
Make use of C2 pointers : No

Read offset correction : 48
Overread into Lead-In and Lead-Out : No
Fill up missing offset samples with silence : Yes
Delete leading and trailing silent blocks : No
Null samples used in CRC calculations : Yes
Used interface : Native Win32 interface for Win NT & 2000
Gap handling : Appended to previous track

Used output format : User Defined Encoder
Selected bitrate : 1024 kBit/s
Quality : High
Add ID3 tag : No
Command line compressor : C:\Program Files (x86)\Exact Audio Copy\FLAC\FLAC.EXE
Additional command line options : -6 -V -T "COMMENT=Ripped by RRCLtd" -T "ARTIST=%artist%" -T "TITLE=%title%" -T "ALBUM=%albumtitle%" -T "DATE=%year%" -T "TRACKNUMBER=%tracknr%" -T "GENRE=%genre%" -T "BAND=%albuminterpret%" -T "ALBUMARTIST=%albuminterpret%" -T "COMPOSER=%composer%" %haslyrics%–tag-from-file=LYRICS="%lyricsfile%"%haslyrics% -T "DISCNUMBER=%cdnumber%" -T "TOTALDISCS=%totalcds%" -T "TOTALTRACKS=%numtracks%" %hascover%–picture="%coverfile%"%hascover% %source%


TOC of the extracted CD

Track | Start | Length | Start sector | End sector
––––––––––––––––––––––––––––-
1 | 0:00.00 | 5:36.57 | 0 | 25256
2 | 5:36.57 | 4:25.03 | 25257 | 45134
3 | 10:01.60 | 6:19.52 | 45135 | 73611
4 | 16:21.37 | 10:11.13 | 73612 | 119449


Track 1

Filename E:\RRCLtd Rip\01 - Run To The Sun (Beatmasters' Outergalactic Mix).wav

Pre-gap length 0:00:02.00

Peak level 99.2 %
Extraction speed 4.7 X
Track quality 100.0 %
Test CRC CD15DCEE
Copy CRC CD15DCEE
Accurately ripped (confidence 17) [D2446F79] (AR v2)
Copy OK

Track 2

Filename E:\RRCLtd Rip\02 - Run To The Sun (The Simon + Diamond Bhangra Remix).wav

Pre-gap length 0:00:00.02

Peak level 99.2 %
Extraction speed 5.2 X
Track quality 100.0 %
Test CRC D386A6B2
Copy CRC D386A6B2
Accurately ripped (confidence 17) [BBEFAC11] (AR v2)
Copy OK

Track 3

Filename E:\RRCLtd Rip\03 - Run To The Sun (Set The Controls For The Heart Of The Sun Mix).wav

Pre-gap length 0:00:00.03

Peak level 99.2 %
Extraction speed 5.9 X
Track quality 100.0 %
Test CRC ADE17CD0
Copy CRC ADE17CD0
Accurately ripped (confidence 17) [9D5CBAB7] (AR v2)
Copy OK

Track 4

Filename E:\RRCLtd Rip\04 - Run To The Sun (Amber Solaire).wav

Pre-gap length 0:00:00.02

Peak level 99.2 %
Extraction speed 6.9 X
Track quality 100.0 %
Test CRC 3F4D905E
Copy CRC 3F4D905E
Accurately ripped (confidence 17) [566CCFAD] (AR v2)
Copy OK


All tracks accurately ripped

No errors occurred

End of status report

–– CUETools DB Plugin V2.1.6

[CTDB TOCID: b2juJWSCS2zWtIdtNVwJP16q.zY-] found
Submit result: b2juJWSCS2zWtIdtNVwJP16q.zY- has been confirmed
Track | CTDB Status
1 | (51/51) Accurately ripped
2 | (51/51) Accurately ripped
3 | (51/51) Accurately ripped
4 | (32/51) Accurately ripped, or (18/51) differs in 844 samples @10:10:73-10:10:74


==== Log checksum 11375BBBEDC32B40D2436236224ED6F2006DD8BFF3C4B4C64E402A4FBA851C96 ====

[CUETools log; Date: 01.08.2021 21:18:09; Version: 2.1.4]
[CTDB TOCID: b2juJWSCS2zWtIdtNVwJP16q.zY-] found.
Track | CTDB Status
1 | (62/62) Accurately ripped
2 | (62/62) Accurately ripped
3 | (62/62) Accurately ripped
4 | (39/62) Accurately ripped, or (22/62) differs in 844 samples @10:10:73-10:10:74
[AccurateRip ID: 0004051e-00107172-2d063804] found.
Track [ CRC | V2 ] Status
01 [d9702035|d2446f79] (07+18/57) Accurately ripped
02 [ffdeaa87|bbefac11] (07+18/57) Accurately ripped
03 [6d6558f3|9d5cbab7] (07+18/57) Accurately ripped
04 [21a912e9|566ccfad] (07+18/56) Accurately ripped
Offsetted by -1961:
01 [60ae4e1d] (10/57) Accurately ripped
02 [c24ef134] (10/57) Accurately ripped
03 [b335c653] (10/57) Accurately ripped
04 [3f9aaf53] (00/56) No match (V2 was not tested)

Track Peak [ CRC32 ] [W/O NULL] [ LOG ]
– 99,2 [D6894A40] [E7667F3A]
01 99,2 [CD15DCEE] [F686E8BC] CRC32
02 99,2 [D386A6B2] [C9C4C254] CRC32
03 99,2 [ADE17CD0] [0E5DEDD7] CRC32
04 99,2 [3F4D905E] [FDF3840F] CRC32

Thanks to RRC

See also:
Erasure - Wonderland (1986) [2CD Special Edition 2011]
Erasure - The Circus (1987) [2CD Special Edition 2011]
Erasure - The Circus [MCD] (1987) [Reissue 1993]
Erasure - Victim of Love [MCD] (1987) [Reissue 1993]
Erasure - The Innocents (1988) [2CD 21st Anniversary Edition 2009]
Erasure - Crackers International [EP] (1988)
Erasure - Wild! (1989) [2CD Deluxe 30th Anniversary Edition 2019]
Erasure - Blue Savannah [MCD] (1989)
Erasure - Drama! [MCD] (1989)
Erasure - Chorus (1991) [3CD Deluxe Edition 2020]
Erasure - Love to Hate You [MCD] (1991)
Erasure - Am I Right? [2 EPs] (1991)
Erasure - Always & Always Remixes [CDS] (1994)
Erasure - Erasure (1995)
Erasure - Rain Plus [EP] (1997)
Erasure - Cowboy (1997) [Special Edition]
Erasure - Solsbury Hill [MCD] (2003)
Erasure - Make Me Smile (Come Up and See Me) [MCD] (2003)
Erasure - Other People's Songs (2003)
Erasure - Hits! The Very Best Of Erasure (2003)
Erasure - Storm Chaser [EP] (2007)
Erasure - Phantom Bride EP (2009)
Erasure - Erasure.Club [EP] (2009)
Erasure - Total Pop! The First 40 Hits [3CD+DVD Deluxe Box Set] (2009)
Erasure - Tomorrow's World (2011) [2CD Special Edition]
Erasure - Fill Us With Fire [MCD] (2012)
Erasure - Reason [MCD] (2014)
Erasure - The Violet Flame (2014) [3CD Limited Edition Deluxe Box Set]
Erasure - World Be Gone [MCD] (2017)
Erasure - World Be Gone (2017) [2CD Limited Edition]
Erasure - World Be Live (2018)
Erasure - The Neon Singles [3CD Box Set] (2020)

Andy Bell - Non-Stop (2010)
Shelter featuring Andy Bell - iPop (2014) [3CD Deluxe Edition]
Andy Bell - Torsten The Beautiful Libertine (2016)
Andy Bell - Torsten In Queereteria (2019) [Deluxe Edition]