Tags
Language
Tags

Eric Clapton - Music From The Motion Picture Soundtrack RUSH (1992)

Posted By: v3122
Eric Clapton - Music From The Motion Picture Soundtrack RUSH (1992)

Eric Clapton - Music From The Motion Picture Soundtrack: Rush (1992)
EAC | Flac(Image) + Cue + Log & MP3 CBR 320Kbps
Reprise, 7599-26794-2 | ~ 255 or 99 Mb | Artwork(jpg) -> 44 Mb
Jazz, Rock, Blues, Stage & Screen, Soundtrack, Score

Rush is an excellent dark blues score written by Eric Clapton (with help on the three songs) and performed by an augmented version of his band. This soundtrack album produced one big hit for Clapton with "Tears in Heaven," but it's a wonderfully intense piece of work all the way through, with some terrific guitar work from Clapton himself. Buddy Guy turns up to add lead vocals and guitar on the 11-minute version of Willie Dixon's "Don't Know Which Way to Go," and that's more than all right too. There's a very good chance that the dark intensity of this music was as much informed by the tragedies in Clapton's life ("Tears in Heaven" is about his son) as the film itself. Whatever the cause, this album has far more impact than you might expect from the score to a movie – there's a sense of the music here working something out in Clapton's heart, a sense given a lot of power thanks to the intense, heart-wrenching passion invoked by some of the turns taken here. At its best, Clapton's music can speak of the pain he feels – and Clapton has rarely been better than he is here.

by Steven McDonald, allmusic
Eric Clapton - Music From The Motion Picture Soundtrack RUSH (1992):

Eric Clapton - Music From The Motion Picture Soundtrack RUSH (1992)

Tracklist:

01. New Recruit [0:01:32.64]
02. Tracks And Lines [0:03:01.86]
03. Realization [0:02:41.76]
04. Kristen And Jim [0:03:40.30]
05. Preludin Fugue [0:03:20.73]
06. Cold Turkey [0:02:24.93]
07. Will Gaines [0:03:50.33]
08. Help Me Up [0:05:53.49]
09. Don't Know Which Way To Go [0:10:48.64]
10. Tears In Heaven [0:04:32.09]

Exact Audio Copy V1.0 beta 3 from 29. August 2011

Отчёт EAC об извлечении, выполненном 23. сентября 2012, 16:10

Eric Clapton / Music From The Motion Picture Soundtrack RUSH

Дисковод: SONY CD-RW CRX230ED Adapter: 0 ID: 1

Режим чтения : Достоверность
Использование точного потока : Да
Отключение кэша аудио : Да
Использование указателей C2 : Нет

Коррекция смещения при чтении : 6
Способность читать области Lead-in и Lead-out : Нет
Заполнение пропущенных сэмплов тишиной : Да
Удаление блоков с тишиной в начале и конце : Нет
При вычислениях CRC использовались нулевые сэмплы : Да
Интерфейс : Встроенный Win32-интерфейс для Win NT/2000

Выходной формат : Внутренние WAV-операции
Формат сэмплов : 44.100 Гц; 16 бит; стерео


TOC извлечённого CD

Трек | Старт | Длительность | Начальный сектор | Конечный сектор
––––––––––––––––––––––––––––––––––-
1 | 0:00.00 | 1:32.48 | 0 | 6947
2 | 1:32.48 | 3:01.65 | 6948 | 20587
3 | 4:34.38 | 2:41.57 | 20588 | 32719
4 | 7:16.20 | 3:40.23 | 32720 | 49242
5 | 10:56.43 | 3:20.55 | 49243 | 64297
6 | 14:17.23 | 2:24.70 | 64298 | 75167
7 | 16:42.18 | 3:50.25 | 75168 | 92442
8 | 20:32.43 | 5:53.37 | 92443 | 118954
9 | 26:26.05 | 10:48.48 | 118955 | 167602
10 | 37:14.53 | 4:32.07 | 167603 | 188009


Характеристики диапазона извлечения и сообщения об ошибках

Выбранный диапазон

Имя файла E:\MusicCD\Torrent\Eric Clapton\Eric Clapton - Music From The Motion Picture Soundtrack RUSH\Eric Clapton - Music From The Motion Picture Soundtrack RUSH.wav

Пиковый уровень 100.0 %
Скорость извлечения 7.2 X
Качество диапазона 100.0 %
CRC теста FD682223
CRC копии FD682223
Копирование… OK

Ошибок не произошло


AccurateRip: сводка

Трек 1 : извлечено точно (доверие 13) [E6B5A300] (AR v2)
Трек 2 : извлечено точно (доверие 13) [3DD4B0D6] (AR v2)
Трек 3 : извлечено точно (доверие 13) [F7FD50A4] (AR v2)
Трек 4 : извлечено точно (доверие 13) [FCBB7C26] (AR v2)
Трек 5 : извлечено точно (доверие 13) [DAE52098] (AR v2)
Трек 6 : извлечено точно (доверие 13) [E7B8F37A] (AR v2)
Трек 7 : извлечено точно (доверие 12) [03164B54] (AR v2)
Трек 8 : извлечено точно (доверие 13) [CF4D1D27] (AR v2)
Трек 9 : извлечено точно (доверие 13) [3CC68924] (AR v2)
Трек 10 : извлечено точно (доверие 13) [FE7BF242] (AR v2)

Все треки извлечены точно

Конец отчёта

==== Контрольная сумма отчёта 69FC0816CCE4D788E329E01EDA3B844B6689898D178049CADE2D1B7401975886 ====


[CUETools log; Date: 12.07.2021 9:45:01; Version: 2.1.4]
[AccurateRip ID: 000c7368-00699357-8809ca0a] disk not present in database.

Track Peak [ CRC32 ] [W/O NULL] [ LOG ]
– 99,9 [FD682223] [66593739] CRC32
01 72,8 [A60D6113] [A029D79E]
02 99,9 [E05B345B] [C7699D70]
03 88,2 [A1D85797] [EFA907DD]
04 75,1 [D0A27B3F] [CC659FDC]
05 99,9 [0ED4E5E7] [01B7EE2E]
06 99,9 [73F4C75A] [618A3C1D]
07 99,9 [9DB980C2] [2E000A41]
08 99,9 [663D6260] [DBB94886]
09 99,9 [2AD08BD3] [8292204B]
10 99,9 [AA62604E] [7DA9C5DD]


Eric Clapton - Music From The Motion Picture Soundtrack RUSH (1992)

All thanks go to the original releaser

Eric Clapton in my Blog

Download Eric Clapton - Music From The Motion Picture Soundtrack RUSH (1992):