Eric Johnson - Seven Worlds (1998) [Re-Up]

Posted By: Designol
Eric Johnson - Seven Worlds (1998) [Re-Up]

Eric Johnson - Seven Worlds (1998)
EAC | FLAC | Tracks (Cue&Log) ~ 280 Mb (incl 5%) | Mp3 (CBR320) ~ 111 Mb (incl 5%) | Scans included
Guitar Virtuoso, Rock, Instrumental Rock, Fusion | Label: Lone Wolf/ARK 21 | # 61868 10033 2 8 | 00:38:11

A rare find for fans of this acclaimed guitarist/songwriter, Seven Worlds is the long-lost solo debut from Eric Johnson. Cut in the late '70s, this album is far more than a promising collection of demos; it's a full length, fully-produced album that showcases all of Johnson's awesome talent – not only as a guitar virtuoso, but as a talented pop/rock songwriter. Tunes such as "Showdown" clearly indicate the talent that Johnson had, even at this early stage. A classy false start to a great career, and a must for fans of Eric Johnson.

Review by Matthew Greenwald, Allmusic.com

Eric Johnson at Allmusic
Eric Johnson Website
Eric Johnson at Wiki

Tracklist:

01. Zap (03:22)
02. Emerald Eyes (03:18)
03. Showdown (03:59)
04. Missing Key (03:43)
05. Alone With You (06:13)
06. I Promise I Will Try (02:41)
07. Winter Came (04:56)
08. Turn The Page (03:49)
09. A Song For Life (02:29)
10. By Your Side (03:37)


EAC extraction logfile from 19. May 2006, 7:59 for CD
Eric Johnson / Seven Worlds

Used drive : PIONEER DVD-RW DVR-110 Adapter: 0 ID: 0
Read mode : Secure with NO C2, accurate stream, disable cache
Read offset correction : 48
Overread into Lead-In and Lead-Out : No

Used output format : C:\Programme\FLAC\flac.exe (User Defined Encoder)
128 kBit/s
Additional command line options : -8 -V -T "ARTIST=%a" -T "TITLE=%t" -T "ALBUM=%g" -T "DATE=%y" -T "TRACKNUMBER=%n" -T "GENRE=%m" -T "COMMENT=EAC Flac 1.1.2 -8" %s

Other options :
Fill up missing offset samples with silence : Yes
Delete leading and trailing silent blocks : No
Native Win32 interface for Win NT & 2000


Track 1
Filename I:\TRANSFER\EAC Rips\Eric Johnson - Seven Worlds (1998) [FLAC]\01 - Zap.wav

Pre-gap length 0:00:02.00

Peak level 100.0 %
Track quality 100.0 %
Test CRC E625A955
Copy CRC E625A955
Copy OK

Track 2
Filename I:\TRANSFER\EAC Rips\Eric Johnson - Seven Worlds (1998) [FLAC]\02 - Emerald Eyes.wav

Peak level 97.7 %
Track quality 100.0 %
Test CRC 935F8BEB
Copy CRC 935F8BEB
Copy OK

Track 3
Filename I:\TRANSFER\EAC Rips\Eric Johnson - Seven Worlds (1998) [FLAC]\03 - Showdown.wav

Pre-gap length 0:00:00.06

Peak level 92.8 %
Track quality 100.0 %
Test CRC 3F44BD91
Copy CRC 3F44BD91
Copy OK

Track 4
Filename I:\TRANSFER\EAC Rips\Eric Johnson - Seven Worlds (1998) [FLAC]\04 - Missing Key.wav

Pre-gap length 0:00:02.44

Peak level 97.7 %
Track quality 100.0 %
Test CRC 44CA071E
Copy CRC 44CA071E
Copy OK

Track 5
Filename I:\TRANSFER\EAC Rips\Eric Johnson - Seven Worlds (1998) [FLAC]\05 - Alone With You.wav

Pre-gap length 0:00:00.13

Peak level 92.1 %
Track quality 99.9 %
Test CRC 3AB5527C
Copy CRC 3AB5527C
Copy OK

Track 6
Filename I:\TRANSFER\EAC Rips\Eric Johnson - Seven Worlds (1998) [FLAC]\06 - I Promise I Will Try.wav

Pre-gap length 0:00:01.82

Peak level 96.7 %
Track quality 99.9 %
Test CRC 22C711C1
Copy CRC 22C711C1
Copy OK

Track 7
Filename I:\TRANSFER\EAC Rips\Eric Johnson - Seven Worlds (1998) [FLAC]\07 - Winter Came.wav

Pre-gap length 0:00:00.89

Peak level 96.7 %
Track quality 100.0 %
Test CRC AF56AFEE
Copy CRC AF56AFEE
Copy OK

Track 8
Filename I:\TRANSFER\EAC Rips\Eric Johnson - Seven Worlds (1998) [FLAC]\08 - Turn The Page.wav

Pre-gap length 0:00:02.26

Peak level 100.0 %
Track quality 99.9 %
Test CRC 24A692BB
Copy CRC 24A692BB
Copy OK

Track 9
Filename I:\TRANSFER\EAC Rips\Eric Johnson - Seven Worlds (1998) [FLAC]\09 - A Song For Life.wav

Pre-gap length 0:00:01.40

Peak level 99.0 %
Track quality 100.0 %
Test CRC 17742A79
Copy CRC 17742A79
Copy OK

Track 10
Filename I:\TRANSFER\EAC Rips\Eric Johnson - Seven Worlds (1998) [FLAC]\10 - By Your Side.wav

Pre-gap length 0:00:00.44

Peak level 100.0 %
Track quality 100.0 %
Test CRC CCBAAB8B
Copy CRC CCBAAB8B
Copy OK

No errors occured


End of status report

[CUETools log; Date: 05.09.2014 12:31:32; Version: 2.1.4]
[CTDB TOCID: NDUt0HIvCNufVzMzRnZagMSE1Dc-] found.
Track | CTDB Status
1 | (12/12) Accurately ripped
2 | (12/12) Accurately ripped
3 | (12/12) Accurately ripped
4 | (11/12) Accurately ripped
5 | (12/12) Accurately ripped
6 | (12/12) Accurately ripped
7 | (12/12) Accurately ripped
8 | (12/12) Accurately ripped
9 | (12/12) Accurately ripped
10 | (12/12) Accurately ripped
[AccurateRip ID: 000e9076-007552e5-7708f30a] found.
Track [ CRC | V2 ] Status
01 [d313e8b7|367e149d] (27+15/49) Accurately ripped
02 [5e665b0b|62b5dda1] (27+15/49) Accurately ripped
03 [c70846e8|1b1519cc] (27+15/49) Accurately ripped
04 [34931bfb|caa79e4f] (28+15/50) Accurately ripped
05 [cc22f149|32c152b0] (28+15/50) Accurately ripped
06 [bd37146d|bc4ca702] (28+15/50) Accurately ripped
07 [8d3c4445|02e8ab0a] (28+15/50) Accurately ripped
08 [cdd2b19f|a0a8e144] (27+15/49) Accurately ripped
09 [29b8765b|878c7ba7] (28+15/50) Accurately ripped
10 [c84c80a7|39921ae3] (27+15/49) Accurately ripped
Offsetted by -664:
01 [29527f31] (02/49) Accurately ripped
02 [c3048dc1] (02/49) Accurately ripped
03 [f18d5df8] (02/49) Accurately ripped
04 [d77c1773] (02/50) Accurately ripped
05 [f8b7c459] (02/50) Accurately ripped
06 [2e0756ed] (02/50) Accurately ripped
07 [bf2ad1c5] (02/50) Accurately ripped
08 [c6f991bf] (02/49) Accurately ripped
09 [2f2b8cdb] (02/50) Accurately ripped
10 [009f47a2] (02/49) Accurately ripped
Offsetted by 1536:
01 [cd17821b] (03/49) Accurately ripped
02 [303fa707] (03/49) Accurately ripped
03 [741842e8] (03/49) Accurately ripped
04 [30ed5dfb] (03/50) Accurately ripped
05 [39d3ed49] (03/50) Accurately ripped
06 [d0ec746d] (03/50) Accurately ripped
07 [3892e445] (03/50) Accurately ripped
08 [ce3e299f] (03/49) Accurately ripped
09 [a7e8d65b] (03/50) Accurately ripped
10 [da70aa12] (03/49) Accurately ripped

Track Peak [ CRC32 ] [W/O NULL] [ LOG ]
– 100,0 [59BDC560] [2B16BA6C]
01 100,0 [E625A955] [E558FCB8] CRC32
02 97,7 [935F8BEB] [2DF478C3] CRC32
03 92,8 [3F44BD91] [1A71A920] CRC32
04 97,7 [44CA071E] [E685A31F] CRC32
05 92,1 [3AB5527C] [9123A07A] CRC32
06 96,7 [22C711C1] [E5C13690] CRC32
07 96,7 [AF56AFEE] [AEA4AEB3] CRC32
08 99,9 [24A692BB] [B6A72C6A] CRC32
09 99,0 [17742A79] [4927BF9A] CRC32
10 99,9 [CCBAAB8B] [1A5DFA8B] CRC32

foobar2000 1.2 / Dynamic Range Meter 1.1.1
log date: 2014-09-05 11:59:02

––––––––––––––––––––––––––––––––––––––––
Analyzed: Eric Johnson / Seven Worlds
––––––––––––––––––––––––––––––––––––––––

DR Peak RMS Duration Track
––––––––––––––––––––––––––––––––––––––––
DR9 0.00 dB -11.72 dB 3:22 01-Zap
DR9 -0.20 dB -11.91 dB 3:19 02-Emerald Eyes
DR10 -0.64 dB -13.06 dB 4:00 03-Showdown
DR10 -0.20 dB -13.45 dB 3:44 04-Missing Key
DR9 -0.71 dB -12.07 dB 6:14 05-Alone With You
DR12 -0.29 dB -15.10 dB 2:41 06-I Promise I Will Try
DR12 -0.29 dB -14.17 dB 4:56 07-Winter Came
DR12 0.00 dB -12.88 dB 3:49 08-Turn The Page
DR13 -0.09 dB -15.90 dB 2:30 09-A Song For Life
DR9 0.00 dB -12.47 dB 3:38 10-By Your Side
––––––––––––––––––––––––––––––––––––––––

Number of tracks: 10
Official DR value: DR10

Samplerate: 44100 Hz
Channels: 2
Bits per sample: 16
Bitrate: 853 kbps
Codec: FLAC
================================================================================

Eric Johnson - Seven Worlds (1998) [Re-Up]

Eric Johnson - Seven Worlds (1998) [Re-Up]

All thanks to original releaser

More interesting music in My Blog

Eric Johnson - Tones (1986)

Password: designol