Subcategories

Erik Soderlind - Twist For Jimmy Smith (2009)

Posted By: Designol
Erik Soderlind - Twist For Jimmy Smith (2009)

Erik Söderlind - Twist For Jimmy Smith (2009)
EAC | FLAC | Tracks (Cue&Log) ~ 390 Mb | Mp3 (CBR320) ~ 140 Mb | Scans included | 00:59:41
Guitar Jazz, Mainstream Jazz, Contemporary Jazz | Label: Prophone | # PCD 100

Erik Söderlind is a young man in no particular hurry. Not yet 30, he plays jazz guitar with supreme assurance, and on his debut album Twist For Jimmy Smith, he has put together a lovely, leisurely paced, always swinging collection of standards and originals that deserves worldwide recognition. Of course, he's unlikely to get it. We live in a world obsessed with image, a world that all too often mistakes image for the real thing.

Should Sweden's Söderlind be passed over, it's the world's loss. Here he teams up with two other extremely talented local musicians, organist Kjell Öhman and reed man Magnus Lindgren to make an album that brooks repeated listening. Söderlind plays in a line stemming from Charlie Christian and continuing through Wes Montgomery and George Benson—and that's George Benson when John Hammond billed him "The Most Exciting New Guitarist On The Jazz Scene Today." Before someone discovered he could sing, dressed him in glittery suits and stuck him on the cabaret circuit.

Twist For Jimmy Smith provides a glimpse of what jazz was all about in those far off days; though this album is not about nostalgia. It's about the real thing, what Söderlind, on the sleeve calls "the joy of making music" and communicating that joy.

From the opener, Burt Bacharach's "Wives and Lovers" to Hoagy Carmichael's closing "The Nearness of You"—via "Willow Weep For Me," with Söderlind doffing his cap to Montgomery—there is nearly an hour's worth of classic, straight-ahead jazz, with the accent on melody but with Öhman giving it just that hint of rhythm 'n' blues in the old sense of the term.

New ground is not broken and there are no tormented experiments with atonality or discord. It's just music—but oh so superbly well-played and enjoyable.

Review by Chris Mosey, AllAboutJazz.com

Erik Soderlind - Twist For Jimmy Smith (2009)



Personnel:
Erik Söderlind: guitar;
Kjell Öhman: organ; Magnus Lindgren: tenor saxophone, flute;
Claes Orlandersson: trumpet; Martin Sjöstedt: bass; Moussa Fadera: drums

Tracklist:

01. Wiwes and Lovers (5:09)
02. Close Your Eyes (6:43)
03. Polka Dots and Moonbeams (6:14)
04. Mr C. (5:25)
05. Twist for Jimmy Smith (5:21)
06. The Shadow of Your Smile (5:27)
07. Broadway (4:51)
08. Willow Weep for Me (7:14)
09. Blues for Pat Martino (3:21)
10. Flamman (4:28)
11. The Nearness of You (5:27)


Exact Audio Copy V1.0 beta 3 from 29. August 2011

EAC extraction logfile from 8. April 2013, 16:40

Erik Soderlind / Twist for Jimmy Smith

Used drive : Optiarc DVD RW AD-5200A Adapter: 0 ID: 0

Read mode : Secure
Utilize accurate stream : Yes
Defeat audio cache : Yes
Make use of C2 pointers : No

Read offset correction : 48
Overread into Lead-In and Lead-Out : No
Fill up missing offset samples with silence : Yes
Delete leading and trailing silent blocks : No
Null samples used in CRC calculations : Yes
Used interface : Native Win32 interface for Win NT & 2000
Gap handling : Appended to previous track

Used output format : User Defined Encoder
Selected bitrate : 128 kBit/s
Quality : High
Add ID3 tag : No
Command line compressor : C:\Program Files\Exact Audio Copy\Flac\flac.exe
Additional command line options : -V -8 -T "Genre=%genre%" -T "Artist=%artist%" -T "Title=%title%" -T "Album=%albumtitle%" -T "Date=%year%" -T "Tracknumber=%tracknr%" -T "Comment=%comment%" %source%


TOC of the extracted CD

Track | Start | Length | Start sector | End sector
––––––––––––––––––––––––––––-
1 | 0:00.00 | 5:09.24 | 0 | 23198
2 | 5:09.24 | 6:42.72 | 23199 | 53420
3 | 11:52.21 | 6:14.21 | 53421 | 81491
4 | 18:06.42 | 5:25.10 | 81492 | 105876
5 | 23:31.52 | 5:20.42 | 105877 | 129918
6 | 28:52.19 | 5:27.21 | 129919 | 154464
7 | 34:19.40 | 4:51.02 | 154465 | 176291
8 | 39:10.42 | 7:13.44 | 176292 | 208810
9 | 46:24.11 | 3:20.68 | 208811 | 223878
10 | 49:45.04 | 4:28.06 | 223879 | 243984
11 | 54:13.10 | 5:27.31 | 243985 | 268540


Track 1

Filename F:\2009.Eric Soderlind - Twist For Jimmy Smith\01. Wiwes and Lovers.wav

Pre-gap length 0:00:02.00

Peak level 98.8 %
Extraction speed 2.6 X
Track quality 100.0 %
Test CRC CCD7CE31
Copy CRC CCD7CE31
Cannot be verified as accurate (confidence 4) [2E0C95A9], AccurateRip returned [57A31A4B] (AR v2)
Copy OK

Track 2

Filename F:\2009.Eric Soderlind - Twist For Jimmy Smith\02. Close Your Eyes.wav

Peak level 98.8 %
Extraction speed 3.0 X
Track quality 100.0 %
Test CRC E791E2BE
Copy CRC E791E2BE
Cannot be verified as accurate (confidence 4) [36FF2DEF], AccurateRip returned [D09FFF6F] (AR v2)
Copy OK

Track 3

Filename F:\2009.Eric Soderlind - Twist For Jimmy Smith\03. Polka Dots and Moonbeams.wav

Peak level 98.8 %
Extraction speed 3.3 X
Track quality 100.0 %
Test CRC B48A0B98
Copy CRC B48A0B98
Cannot be verified as accurate (confidence 4) [CD8F3D59], AccurateRip returned [01CD404C] (AR v2)
Copy OK

Track 4

Filename F:\2009.Eric Soderlind - Twist For Jimmy Smith\04. Mr C..wav

Peak level 98.8 %
Extraction speed 3.4 X
Track quality 100.0 %
Test CRC 6CA0662C
Copy CRC 6CA0662C
Cannot be verified as accurate (confidence 4) [711E9B55], AccurateRip returned [C00AF427] (AR v2)
Copy OK

Track 5

Filename F:\2009.Eric Soderlind - Twist For Jimmy Smith\05. Twist for Jimmy Smith.wav

Peak level 98.8 %
Extraction speed 3.4 X
Track quality 100.0 %
Test CRC 7321166D
Copy CRC 7321166D
Cannot be verified as accurate (confidence 4) [7B9A0D00], AccurateRip returned [5E115678] (AR v2)
Copy OK

Track 6

Filename F:\2009.Eric Soderlind - Twist For Jimmy Smith\06. The Shadow of Your Smile.wav

Peak level 98.8 %
Extraction speed 3.6 X
Track quality 100.0 %
Test CRC 910F5FF9
Copy CRC 910F5FF9
Cannot be verified as accurate (confidence 4) [02D12EE3], AccurateRip returned [D6E8AF13] (AR v2)
Copy OK

Track 7

Filename F:\2009.Eric Soderlind - Twist For Jimmy Smith\07. Broadway.wav

Peak level 98.8 %
Extraction speed 3.5 X
Track quality 100.0 %
Test CRC D39F4447
Copy CRC D39F4447
Cannot be verified as accurate (confidence 4) [2DC215A2], AccurateRip returned [34DE3A09] (AR v2)
Copy OK

Track 8

Filename F:\2009.Eric Soderlind - Twist For Jimmy Smith\08. Willow Weep for Me.wav

Peak level 98.8 %
Extraction speed 3.4 X
Track quality 99.9 %
Test CRC 8C90D618
Copy CRC 8C90D618
Cannot be verified as accurate (confidence 4) [D4BA6DFE], AccurateRip returned [1238C571] (AR v2)
Copy OK

Track 9

Filename F:\2009.Eric Soderlind - Twist For Jimmy Smith\09. Blues for Pat Martino.wav

Peak level 98.8 %
Extraction speed 3.3 X
Track quality 100.0 %
Test CRC E1B49639
Copy CRC E1B49639
Cannot be verified as accurate (confidence 4) [FE8940D8], AccurateRip returned [FCCFE9B6] (AR v2)
Copy OK

Track 10

Filename F:\2009.Eric Soderlind - Twist For Jimmy Smith\10. Flamman.wav

Peak level 98.8 %
Extraction speed 3.5 X
Track quality 100.0 %
Test CRC BBCCBC19
Copy CRC BBCCBC19
Cannot be verified as accurate (confidence 4) [4D0810C3], AccurateRip returned [490F6170] (AR v2)
Copy OK

Track 11

Filename F:\2009.Eric Soderlind - Twist For Jimmy Smith\11. The Nearness of You.wav

Peak level 98.8 %
Extraction speed 3.6 X
Track quality 100.0 %
Test CRC 3646729D
Copy CRC 3646729D
Cannot be verified as accurate (confidence 4) [E7105A5A], AccurateRip returned [DA40E0B6] (AR v2)
Copy OK


No tracks could be verified as accurate
You may have a different pressing from the one(s) in the database

No errors occurred

End of status report

==== Log checksum 4BFC2649B9B8CEA72BD5CD061B0C0893021FEC7286F0C1E984F358544F4EE35A ====

foobar2000 1.2 / Dynamic Range Meter 1.1.1
log date: 2018-03-15 00:34:38

––––––––––––––––––––––––––––––––––––––––
Analyzed: Erik Soderlind / Twist for Jimmy Smith
––––––––––––––––––––––––––––––––––––––––

DR Peak RMS Duration Track
––––––––––––––––––––––––––––––––––––––––
DR8 -0.10 dB -10.19 dB 5:09 01-Wiwes and Lovers
DR9 -0.10 dB -10.42 dB 6:43 02-Close Your Eyes
DR11 -0.10 dB -12.75 dB 6:14 03-Polka Dots and Moonbeams
DR8 -0.10 dB -9.83 dB 5:25 04-Mr C.
DR10 -0.10 dB -11.95 dB 5:21 05-Twist for Jimmy Smith
DR9 -0.10 dB -11.12 dB 5:27 06-The Shadow of Your Smile
DR8 -0.10 dB -9.57 dB 4:51 07-Broadway
DR10 -0.10 dB -11.73 dB 7:14 08-Willow Weep for Me
DR8 -0.10 dB -10.13 dB 3:21 09-Blues for Pat Martino
DR8 -0.10 dB -9.77 dB 4:28 10-Flamman
DR9 -0.10 dB -12.22 dB 5:27 11-The Nearness of You
––––––––––––––––––––––––––––––––––––––––

Number of tracks: 11
Official DR value: DR9

Samplerate: 44100 Hz
Channels: 2
Bits per sample: 16
Bitrate: 542 kbps
Codec: FLAC
================================================================================

Erik Soderlind - Twist For Jimmy Smith (2009)

Erik Soderlind - Twist For Jimmy Smith (2009)

All thanks to original releaser - ssagwebster

More interesting music in My Blog