Subcategories

Erroll Garner - The Complete Concert By The Sea (1955) 60th Anniversary 3 CD Box Set 2015 [Re-Up]

Posted By: Designol
Erroll Garner - The Complete Concert By The Sea (1955) 60th Anniversary 3 CD Box Set 2015 [Re-Up]

Erroll Garner - The Complete Concert By The Sea (1955) 60th Anniversary 3 CD Box Set 2015
EAC | FLAC | Image (Cue&Log) ~ 426 Mb | Mp3 (CBR320) ~ 362 Mb | Scans ~ 92 Mb | Time: 02:38:53
Mainstream Jazz, Piano Jazz, Swing, Bop, Cool | Label: Columbia/Legacy | # 88875120842

Iconic Jazz artist Erroll Garner's greatest concert album and one of the best selling jazz albums of all time, The Complete Concert By The Sea celebrates the 60th Anniversary of the original concert from September 19, 1955. The complete live concert recording newly uncovered by the Erroll Garner Jazz Project and digitally remastered in its entirety after six decades is produced by Guggenheim Award-winning jazz pianist and Director of Jazz Studies at the University of Pittsburgh Geri Allen and 4-time GRAMMY Award-winning producer Steve Rosenthal. The 3-CD box set contains the complete live Concert By The Sea including 11 previously unreleased tracks, the original edited Columbia release from 1956 and bonus material including announcer Jimmy Lyons and interviews with the Erroll Garner trio: Denzil DaCosta Best, Eddie Calhoun, and Garner himself, recorded directly after the concert.

Concert by the Sea is certainly one of the biggest albums in jazz history, selling over 225,000 copies in the first year after its 1956 release and turning into such a steady seller over the next few years, it reportedly brought Columbia Records a million dollars by 1958 – a nice sum at any time but astronomical in the late '50s. It should've turned Erroll Garner into a full-fledged superstar and, in a way, it did, because it was a reliable catalog item and earned him plenty of fans, including Johnny Carson, who frequently invited the pianist onto The Tonight Show. Instead, Concert by the Sea turned into a pinnacle, with Garner and manager Martha Glaser sliding into contractual battles with Columbia that hampered his long-term growth. Glaser is the one who had the idea to turn the tapes of Garner's September 19, 1955 concert at the Sunset School in Carmel-by-the-Sea, California into a full-fledged album, taking tapes that may have otherwise wound up as a bootleg and turning them over to Columbia. The label whittled the 19-song concert into an 11-track single LP – Columbia/Legacy's 2015 The Complete Concert by the Sea restores the entirety of the concert over the course of two CDs, adding the original LP as a third – and, by doing so, they wound up distilling Garner's joyous appeal. Supported by bassist Eddie Calhoun and drummer Denzil Best, Garner seems at home skipping and swinging through a collection of bop and big-band standards, tunes that offer showcases for his sly skill of remaining melodic even when departing from the melody. Garner's playing is so robust and easy to enjoy that his flashier flourishes, such as the cloistered chords that call up "Caravan," almost seem camouflaged, but there are also subtler signatures, like how he slyly emphasizes staccato left-hand rhythms as much as the melody on "They Can't Take That Away from Me." These are distinctions that appear on close listening but the wonderful thing about Concert by the Sea is how it's so infectious and open-hearted, it almost defies inspection: it's the kind of warm, inviting music that seems born from joy and can't help but engender bliss in the listener. [The 2015 expansion offers simply more of a good thing: the rest of the concert is every bit as good as the selections that made the official LP.]

Review by Stephen Thomas Erlewine, Allmusic.com

Anyone who caught British pianist Neil Cowley’s tribute to the late Dudley Moore in April will have heard about Moore’s great jazz inspiration – the self-taught swing-piano genius Erroll Garner, whose relaxed effervescence made him one of the few jazz virtuosi whose records inhabited the collections of buffs and the jazz-averse alike. More particularly, this best-selling record from 1955, Concert By the Sea. The dancing rhythms in Garner’s left hand and the rolling melodic elegance of his right made him one of the happiest-sounding pianists in jazz, an impression pounded home by glittery runs, wild trills and galloping cross-rhythms that would teasingly threaten to divorce and then ecstatically embrace. This three-disc set adds 11 new tracks to the original release, including an account of Caravan that has an astonishing rhythmic audacity, and classics such as I’ll Remember April, with its waywardly admonishing intro giving way to a purring swing glide, or the offhandedly strolling How Could You Do a Thing Like That to Me reinforce the suspicion that maybe nobody ever made spontaneous piano virtuosity sound easier.

Review by John Fordham, The Guardian

Erroll Garner - The Complete Concert By The Sea (1955) 60th Anniversary 3 CD Box Set 2015 [Re-Up]




Erroll Garner, pano
Eddie Calhoun, bass
Denzil Best, drums

Recorded Live at Sunset School, Carmel-by-the-Sea, California on September 19, 1955

Tracklist:

CD1 - The Complete Concert By The Sea:

01. Announcer: Jimmy Lyons (00:37)
02. Night and Day (05:04)
03. Spring Is Here (05:13)
04. I’ll Remember April (04:22)
05. The Nearness of You (04:45)
06. Where or When (03:22)
07. Sweet and Lovely (04:12)
08. Lullaby of Birdland (04:17)
09. Mambo Carmel (03:52)
10. Teach Me Tonight (03:48)
11. Will You Still Be Mine (03:55)
12. I Cover the Waterfront (03:29)
13. Bernie’s Tune (04:37)
14. How Could You Do a Thing Like That to Me? (04:15)
15. It’s All Right With Me (03:50)

CD2 - The Complete Concert By The Sea:

01. Announcer: Jimmy Lyons (02:47)
02. They Can’t Take That Away From Me (04:18)
03. Autumn Leaves (06:40)
04. S’Wonderful (02:38)
05. Laura (06:03)
06. Red Top (03:28)
07. April in Paris (04:54)
08. Caravan (07:42)
09. Erroll’s Theme / Announcer: Jimmy Lyons (02:31)

CD3 - Concert By The Sea [Original Edited Concert]:

01. I’ll Remember April (04:22)
02. Teach Me Tonight (03:42)
03. Mambo Carmel (03:53)
04. Autumn Leaves (06:32)
05. It’s All Right With Me (03:31)
06. Red Top (03:22)
07. April in Paris (04:55)
08. They Can’t Take That Away From Me (04:15)
09. How Could You Do a Thing Like That to Me (04:13)
10. Where or When (03:11)
11. Erroll’s Theme (01:50)
12. Post Concert Interview: Will Thornbury With Erroll Garner, Eddie Calhoun, Denzil DaCosta Best (14:08)


Exact Audio Copy V1.0 beta 6 from 9. April 2015

Отчёт EAC об извлечении, выполненном 28. января 2016, 12:12

Erroll Garner / The Complete Concert by the Sea: Recorded Live in Carmel, California (September 19, 1955)

Дисковод: ASUS DRW-24F1ST a Adapter: 1 ID: 0

Режим чтения : Достоверность
Использование точного потока : Да
Отключение кэша аудио : Да
Использование указателей C2 : Нет

Коррекция смещения при чтении : 6
Способность читать области Lead-in и Lead-out : Нет
Заполнение пропущенных сэмплов тишиной : Да
Удаление блоков с тишиной в начале и конце : Нет
При вычислениях CRC использовались нулевые сэмплы : Да
Интерфейс : Встроенный Win32-интерфейс для Win NT/2000

Выходной формат : Пользовательский кодировщик
Выбранный битрейт : 768 kBit/s
Качество : Высокий
Добавление ID3-тега : Нет
Утилита сжатия : C:\Program Files (x86)\Exact Audio Copy\FLAC\FLAC.EXE
Дополнительные параметры : -6 -V -T "ARTIST=%artist%" -T "TITLE=%title%" -T "ALBUM=%albumtitle%" -T "DATE=%year%" -T "TRACKNUMBER=%tracknr%" -T "GENRE=%genre%" -T "COMMENT=%comment%" -T "BAND=%albuminterpret%" -T "ALBUMARTIST=%albuminterpret%" -T "COMPOSER=%composer%" %haslyrics%–tag-from-file=LYRICS="%lyricsfile%"%haslyrics% -T "DISCNUMBER=%cdnumber%" -T "TOTALDISCS=%totalcds%" -T "TOTALTRACKS=%numtracks%" %hascover%–picture="%coverfile%"%hascover% %source% -o %dest%


TOC извлечённого CD

Трек | Старт | Длительность | Начальный сектор | Конечный сектор
––––––––––––––––––––––––––––––––––-
1 | 0:00.00 | 0:37.38 | 0 | 2812
2 | 0:37.38 | 5:04.02 | 2813 | 25614
3 | 5:41.40 | 5:13.49 | 25615 | 49138
4 | 10:55.14 | 4:22.71 | 49139 | 68859
5 | 15:18.10 | 4:45.69 | 68860 | 90303
6 | 20:04.04 | 3:22.25 | 90304 | 105478
7 | 23:26.29 | 4:12.07 | 105479 | 124385
8 | 27:38.36 | 4:17.28 | 124386 | 143688
9 | 31:55.64 | 3:52.20 | 143689 | 161108
10 | 35:48.09 | 3:48.03 | 161109 | 178211
11 | 39:36.12 | 3:55.69 | 178212 | 195905
12 | 43:32.06 | 3:29.74 | 195906 | 211654
13 | 47:02.05 | 4:37.58 | 211655 | 232487
14 | 51:39.63 | 4:15.32 | 232488 | 251644
15 | 55:55.20 | 3:50.17 | 251645 | 268911


Характеристики диапазона извлечения и сообщения об ошибках

Выбранный диапазон

Имя файла D:\Erroll Garner - The Complete Concert By The Sea (2015)\CD 1\Erroll Garner - The Complete Concert by the Sea- Recorded Live in Carmel, California (September 19, 1955).wav

Пиковый уровень 99.2 %
Скорость извлечения 3.2 X
Качество диапазона 100.0 %
CRC теста E6257DA7
CRC копии E6257DA7
Копирование… OK

Ошибок не произошло


AccurateRip: сводка

Трек 1 : извлечено точно (доверие 14) [D91C4842] (AR v2)
Трек 2 : извлечено точно (доверие 14) [C6444843] (AR v2)
Трек 3 : извлечено точно (доверие 14) [8D8FD719] (AR v2)
Трек 4 : извлечено точно (доверие 14) [63C3CEE6] (AR v2)
Трек 5 : извлечено точно (доверие 14) [22D0C2CA] (AR v2)
Трек 6 : извлечено точно (доверие 14) [E6EBB6DD] (AR v2)
Трек 7 : извлечено точно (доверие 14) [F2C20358] (AR v2)
Трек 8 : извлечено точно (доверие 14) [1B826BDE] (AR v2)
Трек 9 : извлечено точно (доверие 14) [99895B85] (AR v2)
Трек 10 : извлечено точно (доверие 14) [0FA13B1C] (AR v2)
Трек 11 : извлечено точно (доверие 14) [A96332C3] (AR v2)
Трек 12 : извлечено точно (доверие 14) [DDDE2126] (AR v2)
Трек 13 : извлечено точно (доверие 14) [6582D1F6] (AR v2)
Трек 14 : извлечено точно (доверие 14) [FFADF1DC] (AR v2)
Трек 15 : извлечено точно (доверие 14) [B6F62C56] (AR v2)

Все треки извлечены точно

Конец отчёта

==== Контрольная сумма отчёта DBF7A4AE609A1DEEB2C43AA438F3C03CDC289D2353883D1BFF4BCE427D864BD4 ====

foobar2000 1.2 / Dynamic Range Meter 1.1.1
log date: 2016-01-28 23:13:04

––––––––––––––––––––––––––––––––––––––––
Analyzed: Erroll Garner / The Complete Concert by the Sea: Recorded Live in Carmel, California (Septemb…
––––––––––––––––––––––––––––––––––––––––

DR Peak RMS Duration Track
––––––––––––––––––––––––––––––––––––––––
DR12 -0.80 dB -16.62 dB 0:38 01-Announcer: Jimmy Lyons
DR10 -0.28 dB -12.39 dB 5:04 02-Night and Day
DR11 -0.31 dB -15.86 dB 5:14 03-Spring Is Here
DR10 -0.06 dB -13.39 dB 4:23 04-I’ll Remember April
DR10 -0.32 dB -14.46 dB 4:46 05-The Nearness of You
DR9 -0.40 dB -11.17 dB 3:22 06-Where or When
DR11 -0.38 dB -15.35 dB 4:12 07-Sweet and Lovely
DR11 -0.30 dB -13.35 dB 4:17 08-Lullaby of Birdland
DR11 -0.40 dB -13.81 dB 3:52 09-Mambo Carmel
DR9 -0.38 dB -13.06 dB 3:48 10-Teach Me Tonight
DR9 -0.39 dB -11.83 dB 3:56 11-Will You Still Be Mine
DR13 -0.95 dB -17.38 dB 3:30 12-I Cover the Waterfront
DR11 -0.40 dB -13.31 dB 4:38 13-Bernie’s Tune
DR10 -0.32 dB -14.18 dB 4:15 14-How Could You Do a Thing Like That to Me?
DR9 -0.27 dB -12.02 dB 3:50 15-It’s All Right With Me
––––––––––––––––––––––––––––––––––––––––

Number of tracks: 15
Official DR value: DR10

Samplerate: 44100 Hz
Channels: 2
Bits per sample: 16
Bitrate: 390 kbps
Codec: FLAC
================================================================================


Exact Audio Copy V1.0 beta 6 from 9. April 2015

Отчёт EAC об извлечении, выполненном 28. января 2016, 12:43

Erroll Garner / The Complete Concert by the Sea: Recorded Live in Carmel, California (September 19, 1955)

Дисковод: ASUS DRW-24F1ST a Adapter: 1 ID: 0

Режим чтения : Достоверность
Использование точного потока : Да
Отключение кэша аудио : Да
Использование указателей C2 : Нет

Коррекция смещения при чтении : 6
Способность читать области Lead-in и Lead-out : Нет
Заполнение пропущенных сэмплов тишиной : Да
Удаление блоков с тишиной в начале и конце : Нет
При вычислениях CRC использовались нулевые сэмплы : Да
Интерфейс : Встроенный Win32-интерфейс для Win NT/2000

Выходной формат : Пользовательский кодировщик
Выбранный битрейт : 768 kBit/s
Качество : Высокий
Добавление ID3-тега : Нет
Утилита сжатия : C:\Program Files (x86)\Exact Audio Copy\FLAC\FLAC.EXE
Дополнительные параметры : -6 -V -T "ARTIST=%artist%" -T "TITLE=%title%" -T "ALBUM=%albumtitle%" -T "DATE=%year%" -T "TRACKNUMBER=%tracknr%" -T "GENRE=%genre%" -T "COMMENT=%comment%" -T "BAND=%albuminterpret%" -T "ALBUMARTIST=%albuminterpret%" -T "COMPOSER=%composer%" %haslyrics%–tag-from-file=LYRICS="%lyricsfile%"%haslyrics% -T "DISCNUMBER=%cdnumber%" -T "TOTALDISCS=%totalcds%" -T "TOTALTRACKS=%numtracks%" %hascover%–picture="%coverfile%"%hascover% %source% -o %dest%


TOC извлечённого CD

Трек | Старт | Длительность | Начальный сектор | Конечный сектор
––––––––––––––––––––––––––––––––––-
1 | 0:00.00 | 2:47.34 | 0 | 12558
2 | 2:47.34 | 4:18.51 | 12559 | 31959
3 | 7:06.10 | 6:40.34 | 31960 | 61993
4 | 13:46.44 | 2:38.37 | 61994 | 73880
5 | 16:25.06 | 6:03.37 | 73881 | 101142
6 | 22:28.43 | 3:28.31 | 101143 | 116773
7 | 25:56.74 | 4:54.59 | 116774 | 138882
8 | 30:51.58 | 7:42.54 | 138883 | 173586
9 | 38:34.37 | 2:31.39 | 173587 | 184950


Характеристики диапазона извлечения и сообщения об ошибках

Выбранный диапазон

Имя файла D:\Erroll Garner - The Complete Concert By The Sea (2015)\CD 2\Erroll Garner - The Complete Concert by the Sea- Recorded Live in Carmel, California (September 19, 1955).wav

Пиковый уровень 96.5 %
Скорость извлечения 3.0 X
Качество диапазона 100.0 %
CRC теста A1F10109
CRC копии A1F10109
Копирование… OK

Ошибок не произошло


AccurateRip: сводка

Трек 1 : извлечено точно (доверие 14) [344EEDEA] (AR v2)
Трек 2 : извлечено точно (доверие 14) [70B7486E] (AR v2)
Трек 3 : извлечено точно (доверие 14) [E4AADB9D] (AR v2)
Трек 4 : извлечено точно (доверие 14) [A7854DA3] (AR v2)
Трек 5 : извлечено точно (доверие 14) [044B7DAD] (AR v2)
Трек 6 : извлечено точно (доверие 14) [39680296] (AR v2)
Трек 7 : извлечено точно (доверие 14) [D2EB797C] (AR v2)
Трек 8 : извлечено точно (доверие 14) [ED2EE223] (AR v2)
Трек 9 : извлечено точно (доверие 14) [069B15FF] (AR v2)

Все треки извлечены точно

Конец отчёта

==== Контрольная сумма отчёта 7850A31435A23B62E10AFBBB8232367AB3BC581D47C6F0BA7A82B887DF746C0A ====

foobar2000 1.2 / Dynamic Range Meter 1.1.1
log date: 2016-01-28 23:13:14

––––––––––––––––––––––––––––––––––––––––
Analyzed: Erroll Garner / The Complete Concert by the Sea: Recorded Live in Carmel, California (Septemb…
––––––––––––––––––––––––––––––––––––––––

DR Peak RMS Duration Track
––––––––––––––––––––––––––––––––––––––––
DR14 -0.56 dB -19.53 dB 2:47 01-Announcer: Jimmy Lyons
DR10 -0.39 dB -13.48 dB 4:19 02-They Can’t Take That Away From Me
DR11 -0.32 dB -15.64 dB 6:40 03-Autumn Leaves
DR9 -0.40 dB -11.59 dB 2:38 04-S’Wonderful
DR11 -0.31 dB -15.75 dB 6:03 05-Laura
DR11 -0.40 dB -14.10 dB 3:28 06-Red Top
DR12 -1.07 dB -17.39 dB 4:55 07-April in Paris
DR10 -0.34 dB -12.40 dB 7:43 08-Caravan
DR13 -0.39 dB -17.03 dB 2:32 09-Erroll’s Theme / Announcer: Jimmy Lyons
––––––––––––––––––––––––––––––––––––––––

Number of tracks: 9
Official DR value: DR11

Samplerate: 44100 Hz
Channels: 2
Bits per sample: 16
Bitrate: 367 kbps
Codec: FLAC
================================================================================


Exact Audio Copy V1.0 beta 6 from 9. April 2015

Отчёт EAC об извлечении, выполненном 28. января 2016, 13:27

Erroll Garner / The Complete Concert by the Sea: Recorded Live in Carmel, California (September 19, 1955)

Дисковод: ASUS DRW-24F1ST a Adapter: 1 ID: 0

Режим чтения : Достоверность
Использование точного потока : Да
Отключение кэша аудио : Да
Использование указателей C2 : Нет

Коррекция смещения при чтении : 6
Способность читать области Lead-in и Lead-out : Нет
Заполнение пропущенных сэмплов тишиной : Да
Удаление блоков с тишиной в начале и конце : Нет
При вычислениях CRC использовались нулевые сэмплы : Да
Интерфейс : Встроенный Win32-интерфейс для Win NT/2000

Выходной формат : Пользовательский кодировщик
Выбранный битрейт : 768 kBit/s
Качество : Высокий
Добавление ID3-тега : Нет
Утилита сжатия : C:\Program Files (x86)\Exact Audio Copy\FLAC\FLAC.EXE
Дополнительные параметры : -6 -V -T "ARTIST=%artist%" -T "TITLE=%title%" -T "ALBUM=%albumtitle%" -T "DATE=%year%" -T "TRACKNUMBER=%tracknr%" -T "GENRE=%genre%" -T "COMMENT=%comment%" -T "BAND=%albuminterpret%" -T "ALBUMARTIST=%albuminterpret%" -T "COMPOSER=%composer%" %haslyrics%–tag-from-file=LYRICS="%lyricsfile%"%haslyrics% -T "DISCNUMBER=%cdnumber%" -T "TOTALDISCS=%totalcds%" -T "TOTALTRACKS=%numtracks%" %hascover%–picture="%coverfile%"%hascover% %source% -o %dest%


TOC извлечённого CD

Трек | Старт | Длительность | Начальный сектор | Конечный сектор
––––––––––––––––––––––––––––––––––-
1 | 0:00.00 | 4:22.72 | 0 | 19721
2 | 4:22.72 | 3:42.55 | 19722 | 36426
3 | 8:05.52 | 3:53.39 | 36427 | 53940
4 | 11:59.16 | 6:32.54 | 53941 | 83394
5 | 18:31.70 | 3:31.29 | 83395 | 99248
6 | 22:03.24 | 3:22.72 | 99249 | 114470
7 | 25:26.21 | 4:55.53 | 114471 | 136648
8 | 30:21.74 | 4:15.35 | 136649 | 155808
9 | 34:37.34 | 4:13.44 | 155809 | 174827
10 | 38:51.03 | 3:11.08 | 174828 | 189160
11 | 42:02.11 | 1:50.73 | 189161 | 197483
12 | 43:53.09 | 14:08.48 | 197484 | 261131


Характеристики диапазона извлечения и сообщения об ошибках

Выбранный диапазон

Имя файла D:\Erroll Garner - The Complete Concert By The Sea (2015)\CD 3\Erroll Garner - The Complete Concert by the Sea- Recorded Live in Carmel, California (September 19, 1955).wav

Пиковый уровень 99.2 %
Скорость извлечения 3.2 X
Качество диапазона 100.0 %
CRC теста D02A17BD
CRC копии D02A17BD
Копирование… OK

Ошибок не произошло


AccurateRip: сводка

Трек 1 : извлечено точно (доверие 14) [3A21BD15] (AR v2)
Трек 2 : извлечено точно (доверие 14) [B4D5AECB] (AR v2)
Трек 3 : извлечено точно (доверие 14) [F2EF4A83] (AR v2)
Трек 4 : извлечено точно (доверие 14) [FAF09209] (AR v2)
Трек 5 : извлечено точно (доверие 14) [7FBE4926] (AR v2)
Трек 6 : извлечено точно (доверие 14) [B3A35667] (AR v2)
Трек 7 : извлечено точно (доверие 14) [C79D18CB] (AR v2)
Трек 8 : извлечено точно (доверие 14) [2B811B64] (AR v2)
Трек 9 : извлечено точно (доверие 14) [61D7F46B] (AR v2)
Трек 10 : извлечено точно (доверие 14) [63470889] (AR v2)
Трек 11 : извлечено точно (доверие 14) [E090CA44] (AR v2)
Трек 12 : извлечено точно (доверие 14) [BFBE0360] (AR v2)

Все треки извлечены точно

Конец отчёта

==== Контрольная сумма отчёта 3C4C9A654CC6371931C7EA964AB472822ADBB402090ADBF14D114B1178CFA4B5 ====

foobar2000 1.2 / Dynamic Range Meter 1.1.1
log date: 2016-01-28 23:13:28

––––––––––––––––––––––––––––––––––––––––
Analyzed: Erroll Garner / The Complete Concert by the Sea: Recorded Live in Carmel, California (Septemb…
––––––––––––––––––––––––––––––––––––––––

DR Peak RMS Duration Track
––––––––––––––––––––––––––––––––––––––––
DR10 -0.06 dB -13.40 dB 4:23 01-I’ll Remember April
DR9 -0.38 dB -13.07 dB 3:43 02-Teach Me Tonight
DR11 -0.41 dB -13.86 dB 3:54 03-Mambo Carmel
DR10 -0.39 dB -15.63 dB 6:33 04-Autumn Leaves
DR9 -0.26 dB -11.65 dB 3:31 05-It’s All Right With Me
DR11 -0.39 dB -13.98 dB 3:23 06-Red Top
DR12 -1.07 dB -17.47 dB 4:56 07-April in Paris
DR10 -0.39 dB -13.46 dB 4:15 08-They Can’t Take That Away From Me
DR10 -0.33 dB -14.23 dB 4:14 09-How Could You Do a Thing Like That to Me
DR9 -0.39 dB -10.99 dB 3:11 10-Where or When
DR11 -0.98 dB -16.42 dB 1:51 11-Erroll’s Theme
DR14 -0.26 dB -18.36 dB 14:09 12-Post Concert Interview: Will Thornbury With Erroll Garner, Eddie Calhoun, Den…
––––––––––––––––––––––––––––––––––––––––

Number of tracks: 12
Official DR value: DR11

Samplerate: 44100 Hz
Channels: 2
Bits per sample: 16
Bitrate: 367 kbps
Codec: FLAC
================================================================================

Erroll Garner - The Complete Concert By The Sea (1955) 60th Anniversary 3 CD Box Set 2015 [Re-Up]