Subcategories

Etta James - The Absolutely Essential (3CD, 2017)

Posted By: ciklon5
Etta James - The Absolutely Essential (3CD, 2017)

Etta James - The Absolutely Essential (3CD, 2017)
FLAC (tracks+cue,log) | 2:40:45 | 812 Mb
Genre: Jazz, Soul / Label: Big 3

Etta James, The Absolutely Essential 3 CD Collection, R&B, Soul, Pop-R&B, Pop-Soul, MOR-R&B, MOR-Soul.

Track List:
CD 1
01. At Last
02. Woman
03. Dance With Me Henry
04. Good Rockin' Daddy
05. Crazy Feeling
06. Hey Henry
07. Be Mine
08. That's All
09. My One And Only
10. I'm A Fool
11. Shortnin' Bread Rock
12. Tears Of Joy
13. Tough Lover
14. Fools We Mortals Be
15. Good Lookin'
16. Then I'll Care
17. The Pick Up
18. Market Place
19. Come What May
20. I Hope You're Satisfied (Feat. Harvey Fuqua)

CD 2
01. I Just Want To Make Love To You
02. All I Could Do Was Cry
03. Don't Cry Baby
04. Baby Baby Every Night
05. How Big A Fool
06. If I Can't Have You (Feat. Harvey Fuqua)
07. Spoonful (Feat. Harvey Fuqua)
08. Girl Of My Dreams
09. My Dearest Darling
10. Tough Mary
11. Anything To Say You're Mine
12. Strange Things Happening
13. Stormy Weather
14. Fool That I Am
15. Dream
16. A Sunday Kind Of Love
17. It's Too Soon To Know
18. One For My Baby And One More For The Road
19. In My Diary
20. I'll Dry My Eyes

CD 3
01. Trust In Me
02. Something's Got A Hold On Me
03. Seven Day Fool
04. Plum Nuts
05. Don't Get Around Much Anymore
06. Waiting For Charlie To Come Home
07. Guess Again
08. A Lover's Mourn
09. You Can Count On Me
10. My Dear
11. Nobody But You
12. Let Me Know
13. How Do You Speak To An Angel
14. Fools Rush In
15. Next Door To The Blues
16. Don't Blame Me
17. I Want To Be Loved But Only By You
18. These Foolish Things
19. Prisoner Of Love
20. Would It Make Any Difference To You

Exact Audio Copy V1.3 from 2. September 2016

EAC extraction logfile from 14. January 2019, 18:05

Etta James / The Absolutely Essential 3 CD Collection

Used drive : PLEXTOR PX-891SAF Adapter: 1 ID: 0

Read mode : Secure
Utilize accurate stream : Yes
Defeat audio cache : Yes
Make use of C2 pointers : No

Read offset correction : 6
Overread into Lead-In and Lead-Out : No
Fill up missing offset samples with silence : Yes
Delete leading and trailing silent blocks : No
Null samples used in CRC calculations : Yes
Used interface : Native Win32 interface for Win NT & 2000
Gap handling : Appended to previous track

Used output format : User Defined Encoder
Selected bitrate : 1024 kBit/s
Quality : High
Add ID3 tag : No
Command line compressor : C:\Program Files (x86)\Exact Audio Copy\Flac\flac.exe
Additional command line options : -8 -V -T "ARTIST=%artist%" -T "TITLE=%title%" -T "ALBUM=%albumtitle%" -T "DATE=%year%" -T "TRACKNUMBER=%tracknr%" -T "GENRE=%genre%" -T "PERFORMER=%albuminterpret%" -T "COMPOSER=%composer%" %haslyrics%–tag-from-file=LYRICS="%lyricsfile%"%haslyrics% -T "ALBUMARTIST=%albumartist%" -T "DISCNUMBER=%cdnumber%" -T "TOTALDISCS=%totalcds%" -T "TOTALTRACKS=%numtracks%" -T "COMMENT=%comment%" %source% -o %dest%


TOC of the extracted CD

Track | Start | Length | Start sector | End sector
––––––––––––––––––––––––––––-
1 | 0:00.00 | 3:02.25 | 0 | 13674
2 | 3:02.25 | 2:45.16 | 13675 | 26065
3 | 5:47.41 | 3:02.11 | 26066 | 39726
4 | 8:49.52 | 2:23.53 | 39727 | 50504
5 | 11:13.30 | 3:18.69 | 50505 | 65423
6 | 14:32.24 | 2:52.41 | 65424 | 78364
7 | 17:24.65 | 2:45.67 | 78365 | 90806
8 | 20:10.57 | 2:14.42 | 90807 | 100898
9 | 22:25.24 | 2:27.02 | 100899 | 111925
10 | 24:52.26 | 2:33.13 | 111926 | 123413
11 | 27:25.39 | 2:34.53 | 123414 | 135016
12 | 30:00.17 | 2:32.00 | 135017 | 146416
13 | 32:32.17 | 2:11.40 | 146417 | 156281
14 | 34:43.57 | 2:23.54 | 156282 | 167060
15 | 37:07.36 | 2:11.38 | 167061 | 176923
16 | 39:18.74 | 2:35.12 | 176924 | 188560
17 | 41:54.11 | 2:21.40 | 188561 | 199175
18 | 44:15.51 | 2:37.70 | 199176 | 211020
19 | 46:53.46 | 2:04.41 | 211021 | 220361
20 | 48:58.12 | 3:00.41 | 220362 | 233902


Track 1

Filename D:\#New Wav + flac\Etta James - The Aboslutely Essential 3CD Collection\cd 1\01. Etta James - At Last.wav

Pre-gap length 0:00:02.00

Peak level 100.0 %
Extraction speed 4.9 X
Track quality 100.0 %
Test CRC C1BA0A27
Copy CRC C1BA0A27
Accurately ripped (confidence 2) [36B25643] (AR v2)
Copy OK

Track 2

Filename D:\#New Wav + flac\Etta James - The Aboslutely Essential 3CD Collection\cd 1\02. Etta James - W-O-M-A-N.wav

Pre-gap length 0:00:01.33

Peak level 100.0 %
Extraction speed 5.2 X
Track quality 100.0 %
Test CRC CBDC5CCF
Copy CRC CBDC5CCF
Accurately ripped (confidence 2) [9E026C83] (AR v2)
Copy OK

Track 3

Filename D:\#New Wav + flac\Etta James - The Aboslutely Essential 3CD Collection\cd 1\03. Etta James - Dance With Me, Henry (‘the Wallflower’).wav

Pre-gap length 0:00:01.33

Peak level 100.0 %
Extraction speed 5.7 X
Track quality 100.0 %
Test CRC 1ED00F2D
Copy CRC 1ED00F2D
Accurately ripped (confidence 2) [BFB754FB] (AR v2)
Copy OK

Track 4

Filename D:\#New Wav + flac\Etta James - The Aboslutely Essential 3CD Collection\cd 1\04. Etta James - Good Rockin’ Daddy.wav

Pre-gap length 0:00:01.33

Peak level 100.0 %
Extraction speed 5.8 X
Track quality 100.0 %
Test CRC DDE9A368
Copy CRC DDE9A368
Accurately ripped (confidence 2) [91589E52] (AR v2)
Copy OK

Track 5

Filename D:\#New Wav + flac\Etta James - The Aboslutely Essential 3CD Collection\cd 1\05. Etta James - Crazy Feeling.wav

Pre-gap length 0:00:01.33

Peak level 100.0 %
Extraction speed 6.4 X
Track quality 100.0 %
Test CRC 86C5B96A
Copy CRC 86C5B96A
Accurately ripped (confidence 2) [0B5308FC] (AR v2)
Copy OK

Track 6

Filename D:\#New Wav + flac\Etta James - The Aboslutely Essential 3CD Collection\cd 1\06. Etta James - Hey, Henry (Doin’ Fine, Henry).wav

Pre-gap length 0:00:02.84

Peak level 100.0 %
Extraction speed 6.5 X
Track quality 100.0 %
Test CRC 08EBB533
Copy CRC 08EBB533
Accurately ripped (confidence 2) [727A41D1] (AR v2)
Copy OK

Track 7

Filename D:\#New Wav + flac\Etta James - The Aboslutely Essential 3CD Collection\cd 1\07. Etta James - Be Mine.wav

Pre-gap length 0:00:01.33

Peak level 100.0 %
Extraction speed 6.7 X
Track quality 100.0 %
Test CRC 3A95B07F
Copy CRC 3A95B07F
Accurately ripped (confidence 2) [675F5523] (AR v2)
Copy OK

Track 8

Filename D:\#New Wav + flac\Etta James - The Aboslutely Essential 3CD Collection\cd 1\08. Etta James - That’s All.wav

Pre-gap length 0:00:02.18

Peak level 100.0 %
Extraction speed 6.6 X
Track quality 100.0 %
Test CRC 8F58C7DA
Copy CRC 8F58C7DA
Accurately ripped (confidence 2) [AA023563] (AR v2)
Copy OK

Track 9

Filename D:\#New Wav + flac\Etta James - The Aboslutely Essential 3CD Collection\cd 1\09. Etta James - My One and Only (Number One).wav

Pre-gap length 0:00:01.86

Peak level 99.3 %
Extraction speed 5.4 X
Track quality 99.9 %
Test CRC 740D830C
Copy CRC 740D830C
Accurately ripped (confidence 2) [2F8BBC85] (AR v2)
Copy OK

Track 10

Filename D:\#New Wav + flac\Etta James - The Aboslutely Essential 3CD Collection\cd 1\10. Etta James - I’m a Fool.wav

Pre-gap length 0:00:02.18

Peak level 100.0 %
Extraction speed 7.2 X
Track quality 100.0 %
Test CRC B596A3FC
Copy CRC B596A3FC
Accurately ripped (confidence 2) [28A69786] (AR v2)
Copy OK

Track 11

Filename D:\#New Wav + flac\Etta James - The Aboslutely Essential 3CD Collection\cd 1\11. Etta James - Shortnin’ Bread Rock.wav

Pre-gap length 0:00:03.48

Peak level 99.6 %
Extraction speed 5.9 X
Track quality 99.9 %
Test CRC 1B58A04C
Copy CRC 1B58A04C
Accurately ripped (confidence 2) [5CE63DD9] (AR v2)
Copy OK

Track 12

Filename D:\#New Wav + flac\Etta James - The Aboslutely Essential 3CD Collection\cd 1\12. Etta James - Tears of Joy.wav

Pre-gap length 0:00:02.25

Peak level 100.0 %
Extraction speed 8.0 X
Track quality 100.0 %
Test CRC 32DAD01E
Copy CRC 32DAD01E
Accurately ripped (confidence 2) [5FAD2629] (AR v2)
Copy OK

Track 13

Filename D:\#New Wav + flac\Etta James - The Aboslutely Essential 3CD Collection\cd 1\13. Etta James - Tough Lover.wav

Pre-gap length 0:00:03.17

Peak level 100.0 %
Extraction speed 7.9 X
Track quality 100.0 %
Test CRC 1C6993E2
Copy CRC 1C6993E2
Accurately ripped (confidence 2) [D30CAC44] (AR v2)
Copy OK

Track 14

Filename D:\#New Wav + flac\Etta James - The Aboslutely Essential 3CD Collection\cd 1\14. Etta James - Fools We Mortals Be.wav

Pre-gap length 0:00:02.00

Peak level 100.0 %
Extraction speed 6.1 X
Track quality 99.9 %
Test CRC 085B1AE2
Copy CRC 085B1AE2
Accurately ripped (confidence 2) [C95AB7A7] (AR v2)
Copy OK

Track 15

Filename D:\#New Wav + flac\Etta James - The Aboslutely Essential 3CD Collection\cd 1\15. Etta James - Good Lookin’.wav

Pre-gap length 0:00:01.69

Peak level 100.0 %
Extraction speed 8.1 X
Track quality 100.0 %
Test CRC 7157BAA5
Copy CRC 7157BAA5
Accurately ripped (confidence 2) [0885E099] (AR v2)
Copy OK

Track 16

Filename D:\#New Wav + flac\Etta James - The Aboslutely Essential 3CD Collection\cd 1\16. Etta James - Then I’ll Care.wav

Pre-gap length 0:00:02.89

Peak level 100.0 %
Extraction speed 8.3 X
Track quality 100.0 %
Test CRC 8900E3A4
Copy CRC 8900E3A4
Accurately ripped (confidence 2) [B334CA9A] (AR v2)
Copy OK

Track 17

Filename D:\#New Wav + flac\Etta James - The Aboslutely Essential 3CD Collection\cd 1\17. Etta James - The Pick Up.wav

Pre-gap length 0:00:02.56

Peak level 100.0 %
Extraction speed 8.3 X
Track quality 100.0 %
Test CRC 1D3401A9
Copy CRC 1D3401A9
Accurately ripped (confidence 2) [B3195257] (AR v2)
Copy OK

Track 18

Filename D:\#New Wav + flac\Etta James - The Aboslutely Essential 3CD Collection\cd 1\18. Etta James - Market Place.wav

Pre-gap length 0:00:03.33

Peak level 88.4 %
Extraction speed 8.7 X
Track quality 100.0 %
Test CRC 8694AF6A
Copy CRC 8694AF6A
Accurately ripped (confidence 2) [8DA1EB4D] (AR v2)
Copy OK

Track 19

Filename D:\#New Wav + flac\Etta James - The Aboslutely Essential 3CD Collection\cd 1\19. Etta James - Come What May.wav

Pre-gap length 0:00:02.16

Peak level 92.0 %
Extraction speed 8.4 X
Track quality 100.0 %
Test CRC 57CA2835
Copy CRC 57CA2835
Accurately ripped (confidence 2) [C768A6D5] (AR v2)
Copy OK

Track 20

Filename D:\#New Wav + flac\Etta James - The Aboslutely Essential 3CD Collection\cd 1\20. Etta James with Harvey Fuqua - I Hope You’re Satisfied.wav

Pre-gap length 0:00:01.33

Peak level 89.7 %
Extraction speed 9.1 X
Track quality 100.0 %
Test CRC A0CA2B05
Copy CRC A0CA2B05
Accurately ripped (confidence 2) [EFBF7437] (AR v2)
Copy OK


All tracks accurately ripped

No errors occurred

End of status report

–– CUETools DB Plugin V2.1.6

[CTDB TOCID: rCaUftlXmEdVKD0O9qlwGN04Z5Q-] found
Submit result: rCaUftlXmEdVKD0O9qlwGN04Z5Q- has been confirmed
Track | CTDB Status
1 | (4/4) Accurately ripped
2 | (4/4) Accurately ripped
3 | (4/4) Accurately ripped
4 | (4/4) Accurately ripped
5 | (4/4) Accurately ripped
6 | (4/4) Accurately ripped
7 | (4/4) Accurately ripped
8 | (4/4) Accurately ripped
9 | (4/4) Accurately ripped
10 | (4/4) Accurately ripped
11 | (4/4) Accurately ripped
12 | (4/4) Accurately ripped
13 | (4/4) Accurately ripped
14 | (4/4) Accurately ripped
15 | (4/4) Accurately ripped
16 | (4/4) Accurately ripped
17 | (4/4) Accurately ripped
18 | (4/4) Accurately ripped
19 | (4/4) Accurately ripped
20 | (4/4) Accurately ripped


==== Log checksum E9C243A155ED19E9F1F13063D4191A77438873E5FA6923093D849C54536C2D70 ====

––––––––––––––––––––––––––––––

Exact Audio Copy V1.3 from 2. September 2016

EAC extraction logfile from 14. January 2019, 18:05

Etta James / The Absolutely Essential 3 CD Collection

Used drive : PLEXTOR PX-891SAF Adapter: 1 ID: 0

Read mode : Secure
Utilize accurate stream : Yes
Defeat audio cache : Yes
Make use of C2 pointers : No

Read offset correction : 6
Overread into Lead-In and Lead-Out : No
Fill up missing offset samples with silence : Yes
Delete leading and trailing silent blocks : No
Null samples used in CRC calculations : Yes
Used interface : Native Win32 interface for Win NT & 2000
Gap handling : Appended to previous track

Used output format : User Defined Encoder
Selected bitrate : 1024 kBit/s
Quality : High
Add ID3 tag : No
Command line compressor : C:\Program Files (x86)\Exact Audio Copy\Flac\flac.exe
Additional command line options : -8 -V -T "ARTIST=%artist%" -T "TITLE=%title%" -T "ALBUM=%albumtitle%" -T "DATE=%year%" -T "TRACKNUMBER=%tracknr%" -T "GENRE=%genre%" -T "PERFORMER=%albuminterpret%" -T "COMPOSER=%composer%" %haslyrics%–tag-from-file=LYRICS="%lyricsfile%"%haslyrics% -T "ALBUMARTIST=%albumartist%" -T "DISCNUMBER=%cdnumber%" -T "TOTALDISCS=%totalcds%" -T "TOTALTRACKS=%numtracks%" -T "COMMENT=%comment%" %source% -o %dest%


TOC of the extracted CD

Track | Start | Length | Start sector | End sector
––––––––––––––––––––––––––––-
1 | 0:00.00 | 3:02.25 | 0 | 13674
2 | 3:02.25 | 2:45.16 | 13675 | 26065
3 | 5:47.41 | 3:02.11 | 26066 | 39726
4 | 8:49.52 | 2:23.53 | 39727 | 50504
5 | 11:13.30 | 3:18.69 | 50505 | 65423
6 | 14:32.24 | 2:52.41 | 65424 | 78364
7 | 17:24.65 | 2:45.67 | 78365 | 90806
8 | 20:10.57 | 2:14.42 | 90807 | 100898
9 | 22:25.24 | 2:27.02 | 100899 | 111925
10 | 24:52.26 | 2:33.13 | 111926 | 123413
11 | 27:25.39 | 2:34.53 | 123414 | 135016
12 | 30:00.17 | 2:32.00 | 135017 | 146416
13 | 32:32.17 | 2:11.40 | 146417 | 156281
14 | 34:43.57 | 2:23.54 | 156282 | 167060
15 | 37:07.36 | 2:11.38 | 167061 | 176923
16 | 39:18.74 | 2:35.12 | 176924 | 188560
17 | 41:54.11 | 2:21.40 | 188561 | 199175
18 | 44:15.51 | 2:37.70 | 199176 | 211020
19 | 46:53.46 | 2:04.41 | 211021 | 220361
20 | 48:58.12 | 3:00.41 | 220362 | 233902


Track 1

Filename D:\#New Wav + flac\Etta James - The Aboslutely Essential 3CD Collection\cd 1\01. Etta James - At Last.wav

Pre-gap length 0:00:02.00

Peak level 100.0 %
Extraction speed 4.9 X
Track quality 100.0 %
Test CRC C1BA0A27
Copy CRC C1BA0A27
Accurately ripped (confidence 2) [36B25643] (AR v2)
Copy OK

Track 2

Filename D:\#New Wav + flac\Etta James - The Aboslutely Essential 3CD Collection\cd 1\02. Etta James - W-O-M-A-N.wav

Pre-gap length 0:00:01.33

Peak level 100.0 %
Extraction speed 5.2 X
Track quality 100.0 %
Test CRC CBDC5CCF
Copy CRC CBDC5CCF
Accurately ripped (confidence 2) [9E026C83] (AR v2)
Copy OK

Track 3

Filename D:\#New Wav + flac\Etta James - The Aboslutely Essential 3CD Collection\cd 1\03. Etta James - Dance With Me, Henry (‘the Wallflower’).wav

Pre-gap length 0:00:01.33

Peak level 100.0 %
Extraction speed 5.7 X
Track quality 100.0 %
Test CRC 1ED00F2D
Copy CRC 1ED00F2D
Accurately ripped (confidence 2) [BFB754FB] (AR v2)
Copy OK

Track 4

Filename D:\#New Wav + flac\Etta James - The Aboslutely Essential 3CD Collection\cd 1\04. Etta James - Good Rockin’ Daddy.wav

Pre-gap length 0:00:01.33

Peak level 100.0 %
Extraction speed 5.8 X
Track quality 100.0 %
Test CRC DDE9A368
Copy CRC DDE9A368
Accurately ripped (confidence 2) [91589E52] (AR v2)
Copy OK

Track 5

Filename D:\#New Wav + flac\Etta James - The Aboslutely Essential 3CD Collection\cd 1\05. Etta James - Crazy Feeling.wav

Pre-gap length 0:00:01.33

Peak level 100.0 %
Extraction speed 6.4 X
Track quality 100.0 %
Test CRC 86C5B96A
Copy CRC 86C5B96A
Accurately ripped (confidence 2) [0B5308FC] (AR v2)
Copy OK

Track 6

Filename D:\#New Wav + flac\Etta James - The Aboslutely Essential 3CD Collection\cd 1\06. Etta James - Hey, Henry (Doin’ Fine, Henry).wav

Pre-gap length 0:00:02.84

Peak level 100.0 %
Extraction speed 6.5 X
Track quality 100.0 %
Test CRC 08EBB533
Copy CRC 08EBB533
Accurately ripped (confidence 2) [727A41D1] (AR v2)
Copy OK

Track 7

Filename D:\#New Wav + flac\Etta James - The Aboslutely Essential 3CD Collection\cd 1\07. Etta James - Be Mine.wav

Pre-gap length 0:00:01.33

Peak level 100.0 %
Extraction speed 6.7 X
Track quality 100.0 %
Test CRC 3A95B07F
Copy CRC 3A95B07F
Accurately ripped (confidence 2) [675F5523] (AR v2)
Copy OK

Track 8

Filename D:\#New Wav + flac\Etta James - The Aboslutely Essential 3CD Collection\cd 1\08. Etta James - That’s All.wav

Pre-gap length 0:00:02.18

Peak level 100.0 %
Extraction speed 6.6 X
Track quality 100.0 %
Test CRC 8F58C7DA
Copy CRC 8F58C7DA
Accurately ripped (confidence 2) [AA023563] (AR v2)
Copy OK

Track 9

Filename D:\#New Wav + flac\Etta James - The Aboslutely Essential 3CD Collection\cd 1\09. Etta James - My One and Only (Number One).wav

Pre-gap length 0:00:01.86

Peak level 99.3 %
Extraction speed 5.4 X
Track quality 99.9 %
Test CRC 740D830C
Copy CRC 740D830C
Accurately ripped (confidence 2) [2F8BBC85] (AR v2)
Copy OK

Track 10

Filename D:\#New Wav + flac\Etta James - The Aboslutely Essential 3CD Collection\cd 1\10. Etta James - I’m a Fool.wav

Pre-gap length 0:00:02.18

Peak level 100.0 %
Extraction speed 7.2 X
Track quality 100.0 %
Test CRC B596A3FC
Copy CRC B596A3FC
Accurately ripped (confidence 2) [28A69786] (AR v2)
Copy OK

Track 11

Filename D:\#New Wav + flac\Etta James - The Aboslutely Essential 3CD Collection\cd 1\11. Etta James - Shortnin’ Bread Rock.wav

Pre-gap length 0:00:03.48

Peak level 99.6 %
Extraction speed 5.9 X
Track quality 99.9 %
Test CRC 1B58A04C
Copy CRC 1B58A04C
Accurately ripped (confidence 2) [5CE63DD9] (AR v2)
Copy OK

Track 12

Filename D:\#New Wav + flac\Etta James - The Aboslutely Essential 3CD Collection\cd 1\12. Etta James - Tears of Joy.wav

Pre-gap length 0:00:02.25

Peak level 100.0 %
Extraction speed 8.0 X
Track quality 100.0 %
Test CRC 32DAD01E
Copy CRC 32DAD01E
Accurately ripped (confidence 2) [5FAD2629] (AR v2)
Copy OK

Track 13

Filename D:\#New Wav + flac\Etta James - The Aboslutely Essential 3CD Collection\cd 1\13. Etta James - Tough Lover.wav

Pre-gap length 0:00:03.17

Peak level 100.0 %
Extraction speed 7.9 X
Track quality 100.0 %
Test CRC 1C6993E2
Copy CRC 1C6993E2
Accurately ripped (confidence 2) [D30CAC44] (AR v2)
Copy OK

Track 14

Filename D:\#New Wav + flac\Etta James - The Aboslutely Essential 3CD Collection\cd 1\14. Etta James - Fools We Mortals Be.wav

Pre-gap length 0:00:02.00

Peak level 100.0 %
Extraction speed 6.1 X
Track quality 99.9 %
Test CRC 085B1AE2
Copy CRC 085B1AE2
Accurately ripped (confidence 2) [C95AB7A7] (AR v2)
Copy OK

Track 15

Filename D:\#New Wav + flac\Etta James - The Aboslutely Essential 3CD Collection\cd 1\15. Etta James - Good Lookin’.wav

Pre-gap length 0:00:01.69

Peak level 100.0 %
Extraction speed 8.1 X
Track quality 100.0 %
Test CRC 7157BAA5
Copy CRC 7157BAA5
Accurately ripped (confidence 2) [0885E099] (AR v2)
Copy OK

Track 16

Filename D:\#New Wav + flac\Etta James - The Aboslutely Essential 3CD Collection\cd 1\16. Etta James - Then I’ll Care.wav

Pre-gap length 0:00:02.89

Peak level 100.0 %
Extraction speed 8.3 X
Track quality 100.0 %
Test CRC 8900E3A4
Copy CRC 8900E3A4
Accurately ripped (confidence 2) [B334CA9A] (AR v2)
Copy OK

Track 17

Filename D:\#New Wav + flac\Etta James - The Aboslutely Essential 3CD Collection\cd 1\17. Etta James - The Pick Up.wav

Pre-gap length 0:00:02.56

Peak level 100.0 %
Extraction speed 8.3 X
Track quality 100.0 %
Test CRC 1D3401A9
Copy CRC 1D3401A9
Accurately ripped (confidence 2) [B3195257] (AR v2)
Copy OK

Track 18

Filename D:\#New Wav + flac\Etta James - The Aboslutely Essential 3CD Collection\cd 1\18. Etta James - Market Place.wav

Pre-gap length 0:00:03.33

Peak level 88.4 %
Extraction speed 8.7 X
Track quality 100.0 %
Test CRC 8694AF6A
Copy CRC 8694AF6A
Accurately ripped (confidence 2) [8DA1EB4D] (AR v2)
Copy OK

Track 19

Filename D:\#New Wav + flac\Etta James - The Aboslutely Essential 3CD Collection\cd 1\19. Etta James - Come What May.wav

Pre-gap length 0:00:02.16

Peak level 92.0 %
Extraction speed 8.4 X
Track quality 100.0 %
Test CRC 57CA2835
Copy CRC 57CA2835
Accurately ripped (confidence 2) [C768A6D5] (AR v2)
Copy OK

Track 20

Filename D:\#New Wav + flac\Etta James - The Aboslutely Essential 3CD Collection\cd 1\20. Etta James with Harvey Fuqua - I Hope You’re Satisfied.wav

Pre-gap length 0:00:01.33

Peak level 89.7 %
Extraction speed 9.1 X
Track quality 100.0 %
Test CRC A0CA2B05
Copy CRC A0CA2B05
Accurately ripped (confidence 2) [EFBF7437] (AR v2)
Copy OK


All tracks accurately ripped

No errors occurred

End of status report

–– CUETools DB Plugin V2.1.6

[CTDB TOCID: rCaUftlXmEdVKD0O9qlwGN04Z5Q-] found
Submit result: rCaUftlXmEdVKD0O9qlwGN04Z5Q- has been confirmed
Track | CTDB Status
1 | (4/4) Accurately ripped
2 | (4/4) Accurately ripped
3 | (4/4) Accurately ripped
4 | (4/4) Accurately ripped
5 | (4/4) Accurately ripped
6 | (4/4) Accurately ripped
7 | (4/4) Accurately ripped
8 | (4/4) Accurately ripped
9 | (4/4) Accurately ripped
10 | (4/4) Accurately ripped
11 | (4/4) Accurately ripped
12 | (4/4) Accurately ripped
13 | (4/4) Accurately ripped
14 | (4/4) Accurately ripped
15 | (4/4) Accurately ripped
16 | (4/4) Accurately ripped
17 | (4/4) Accurately ripped
18 | (4/4) Accurately ripped
19 | (4/4) Accurately ripped
20 | (4/4) Accurately ripped


==== Log checksum E9C243A155ED19E9F1F13063D4191A77438873E5FA6923093D849C54536C2D70 ====

Exact Audio Copy V1.3 from 2. September 2016

EAC extraction logfile from 14. January 2019, 18:24

Etta James / The Absolutely Essential 3 CD Collection

Used drive : PLEXTOR PX-891SAF Adapter: 1 ID: 0

Read mode : Secure
Utilize accurate stream : Yes
Defeat audio cache : Yes
Make use of C2 pointers : No

Read offset correction : 6
Overread into Lead-In and Lead-Out : No
Fill up missing offset samples with silence : Yes
Delete leading and trailing silent blocks : No
Null samples used in CRC calculations : Yes
Used interface : Native Win32 interface for Win NT & 2000
Gap handling : Appended to previous track

Used output format : User Defined Encoder
Selected bitrate : 1024 kBit/s
Quality : High
Add ID3 tag : No
Command line compressor : C:\Program Files (x86)\Exact Audio Copy\Flac\flac.exe
Additional command line options : -8 -V -T "ARTIST=%artist%" -T "TITLE=%title%" -T "ALBUM=%albumtitle%" -T "DATE=%year%" -T "TRACKNUMBER=%tracknr%" -T "GENRE=%genre%" -T "PERFORMER=%albuminterpret%" -T "COMPOSER=%composer%" %haslyrics%–tag-from-file=LYRICS="%lyricsfile%"%haslyrics% -T "ALBUMARTIST=%albumartist%" -T "DISCNUMBER=%cdnumber%" -T "TOTALDISCS=%totalcds%" -T "TOTALTRACKS=%numtracks%" -T "COMMENT=%comment%" %source% -o %dest%


TOC of the extracted CD

Track | Start | Length | Start sector | End sector
––––––––––––––––––––––––––––-
1 | 0:00.00 | 3:04.07 | 0 | 13806
2 | 3:04.07 | 2:56.08 | 13807 | 27014
3 | 6:00.15 | 2:20.58 | 27015 | 37572
4 | 8:20.73 | 2:25.67 | 37573 | 48514
5 | 10:46.65 | 2:43.41 | 48515 | 60780
6 | 13:30.31 | 2:56.50 | 60781 | 74030
7 | 16:27.06 | 2:48.49 | 74031 | 86679
8 | 19:15.55 | 2:21.59 | 86680 | 97313
9 | 21:37.39 | 3:00.02 | 97314 | 110815
10 | 24:37.41 | 2:23.21 | 110816 | 121561
11 | 27:00.62 | 2:35.46 | 121562 | 133232
12 | 29:36.33 | 2:32.54 | 133233 | 144686
13 | 32:09.12 | 3:08.08 | 144687 | 158794
14 | 35:17.20 | 2:56.67 | 158795 | 172061
15 | 38:14.12 | 2:25.57 | 172062 | 182993
16 | 40:39.69 | 3:16.14 | 182994 | 197707
17 | 43:56.08 | 2:47.31 | 197708 | 210263
18 | 46:43.39 | 3:21.52 | 210264 | 225390
19 | 50:05.16 | 2:34.03 | 225391 | 236943
20 | 52:39.19 | 2:35.33 | 236944 | 248601


Track 1

Filename D:\#New Wav + flac\Etta James - The Aboslutely Essential 3CD Collection\cd 2\01. Etta James - I Just Want to Make Love to You.wav

Pre-gap length 0:00:02.00

Peak level 100.0 %
Extraction speed 4.9 X
Track quality 100.0 %
Test CRC FA1151DA
Copy CRC FA1151DA
Accurately ripped (confidence 2) [D68E70D7] (AR v2)
Copy OK

Track 2

Filename D:\#New Wav + flac\Etta James - The Aboslutely Essential 3CD Collection\cd 2\02. Etta James - All I Could Do Was Cry.wav

Pre-gap length 0:00:01.60

Peak level 100.0 %
Extraction speed 5.3 X
Track quality 100.0 %
Test CRC 5E216B86
Copy CRC 5E216B86
Accurately ripped (confidence 2) [923C96C7] (AR v2)
Copy OK

Track 3

Filename D:\#New Wav + flac\Etta James - The Aboslutely Essential 3CD Collection\cd 2\03. Etta James - Don’t Cry, Baby.wav

Pre-gap length 0:00:01.78

Peak level 100.0 %
Extraction speed 4.0 X
Track quality 99.9 %
Test CRC 5204192B
Copy CRC 5204192B
Accurately ripped (confidence 2) [64152313] (AR v2)
Copy OK

Track 4

Filename D:\#New Wav + flac\Etta James - The Aboslutely Essential 3CD Collection\cd 2\04. Etta James - Baby, Baby, Every Night.wav

Pre-gap length 0:00:01.92

Peak level 100.0 %
Extraction speed 5.8 X
Track quality 100.0 %
Test CRC 6F9C2503
Copy CRC 6F9C2503
Accurately ripped (confidence 2) [515E34A1] (AR v2)
Copy OK

Track 5

Filename D:\#New Wav + flac\Etta James - The Aboslutely Essential 3CD Collection\cd 2\05. Etta James - How Big a Fool.wav

Pre-gap length 0:00:02.56

Peak level 100.0 %
Extraction speed 6.2 X
Track quality 100.0 %
Test CRC 221DC723
Copy CRC 221DC723
Accurately ripped (confidence 2) [A7A1831B] (AR v2)
Copy OK

Track 6

Filename D:\#New Wav + flac\Etta James - The Aboslutely Essential 3CD Collection\cd 2\06. Etta James with Harvey Fuqua - If I Can’t Have You.wav

Pre-gap length 0:00:01.60

Peak level 100.0 %
Extraction speed 6.4 X
Track quality 100.0 %
Test CRC 1C22B833
Copy CRC 1C22B833
Accurately ripped (confidence 2) [94433C07] (AR v2)
Copy OK

Track 7

Filename D:\#New Wav + flac\Etta James - The Aboslutely Essential 3CD Collection\cd 2\07. Etta James with Harvey Fuqua - Spoonful.wav

Pre-gap length 0:00:01.60

Peak level 100.0 %
Extraction speed 5.2 X
Track quality 99.9 %
Test CRC 4A29C65A
Copy CRC 4A29C65A
Accurately ripped (confidence 2) [BB01F515] (AR v2)
Copy OK

Track 8

Filename D:\#New Wav + flac\Etta James - The Aboslutely Essential 3CD Collection\cd 2\08. Etta James - Girl of My Dreams (Rendered as ‘Boy of My Dreams’).wav

Pre-gap length 0:00:01.86

Peak level 100.0 %
Extraction speed 6.6 X
Track quality 100.0 %
Test CRC CB004706
Copy CRC CB004706
Accurately ripped (confidence 2) [D937700B] (AR v2)
Copy OK

Track 9

Filename D:\#New Wav + flac\Etta James - The Aboslutely Essential 3CD Collection\cd 2\09. Etta James - My Dearest Darling.wav

Pre-gap length 0:00:01.60

Peak level 100.0 %
Extraction speed 7.1 X
Track quality 100.0 %
Test CRC 37D97096
Copy CRC 37D97096
Accurately ripped (confidence 2) [CB2E857A] (AR v2)
Copy OK

Track 10

Filename D:\#New Wav + flac\Etta James - The Aboslutely Essential 3CD Collection\cd 2\10. Etta James - Tough Mary.wav

Pre-gap length 0:00:01.60

Peak level 100.0 %
Extraction speed 7.1 X
Track quality 100.0 %
Test CRC E09B9E96
Copy CRC E09B9E96
Accurately ripped (confidence 2) [09191D3B] (AR v2)
Copy OK

Track 11

Filename D:\#New Wav + flac\Etta James - The Aboslutely Essential 3CD Collection\cd 2\11. Etta James - Anything to Say You’re Mine.wav

Pre-gap length 0:00:02.38

Peak level 100.0 %
Extraction speed 7.4 X
Track quality 100.0 %
Test CRC 9336D925
Copy CRC 9336D925
Accurately ripped (confidence 2) [AFE57903] (AR v2)
Copy OK

Track 12

Filename D:\#New Wav + flac\Etta James - The Aboslutely Essential 3CD Collection\cd 2\12. Etta James - Strange Things Happening.wav

Pre-gap length 0:00:01.92

Peak level 85.4 %
Extraction speed 6.1 X
Track quality 99.9 %
Test CRC 91D986B8
Copy CRC 91D986B8
Accurately ripped (confidence 2) [AA99BE4F] (AR v2)
Copy OK

Track 13

Filename D:\#New Wav + flac\Etta James - The Aboslutely Essential 3CD Collection\cd 2\13. Etta James - Stormy Weather.wav

Pre-gap length 0:00:02.57

Peak level 100.0 %
Extraction speed 8.1 X
Track quality 100.0 %
Test CRC 75248C20
Copy CRC 75248C20
Accurately ripped (confidence 2) [5C2E2294] (AR v2)
Copy OK

Track 14

Filename D:\#New Wav + flac\Etta James - The Aboslutely Essential 3CD Collection\cd 2\14. Etta James - Fool That I Am.wav

Pre-gap length 0:00:01.60

Peak level 100.0 %
Extraction speed 8.3 X
Track quality 100.0 %
Test CRC A100F126
Copy CRC A100F126
Accurately ripped (confidence 2) [FDF666F5] (AR v2)
Copy OK

Track 15

Filename D:\#New Wav + flac\Etta James - The Aboslutely Essential 3CD Collection\cd 2\15. Etta James - Dream.wav

Pre-gap length 0:00:01.60

Peak level 100.0 %
Extraction speed 6.1 X
Track quality 99.9 %
Test CRC C9449433
Copy CRC C9449433
Accurately ripped (confidence 2) [7A662334] (AR v2)
Copy OK

Track 16

Filename D:\#New Wav + flac\Etta James - The Aboslutely Essential 3CD Collection\cd 2\16. Etta James - A Sunday Kind of Love.wav

Pre-gap length 0:00:01.60

Peak level 95.9 %
Extraction speed 6.9 X
Track quality 99.9 %
Test CRC 03445A1E
Copy CRC 03445A1E
Accurately ripped (confidence 2) [0CAF1433] (AR v2)
Copy OK

Track 17

Filename D:\#New Wav + flac\Etta James - The Aboslutely Essential 3CD Collection\cd 2\17. Etta James - It’s Too Soon to Know.wav

Pre-gap length 0:00:02.13

Peak level 100.0 %
Extraction speed 8.8 X
Track quality 100.0 %
Test CRC 7D876E8A
Copy CRC 7D876E8A
Accurately ripped (confidence 2) [85952AE3] (AR v2)
Copy OK

Track 18

Filename D:\#New Wav + flac\Etta James - The Aboslutely Essential 3CD Collection\cd 2\18. Etta James - One for My Baby (and One More for the Road).wav

Pre-gap length 0:00:01.60

Peak level 100.0 %
Extraction speed 9.6 X
Track quality 100.0 %
Test CRC 82C9CA4F
Copy CRC 82C9CA4F
Accurately ripped (confidence 2) [076BE597] (AR v2)
Copy OK

Track 19

Filename D:\#New Wav + flac\Etta James - The Aboslutely Essential 3CD Collection\cd 2\19. Etta James - In My Diary.wav

Pre-gap length 0:00:01.60

Peak level 100.0 %
Extraction speed 7.0 X
Track quality 99.9 %
Test CRC 32B40C3D
Copy CRC 32B40C3D
Accurately ripped (confidence 2) [5E9CF50F] (AR v2)
Copy OK

Track 20

Filename D:\#New Wav + flac\Etta James - The Aboslutely Essential 3CD Collection\cd 2\20. Etta James - I’ll Dry My Eyes.wav

Pre-gap length 0:00:01.60

Peak level 100.0 %
Extraction speed 9.4 X
Track quality 100.0 %
Test CRC F2710A8A
Copy CRC F2710A8A
Accurately ripped (confidence 2) [E6737DA4] (AR v2)
Copy OK


All tracks accurately ripped

No errors occurred

End of status report

–– CUETools DB Plugin V2.1.6

[CTDB TOCID: zcAoqRUc.dZKFo1qRBHADhWu7e8-] found
Submit result: zcAoqRUc.dZKFo1qRBHADhWu7e8- has been confirmed
Track | CTDB Status
1 | (4/4) Accurately ripped
2 | (4/4) Accurately ripped
3 | (4/4) Accurately ripped
4 | (4/4) Accurately ripped
5 | (4/4) Accurately ripped
6 | (4/4) Accurately ripped
7 | (4/4) Accurately ripped
8 | (4/4) Accurately ripped
9 | (4/4) Accurately ripped
10 | (4/4) Accurately ripped
11 | (4/4) Accurately ripped
12 | (4/4) Accurately ripped
13 | (4/4) Accurately ripped
14 | (4/4) Accurately ripped
15 | (4/4) Accurately ripped
16 | (4/4) Accurately ripped
17 | (4/4) Accurately ripped
18 | (4/4) Accurately ripped
19 | (4/4) Accurately ripped
20 | (4/4) Accurately ripped


==== Log checksum 26D266CB24DBFB00A93C21B784326A3A52D41632298DAC2A7510D914BEE53912 ====

––––––––––––––––––––––––––––––

Exact Audio Copy V1.3 from 2. September 2016

EAC extraction logfile from 14. January 2019, 18:24

Etta James / The Absolutely Essential 3 CD Collection

Used drive : PLEXTOR PX-891SAF Adapter: 1 ID: 0

Read mode : Secure
Utilize accurate stream : Yes
Defeat audio cache : Yes
Make use of C2 pointers : No

Read offset correction : 6
Overread into Lead-In and Lead-Out : No
Fill up missing offset samples with silence : Yes
Delete leading and trailing silent blocks : No
Null samples used in CRC calculations : Yes
Used interface : Native Win32 interface for Win NT & 2000
Gap handling : Appended to previous track

Used output format : User Defined Encoder
Selected bitrate : 1024 kBit/s
Quality : High
Add ID3 tag : No
Command line compressor : C:\Program Files (x86)\Exact Audio Copy\Flac\flac.exe
Additional command line options : -8 -V -T "ARTIST=%artist%" -T "TITLE=%title%" -T "ALBUM=%albumtitle%" -T "DATE=%year%" -T "TRACKNUMBER=%tracknr%" -T "GENRE=%genre%" -T "PERFORMER=%albuminterpret%" -T "COMPOSER=%composer%" %haslyrics%–tag-from-file=LYRICS="%lyricsfile%"%haslyrics% -T "ALBUMARTIST=%albumartist%" -T "DISCNUMBER=%cdnumber%" -T "TOTALDISCS=%totalcds%" -T "TOTALTRACKS=%numtracks%" -T "COMMENT=%comment%" %source% -o %dest%


TOC of the extracted CD

Track | Start | Length | Start sector | End sector
––––––––––––––––––––––––––––-
1 | 0:00.00 | 3:04.07 | 0 | 13806
2 | 3:04.07 | 2:56.08 | 13807 | 27014
3 | 6:00.15 | 2:20.58 | 27015 | 37572
4 | 8:20.73 | 2:25.67 | 37573 | 48514
5 | 10:46.65 | 2:43.41 | 48515 | 60780
6 | 13:30.31 | 2:56.50 | 60781 | 74030
7 | 16:27.06 | 2:48.49 | 74031 | 86679
8 | 19:15.55 | 2:21.59 | 86680 | 97313
9 | 21:37.39 | 3:00.02 | 97314 | 110815
10 | 24:37.41 | 2:23.21 | 110816 | 121561
11 | 27:00.62 | 2:35.46 | 121562 | 133232
12 | 29:36.33 | 2:32.54 | 133233 | 144686
13 | 32:09.12 | 3:08.08 | 144687 | 158794
14 | 35:17.20 | 2:56.67 | 158795 | 172061
15 | 38:14.12 | 2:25.57 | 172062 | 182993
16 | 40:39.69 | 3:16.14 | 182994 | 197707
17 | 43:56.08 | 2:47.31 | 197708 | 210263
18 | 46:43.39 | 3:21.52 | 210264 | 225390
19 | 50:05.16 | 2:34.03 | 225391 | 236943
20 | 52:39.19 | 2:35.33 | 236944 | 248601


Track 1

Filename D:\#New Wav + flac\Etta James - The Aboslutely Essential 3CD Collection\cd 2\01. Etta James - I Just Want to Make Love to You.wav

Pre-gap length 0:00:02.00

Peak level 100.0 %
Extraction speed 4.9 X
Track quality 100.0 %
Test CRC FA1151DA
Copy CRC FA1151DA
Accurately ripped (confidence 2) [D68E70D7] (AR v2)
Copy OK

Track 2

Filename D:\#New Wav + flac\Etta James - The Aboslutely Essential 3CD Collection\cd 2\02. Etta James - All I Could Do Was Cry.wav

Pre-gap length 0:00:01.60

Peak level 100.0 %
Extraction speed 5.3 X
Track quality 100.0 %
Test CRC 5E216B86
Copy CRC 5E216B86
Accurately ripped (confidence 2) [923C96C7] (AR v2)
Copy OK

Track 3

Filename D:\#New Wav + flac\Etta James - The Aboslutely Essential 3CD Collection\cd 2\03. Etta James - Don’t Cry, Baby.wav

Pre-gap length 0:00:01.78

Peak level 100.0 %
Extraction speed 4.0 X
Track quality 99.9 %
Test CRC 5204192B
Copy CRC 5204192B
Accurately ripped (confidence 2) [64152313] (AR v2)
Copy OK

Track 4

Filename D:\#New Wav + flac\Etta James - The Aboslutely Essential 3CD Collection\cd 2\04. Etta James - Baby, Baby, Every Night.wav

Pre-gap length 0:00:01.92

Peak level 100.0 %
Extraction speed 5.8 X
Track quality 100.0 %
Test CRC 6F9C2503
Copy CRC 6F9C2503
Accurately ripped (confidence 2) [515E34A1] (AR v2)
Copy OK

Track 5

Filename D:\#New Wav + flac\Etta James - The Aboslutely Essential 3CD Collection\cd 2\05. Etta James - How Big a Fool.wav

Pre-gap length 0:00:02.56

Peak level 100.0 %
Extraction speed 6.2 X
Track quality 100.0 %
Test CRC 221DC723
Copy CRC 221DC723
Accurately ripped (confidence 2) [A7A1831B] (AR v2)
Copy OK

Track 6

Filename D:\#New Wav + flac\Etta James - The Aboslutely Essential 3CD Collection\cd 2\06. Etta James with Harvey Fuqua - If I Can’t Have You.wav

Pre-gap length 0:00:01.60

Peak level 100.0 %
Extraction speed 6.4 X
Track quality 100.0 %
Test CRC 1C22B833
Copy CRC 1C22B833
Accurately ripped (confidence 2) [94433C07] (AR v2)
Copy OK

Track 7

Filename D:\#New Wav + flac\Etta James - The Aboslutely Essential 3CD Collection\cd 2\07. Etta James with Harvey Fuqua - Spoonful.wav

Pre-gap length 0:00:01.60

Peak level 100.0 %
Extraction speed 5.2 X
Track quality 99.9 %
Test CRC 4A29C65A
Copy CRC 4A29C65A
Accurately ripped (confidence 2) [BB01F515] (AR v2)
Copy OK

Track 8

Filename D:\#New Wav + flac\Etta James - The Aboslutely Essential 3CD Collection\cd 2\08. Etta James - Girl of My Dreams (Rendered as ‘Boy of My Dreams’).wav

Pre-gap length 0:00:01.86

Peak level 100.0 %
Extraction speed 6.6 X
Track quality 100.0 %
Test CRC CB004706
Copy CRC CB004706
Accurately ripped (confidence 2) [D937700B] (AR v2)
Copy OK

Track 9

Filename D:\#New Wav + flac\Etta James - The Aboslutely Essential 3CD Collection\cd 2\09. Etta James - My Dearest Darling.wav

Pre-gap length 0:00:01.60

Peak level 100.0 %
Extraction speed 7.1 X
Track quality 100.0 %
Test CRC 37D97096
Copy CRC 37D97096
Accurately ripped (confidence 2) [CB2E857A] (AR v2)
Copy OK

Track 10

Filename D:\#New Wav + flac\Etta James - The Aboslutely Essential 3CD Collection\cd 2\10. Etta James - Tough Mary.wav

Pre-gap length 0:00:01.60

Peak level 100.0 %
Extraction speed 7.1 X
Track quality 100.0 %
Test CRC E09B9E96
Copy CRC E09B9E96
Accurately ripped (confidence 2) [09191D3B] (AR v2)
Copy OK

Track 11

Filename D:\#New Wav + flac\Etta James - The Aboslutely Essential 3CD Collection\cd 2\11. Etta James - Anything to Say You’re Mine.wav

Pre-gap length 0:00:02.38

Peak level 100.0 %
Extraction speed 7.4 X
Track quality 100.0 %
Test CRC 9336D925
Copy CRC 9336D925
Accurately ripped (confidence 2) [AFE57903] (AR v2)
Copy OK

Track 12

Filename D:\#New Wav + flac\Etta James - The Aboslutely Essential 3CD Collection\cd 2\12. Etta James - Strange Things Happening.wav

Pre-gap length 0:00:01.92

Peak level 85.4 %
Extraction speed 6.1 X
Track quality 99.9 %
Test CRC 91D986B8
Copy CRC 91D986B8
Accurately ripped (confidence 2) [AA99BE4F] (AR v2)
Copy OK

Track 13

Filename D:\#New Wav + flac\Etta James - The Aboslutely Essential 3CD Collection\cd 2\13. Etta James - Stormy Weather.wav

Pre-gap length 0:00:02.57

Peak level 100.0 %
Extraction speed 8.1 X
Track quality 100.0 %
Test CRC 75248C20
Copy CRC 75248C20
Accurately ripped (confidence 2) [5C2E2294] (AR v2)
Copy OK

Track 14

Filename D:\#New Wav + flac\Etta James - The Aboslutely Essential 3CD Collection\cd 2\14. Etta James - Fool That I Am.wav

Pre-gap length 0:00:01.60

Peak level 100.0 %
Extraction speed 8.3 X
Track quality 100.0 %
Test CRC A100F126
Copy CRC A100F126
Accurately ripped (confidence 2) [FDF666F5] (AR v2)
Copy OK

Track 15

Filename D:\#New Wav + flac\Etta James - The Aboslutely Essential 3CD Collection\cd 2\15. Etta James - Dream.wav

Pre-gap length 0:00:01.60

Peak level 100.0 %
Extraction speed 6.1 X
Track quality 99.9 %
Test CRC C9449433
Copy CRC C9449433
Accurately ripped (confidence 2) [7A662334] (AR v2)
Copy OK

Track 16

Filename D:\#New Wav + flac\Etta James - The Aboslutely Essential 3CD Collection\cd 2\16. Etta James - A Sunday Kind of Love.wav

Pre-gap length 0:00:01.60

Peak level 95.9 %
Extraction speed 6.9 X
Track quality 99.9 %
Test CRC 03445A1E
Copy CRC 03445A1E
Accurately ripped (confidence 2) [0CAF1433] (AR v2)
Copy OK

Track 17

Filename D:\#New Wav + flac\Etta James - The Aboslutely Essential 3CD Collection\cd 2\17. Etta James - It’s Too Soon to Know.wav

Pre-gap length 0:00:02.13

Peak level 100.0 %
Extraction speed 8.8 X
Track quality 100.0 %
Test CRC 7D876E8A
Copy CRC 7D876E8A
Accurately ripped (confidence 2) [85952AE3] (AR v2)
Copy OK

Track 18

Filename D:\#New Wav + flac\Etta James - The Aboslutely Essential 3CD Collection\cd 2\18. Etta James - One for My Baby (and One More for the Road).wav

Pre-gap length 0:00:01.60

Peak level 100.0 %
Extraction speed 9.6 X
Track quality 100.0 %
Test CRC 82C9CA4F
Copy CRC 82C9CA4F
Accurately ripped (confidence 2) [076BE597] (AR v2)
Copy OK

Track 19

Filename D:\#New Wav + flac\Etta James - The Aboslutely Essential 3CD Collection\cd 2\19. Etta James - In My Diary.wav

Pre-gap length 0:00:01.60

Peak level 100.0 %
Extraction speed 7.0 X
Track quality 99.9 %
Test CRC 32B40C3D
Copy CRC 32B40C3D
Accurately ripped (confidence 2) [5E9CF50F] (AR v2)
Copy OK

Track 20

Filename D:\#New Wav + flac\Etta James - The Aboslutely Essential 3CD Collection\cd 2\20. Etta James - I’ll Dry My Eyes.wav

Pre-gap length 0:00:01.60

Peak level 100.0 %
Extraction speed 9.4 X
Track quality 100.0 %
Test CRC F2710A8A
Copy CRC F2710A8A
Accurately ripped (confidence 2) [E6737DA4] (AR v2)
Copy OK


All tracks accurately ripped

No errors occurred

End of status report

–– CUETools DB Plugin V2.1.6

[CTDB TOCID: zcAoqRUc.dZKFo1qRBHADhWu7e8-] found
Submit result: zcAoqRUc.dZKFo1qRBHADhWu7e8- has been confirmed
Track | CTDB Status
1 | (4/4) Accurately ripped
2 | (4/4) Accurately ripped
3 | (4/4) Accurately ripped
4 | (4/4) Accurately ripped
5 | (4/4) Accurately ripped
6 | (4/4) Accurately ripped
7 | (4/4) Accurately ripped
8 | (4/4) Accurately ripped
9 | (4/4) Accurately ripped
10 | (4/4) Accurately ripped
11 | (4/4) Accurately ripped
12 | (4/4) Accurately ripped
13 | (4/4) Accurately ripped
14 | (4/4) Accurately ripped
15 | (4/4) Accurately ripped
16 | (4/4) Accurately ripped
17 | (4/4) Accurately ripped
18 | (4/4) Accurately ripped
19 | (4/4) Accurately ripped
20 | (4/4) Accurately ripped


==== Log checksum 26D266CB24DBFB00A93C21B784326A3A52D41632298DAC2A7510D914BEE53912 ====

Exact Audio Copy V1.3 from 2. September 2016

EAC extraction logfile from 14. January 2019, 18:42

Etta James / The Absolutely Essential 3 CD Collection

Used drive : PLEXTOR PX-891SAF Adapter: 1 ID: 0

Read mode : Secure
Utilize accurate stream : Yes
Defeat audio cache : Yes
Make use of C2 pointers : No

Read offset correction : 6
Overread into Lead-In and Lead-Out : No
Fill up missing offset samples with silence : Yes
Delete leading and trailing silent blocks : No
Null samples used in CRC calculations : Yes
Used interface : Native Win32 interface for Win NT & 2000
Gap handling : Appended to previous track

Used output format : User Defined Encoder
Selected bitrate : 1024 kBit/s
Quality : High
Add ID3 tag : No
Command line compressor : C:\Program Files (x86)\Exact Audio Copy\Flac\flac.exe
Additional command line options : -8 -V -T "ARTIST=%artist%" -T "TITLE=%title%" -T "ALBUM=%albumtitle%" -T "DATE=%year%" -T "TRACKNUMBER=%tracknr%" -T "GENRE=%genre%" -T "PERFORMER=%albuminterpret%" -T "COMPOSER=%composer%" %haslyrics%–tag-from-file=LYRICS="%lyricsfile%"%haslyrics% -T "ALBUMARTIST=%albumartist%" -T "DISCNUMBER=%cdnumber%" -T "TOTALDISCS=%totalcds%" -T "TOTALTRACKS=%numtracks%" -T "COMMENT=%comment%" %source% -o %dest%


TOC of the extracted CD

Track | Start | Length | Start sector | End sector
––––––––––––––––––––––––––––-
1 | 0:00.00 | 3:10.39 | 0 | 14288
2 | 3:10.39 | 2:46.45 | 14289 | 26783
3 | 5:57.09 | 2:56.02 | 26784 | 39985
4 | 8:53.11 | 3:00.01 | 39986 | 53486
5 | 11:53.12 | 2:25.14 | 53487 | 64375
6 | 14:18.26 | 2:06.34 | 64376 | 73859
7 | 16:24.60 | 2:14.41 | 73860 | 83950
8 | 18:39.26 | 2:22.43 | 83951 | 94643
9 | 21:01.69 | 2:34.24 | 94644 | 106217
10 | 23:36.18 | 2:34.53 | 106218 | 117820
11 | 26:10.71 | 2:22.04 | 117821 | 128474
12 | 28:33.00 | 3:04.24 | 128475 | 142298
13 | 31:37.24 | 2:34.04 | 142299 | 153852
14 | 34:11.28 | 1:59.33 | 153853 | 162810
15 | 36:10.61 | 2:46.51 | 162811 | 175311
16 | 38:57.37 | 2:22.20 | 175312 | 185981
17 | 41:19.57 | 3:20.19 | 185982 | 201000
18 | 44:40.01 | 3:57.12 | 201001 | 218787
19 | 48:37.13 | 2:13.36 | 218788 | 228798
20 | 50:50.49 | 2:37.10 | 228799 | 240583


Track 1

Filename D:\#New Wav + flac\Etta James - The Aboslutely Essential 3CD Collection\cd 3\01. Etta James - Trust in Me.wav

Pre-gap length 0:00:02.00

Peak level 100.0 %
Extraction speed 4.9 X
Track quality 100.0 %
Test CRC D14D31F9
Copy CRC D14D31F9
Accurately ripped (confidence 2) [D40971FC] (AR v2)
Copy OK

Track 2

Filename D:\#New Wav + flac\Etta James - The Aboslutely Essential 3CD Collection\cd 3\02. Etta James - Something’s Got a Hold on Me.wav

Pre-gap length 0:00:01.66

Peak level 100.0 %
Extraction speed 5.1 X
Track quality 100.0 %
Test CRC 276ABE07
Copy CRC 276ABE07
Accurately ripped (confidence 2) [0405CE60] (AR v2)
Copy OK

Track 3

Filename D:\#New Wav + flac\Etta James - The Aboslutely Essential 3CD Collection\cd 3\03. Etta James - Seven Day Fool.wav

Pre-gap length 0:00:01.66

Peak level 100.0 %
Extraction speed 5.5 X
Track quality 100.0 %
Test CRC C8EB03C9
Copy CRC C8EB03C9
Accurately ripped (confidence 2) [ABFDD260] (AR v2)
Copy OK

Track 4

Filename D:\#New Wav + flac\Etta James - The Aboslutely Essential 3CD Collection\cd 3\04. Etta James - Plum Nuts.wav

Pre-gap length 0:00:01.66

Peak level 100.0 %
Extraction speed 6.0 X
Track quality 100.0 %
Test CRC 55F84B85
Copy CRC 55F84B85
Accurately ripped (confidence 2) [99189223] (AR v2)
Copy OK

Track 5

Filename D:\#New Wav + flac\Etta James - The Aboslutely Essential 3CD Collection\cd 3\05. Etta James - Don’t Get Around Much Anymore.wav

Pre-gap length 0:00:02.40

Peak level 100.0 %
Extraction speed 6.2 X
Track quality 100.0 %
Test CRC 3EF67FEC
Copy CRC 3EF67FEC
Accurately ripped (confidence 2) [B2F240FC] (AR v2)
Copy OK

Track 6

Filename D:\#New Wav + flac\Etta James - The Aboslutely Essential 3CD Collection\cd 3\06. Etta James - Waiting for Charlie to Come Home.wav

Pre-gap length 0:00:01.66

Peak level 100.0 %
Extraction speed 6.1 X
Track quality 100.0 %
Test CRC 2DA4EF89
Copy CRC 2DA4EF89
Accurately ripped (confidence 2) [6AC522D8] (AR v2)
Copy OK

Track 7

Filename D:\#New Wav + flac\Etta James - The Aboslutely Essential 3CD Collection\cd 3\07. Etta James - Guess Again.wav

Pre-gap length 0:00:02.06

Peak level 100.0 %
Extraction speed 6.3 X
Track quality 100.0 %
Test CRC 25D6866A
Copy CRC 25D6866A
Accurately ripped (confidence 2) [B1CD91B6] (AR v2)
Copy OK

Track 8

Filename D:\#New Wav + flac\Etta James - The Aboslutely Essential 3CD Collection\cd 3\08. Etta James - A Lover’s Mourn.wav

Pre-gap length 0:00:01.66

Peak level 100.0 %
Extraction speed 6.8 X
Track quality 100.0 %
Test CRC 0C1D198C
Copy CRC 0C1D198C
Accurately ripped (confidence 2) [B06FD9A5] (AR v2)
Copy OK

Track 9

Filename D:\#New Wav + flac\Etta James - The Aboslutely Essential 3CD Collection\cd 3\09. Etta James - You Can Count on Me.wav

Pre-gap length 0:00:01.66

Peak level 100.0 %
Extraction speed 7.1 X
Track quality 100.0 %
Test CRC 96761DE2
Copy CRC 96761DE2
Accurately ripped (confidence 2) [41E09995] (AR v2)
Copy OK

Track 10

Filename D:\#New Wav + flac\Etta James - The Aboslutely Essential 3CD Collection\cd 3\10. Etta James - My Dear.wav

Pre-gap length 0:00:01.66

Peak level 100.0 %
Extraction speed 5.6 X
Track quality 99.9 %
Test CRC 87861652
Copy CRC 87861652
Accurately ripped (confidence 2) [426D90DE] (AR v2)
Copy OK

Track 11

Filename D:\#New Wav + flac\Etta James - The Aboslutely Essential 3CD Collection\cd 3\11. Etta James - Nobody but You.wav

Pre-gap length 0:00:01.66

Peak level 100.0 %
Extraction speed 5.5 X
Track quality 99.9 %
Test CRC AA979145
Copy CRC AA979145
Accurately ripped (confidence 2) [C9E41DDE] (AR v2)
Copy OK

Track 12

Filename D:\#New Wav + flac\Etta James - The Aboslutely Essential 3CD Collection\cd 3\12. Etta James - Let Me Know.wav

Pre-gap length 0:00:01.66

Peak level 100.0 %
Extraction speed 8.1 X
Track quality 100.0 %
Test CRC F13FF06D
Copy CRC F13FF06D
Accurately ripped (confidence 2) [BAEAA0C5] (AR v2)
Copy OK

Track 13

Filename D:\#New Wav + flac\Etta James - The Aboslutely Essential 3CD Collection\cd 3\13. Etta James - How Do You Speak to an Angel.wav

Pre-gap length 0:00:01.66

Peak level 100.0 %
Extraction speed 6.0 X
Track quality 99.9 %
Test CRC B634B431
Copy CRC B634B431
Accurately ripped (confidence 2) [DB940491] (AR v2)
Copy OK

Track 14

Filename D:\#New Wav + flac\Etta James - The Aboslutely Essential 3CD Collection\cd 3\14. Etta James - Fools Rush In.wav

Pre-gap length 0:00:01.66

Peak level 100.0 %
Extraction speed 7.6 X
Track quality 100.0 %
Test CRC 6FE48BD7
Copy CRC 6FE48BD7
Accurately ripped (confidence 2) [D17BE742] (AR v2)
Copy OK

Track 15

Filename D:\#New Wav + flac\Etta James - The Aboslutely Essential 3CD Collection\cd 3\15. Etta James - Next Door to the Blues.wav

Pre-gap length 0:00:02.06

Peak level 99.4 %
Extraction speed 8.0 X
Track quality 100.0 %
Test CRC 945ECE6C
Copy CRC 945ECE6C
Accurately ripped (confidence 2) [CE97CA71] (AR v2)
Copy OK

Track 16

Filename D:\#New Wav + flac\Etta James - The Aboslutely Essential 3CD Collection\cd 3\16. Etta James - Don’t Blame Me.wav

Pre-gap length 0:00:01.66

Peak level 100.0 %
Extraction speed 8.2 X
Track quality 100.0 %
Test CRC AD649A2E
Copy CRC AD649A2E
Accurately ripped (confidence 2) [071D1DB5] (AR v2)
Copy OK

Track 17

Filename D:\#New Wav + flac\Etta James - The Aboslutely Essential 3CD Collection\cd 3\17. Etta James - I Want to Be Loved (but Only by You).wav

Pre-gap length 0:00:02.05

Peak level 100.0 %
Extraction speed 9.1 X
Track quality 100.0 %
Test CRC B340E978
Copy CRC B340E978
Accurately ripped (confidence 2) [ECEE916D] (AR v2)
Copy OK

Track 18

Filename D:\#New Wav + flac\Etta James - The Aboslutely Essential 3CD Collection\cd 3\18. Etta James - These Foolish Things.wav

Pre-gap length 0:00:01.66

Peak level 100.0 %
Extraction speed 9.3 X
Track quality 100.0 %
Test CRC 0D90219D
Copy CRC 0D90219D
Accurately ripped (confidence 2) [1B1BAE1B] (AR v2)
Copy OK

Track 19

Filename D:\#New Wav + flac\Etta James - The Aboslutely Essential 3CD Collection\cd 3\19. Etta James - Prisoner of Love.wav

Pre-gap length 0:00:02.42

Peak level 100.0 %
Extraction speed 8.5 X
Track quality 100.0 %
Test CRC 429FCF76
Copy CRC 429FCF76
Accurately ripped (confidence 2) [C6B732A6] (AR v2)
Copy OK

Track 20

Filename D:\#New Wav + flac\Etta James - The Aboslutely Essential 3CD Collection\cd 3\20. Etta James - Would It Make Any Difference to You.wav

Pre-gap length 0:00:01.66

Peak level 100.0 %
Extraction speed 9.0 X
Track quality 100.0 %
Test CRC 49441D83
Copy CRC 49441D83
Accurately ripped (confidence 2) [E6FF8FB0] (AR v2)
Copy OK


All tracks accurately ripped

No errors occurred

End of status report

–– CUETools DB Plugin V2.1.6

[CTDB TOCID: M86MI11nsl_RqAfkrWBVw4EgfEM-] found
Submit result: M86MI11nsl_RqAfkrWBVw4EgfEM- has been confirmed
Track | CTDB Status
1 | (4/4) Accurately ripped
2 | (4/4) Accurately ripped
3 | (4/4) Accurately ripped
4 | (4/4) Accurately ripped
5 | (4/4) Accurately ripped
6 | (4/4) Accurately ripped
7 | (4/4) Accurately ripped
8 | (4/4) Accurately ripped
9 | (4/4) Accurately ripped
10 | (4/4) Accurately ripped
11 | (4/4) Accurately ripped
12 | (4/4) Accurately ripped
13 | (4/4) Accurately ripped
14 | (4/4) Accurately ripped
15 | (4/4) Accurately ripped
16 | (4/4) Accurately ripped
17 | (4/4) Accurately ripped
18 | (4/4) Accurately ripped
19 | (4/4) Accurately ripped
20 | (4/4) Accurately ripped


==== Log checksum D6D30A4A861072CB1FFAE0B71B1B46D87EB9E9C323DED5A29D4D3ED7DE0A60EB ====

––––––––––––––––––––––––––––––

Exact Audio Copy V1.3 from 2. September 2016

EAC extraction logfile from 14. January 2019, 18:42

Etta James / The Absolutely Essential 3 CD Collection

Used drive : PLEXTOR PX-891SAF Adapter: 1 ID: 0

Read mode : Secure
Utilize accurate stream : Yes
Defeat audio cache : Yes
Make use of C2 pointers : No

Read offset correction : 6
Overread into Lead-In and Lead-Out : No
Fill up missing offset samples with silence : Yes
Delete leading and trailing silent blocks : No
Null samples used in CRC calculations : Yes
Used interface : Native Win32 interface for Win NT & 2000
Gap handling : Appended to previous track

Used output format : User Defined Encoder
Selected bitrate : 1024 kBit/s
Quality : High
Add ID3 tag : No
Command line compressor : C:\Program Files (x86)\Exact Audio Copy\Flac\flac.exe
Additional command line options : -8 -V -T "ARTIST=%artist%" -T "TITLE=%title%" -T "ALBUM=%albumtitle%" -T "DATE=%year%" -T "TRACKNUMBER=%tracknr%" -T "GENRE=%genre%" -T "PERFORMER=%albuminterpret%" -T "COMPOSER=%composer%" %haslyrics%–tag-from-file=LYRICS="%lyricsfile%"%haslyrics% -T "ALBUMARTIST=%albumartist%" -T "DISCNUMBER=%cdnumber%" -T "TOTALDISCS=%totalcds%" -T "TOTALTRACKS=%numtracks%" -T "COMMENT=%comment%" %source% -o %dest%


TOC of the extracted CD

Track | Start | Length | Start sector | End sector
––––––––––––––––––––––––––––-
1 | 0:00.00 | 3:10.39 | 0 | 14288
2 | 3:10.39 | 2:46.45 | 14289 | 26783
3 | 5:57.09 | 2:56.02 | 26784 | 39985
4 | 8:53.11 | 3:00.01 | 39986 | 53486
5 | 11:53.12 | 2:25.14 | 53487 | 64375
6 | 14:18.26 | 2:06.34 | 64376 | 73859
7 | 16:24.60 | 2:14.41 | 73860 | 83950
8 | 18:39.26 | 2:22.43 | 83951 | 94643
9 | 21:01.69 | 2:34.24 | 94644 | 106217
10 | 23:36.18 | 2:34.53 | 106218 | 117820
11 | 26:10.71 | 2:22.04 | 117821 | 128474
12 | 28:33.00 | 3:04.24 | 128475 | 142298
13 | 31:37.24 | 2:34.04 | 142299 | 153852
14 | 34:11.28 | 1:59.33 | 153853 | 162810
15 | 36:10.61 | 2:46.51 | 162811 | 175311
16 | 38:57.37 | 2:22.20 | 175312 | 185981
17 | 41:19.57 | 3:20.19 | 185982 | 201000
18 | 44:40.01 | 3:57.12 | 201001 | 218787
19 | 48:37.13 | 2:13.36 | 218788 | 228798
20 | 50:50.49 | 2:37.10 | 228799 | 240583


Track 1

Filename D:\#New Wav + flac\Etta James - The Aboslutely Essential 3CD Collection\cd 3\01. Etta James - Trust in Me.wav

Pre-gap length 0:00:02.00

Peak level 100.0 %
Extraction speed 4.9 X
Track quality 100.0 %
Test CRC D14D31F9
Copy CRC D14D31F9
Accurately ripped (confidence 2) [D40971FC] (AR v2)
Copy OK

Track 2

Filename D:\#New Wav + flac\Etta James - The Aboslutely Essential 3CD Collection\cd 3\02. Etta James - Something’s Got a Hold on Me.wav

Pre-gap length 0:00:01.66

Peak level 100.0 %
Extraction speed 5.1 X
Track quality 100.0 %
Test CRC 276ABE07
Copy CRC 276ABE07
Accurately ripped (confidence 2) [0405CE60] (AR v2)
Copy OK

Track 3

Filename D:\#New Wav + flac\Etta James - The Aboslutely Essential 3CD Collection\cd 3\03. Etta James - Seven Day Fool.wav

Pre-gap length 0:00:01.66

Peak level 100.0 %
Extraction speed 5.5 X
Track quality 100.0 %
Test CRC C8EB03C9
Copy CRC C8EB03C9
Accurately ripped (confidence 2) [ABFDD260] (AR v2)
Copy OK

Track 4

Filename D:\#New Wav + flac\Etta James - The Aboslutely Essential 3CD Collection\cd 3\04. Etta James - Plum Nuts.wav

Pre-gap length 0:00:01.66

Peak level 100.0 %
Extraction speed 6.0 X
Track quality 100.0 %
Test CRC 55F84B85
Copy CRC 55F84B85
Accurately ripped (confidence 2) [99189223] (AR v2)
Copy OK

Track 5

Filename D:\#New Wav + flac\Etta James - The Aboslutely Essential 3CD Collection\cd 3\05. Etta James - Don’t Get Around Much Anymore.wav

Pre-gap length 0:00:02.40

Peak level 100.0 %
Extraction speed 6.2 X
Track quality 100.0 %
Test CRC 3EF67FEC
Copy CRC 3EF67FEC
Accurately ripped (confidence 2) [B2F240FC] (AR v2)
Copy OK

Track 6

Filename D:\#New Wav + flac\Etta James - The Aboslutely Essential 3CD Collection\cd 3\06. Etta James - Waiting for Charlie to Come Home.wav

Pre-gap length 0:00:01.66

Peak level 100.0 %
Extraction speed 6.1 X
Track quality 100.0 %
Test CRC 2DA4EF89
Copy CRC 2DA4EF89
Accurately ripped (confidence 2) [6AC522D8] (AR v2)
Copy OK

Track 7

Filename D:\#New Wav + flac\Etta James - The Aboslutely Essential 3CD Collection\cd 3\07. Etta James - Guess Again.wav

Pre-gap length 0:00:02.06

Peak level 100.0 %
Extraction speed 6.3 X
Track quality 100.0 %
Test CRC 25D6866A
Copy CRC 25D6866A
Accurately ripped (confidence 2) [B1CD91B6] (AR v2)
Copy OK

Track 8

Filename D:\#New Wav + flac\Etta James - The Aboslutely Essential 3CD Collection\cd 3\08. Etta James - A Lover’s Mourn.wav

Pre-gap length 0:00:01.66

Peak level 100.0 %
Extraction speed 6.8 X
Track quality 100.0 %
Test CRC 0C1D198C
Copy CRC 0C1D198C
Accurately ripped (confidence 2) [B06FD9A5] (AR v2)
Copy OK

Track 9

Filename D:\#New Wav + flac\Etta James - The Aboslutely Essential 3CD Collection\cd 3\09. Etta James - You Can Count on Me.wav

Pre-gap length 0:00:01.66

Peak level 100.0 %
Extraction speed 7.1 X
Track quality 100.0 %
Test CRC 96761DE2
Copy CRC 96761DE2
Accurately ripped (confidence 2) [41E09995] (AR v2)
Copy OK

Track 10

Filename D:\#New Wav + flac\Etta James - The Aboslutely Essential 3CD Collection\cd 3\10. Etta James - My Dear.wav

Pre-gap length 0:00:01.66

Peak level 100.0 %
Extraction speed 5.6 X
Track quality 99.9 %
Test CRC 87861652
Copy CRC 87861652
Accurately ripped (confidence 2) [426D90DE] (AR v2)
Copy OK

Track 11

Filename D:\#New Wav + flac\Etta James - The Aboslutely Essential 3CD Collection\cd 3\11. Etta James - Nobody but You.wav

Pre-gap length 0:00:01.66

Peak level 100.0 %
Extraction speed 5.5 X
Track quality 99.9 %
Test CRC AA979145
Copy CRC AA979145
Accurately ripped (confidence 2) [C9E41DDE] (AR v2)
Copy OK

Track 12

Filename D:\#New Wav + flac\Etta James - The Aboslutely Essential 3CD Collection\cd 3\12. Etta James - Let Me Know.wav

Pre-gap length 0:00:01.66

Peak level 100.0 %
Extraction speed 8.1 X
Track quality 100.0 %
Test CRC F13FF06D
Copy CRC F13FF06D
Accurately ripped (confidence 2) [BAEAA0C5] (AR v2)
Copy OK

Track 13

Filename D:\#New Wav + flac\Etta James - The Aboslutely Essential 3CD Collection\cd 3\13. Etta James - How Do You Speak to an Angel.wav

Pre-gap length 0:00:01.66

Peak level 100.0 %
Extraction speed 6.0 X
Track quality 99.9 %
Test CRC B634B431
Copy CRC B634B431
Accurately ripped (confidence 2) [DB940491] (AR v2)
Copy OK

Track 14

Filename D:\#New Wav + flac\Etta James - The Aboslutely Essential 3CD Collection\cd 3\14. Etta James - Fools Rush In.wav

Pre-gap length 0:00:01.66

Peak level 100.0 %
Extraction speed 7.6 X
Track quality 100.0 %
Test CRC 6FE48BD7
Copy CRC 6FE48BD7
Accurately ripped (confidence 2) [D17BE742] (AR v2)
Copy OK

Track 15

Filename D:\#New Wav + flac\Etta James - The Aboslutely Essential 3CD Collection\cd 3\15. Etta James - Next Door to the Blues.wav

Pre-gap length 0:00:02.06

Peak level 99.4 %
Extraction speed 8.0 X
Track quality 100.0 %
Test CRC 945ECE6C
Copy CRC 945ECE6C
Accurately ripped (confidence 2) [CE97CA71] (AR v2)
Copy OK

Track 16

Filename D:\#New Wav + flac\Etta James - The Aboslutely Essential 3CD Collection\cd 3\16. Etta James - Don’t Blame Me.wav

Pre-gap length 0:00:01.66

Peak level 100.0 %
Extraction speed 8.2 X
Track quality 100.0 %
Test CRC AD649A2E
Copy CRC AD649A2E
Accurately ripped (confidence 2) [071D1DB5] (AR v2)
Copy OK

Track 17

Filename D:\#New Wav + flac\Etta James - The Aboslutely Essential 3CD Collection\cd 3\17. Etta James - I Want to Be Loved (but Only by You).wav

Pre-gap length 0:00:02.05

Peak level 100.0 %
Extraction speed 9.1 X
Track quality 100.0 %
Test CRC B340E978
Copy CRC B340E978
Accurately ripped (confidence 2) [ECEE916D] (AR v2)
Copy OK

Track 18

Filename D:\#New Wav + flac\Etta James - The Aboslutely Essential 3CD Collection\cd 3\18. Etta James - These Foolish Things.wav

Pre-gap length 0:00:01.66

Peak level 100.0 %
Extraction speed 9.3 X
Track quality 100.0 %
Test CRC 0D90219D
Copy CRC 0D90219D
Accurately ripped (confidence 2) [1B1BAE1B] (AR v2)
Copy OK

Track 19

Filename D:\#New Wav + flac\Etta James - The Aboslutely Essential 3CD Collection\cd 3\19. Etta James - Prisoner of Love.wav

Pre-gap length 0:00:02.42

Peak level 100.0 %
Extraction speed 8.5 X
Track quality 100.0 %
Test CRC 429FCF76
Copy CRC 429FCF76
Accurately ripped (confidence 2) [C6B732A6] (AR v2)
Copy OK

Track 20

Filename D:\#New Wav + flac\Etta James - The Aboslutely Essential 3CD Collection\cd 3\20. Etta James - Would It Make Any Difference to You.wav

Pre-gap length 0:00:01.66

Peak level 100.0 %
Extraction speed 9.0 X
Track quality 100.0 %
Test CRC 49441D83
Copy CRC 49441D83
Accurately ripped (confidence 2) [E6FF8FB0] (AR v2)
Copy OK


All tracks accurately ripped

No errors occurred

End of status report

–– CUETools DB Plugin V2.1.6

[CTDB TOCID: M86MI11nsl_RqAfkrWBVw4EgfEM-] found
Submit result: M86MI11nsl_RqAfkrWBVw4EgfEM- has been confirmed
Track | CTDB Status
1 | (4/4) Accurately ripped
2 | (4/4) Accurately ripped
3 | (4/4) Accurately ripped
4 | (4/4) Accurately ripped
5 | (4/4) Accurately ripped
6 | (4/4) Accurately ripped
7 | (4/4) Accurately ripped
8 | (4/4) Accurately ripped
9 | (4/4) Accurately ripped
10 | (4/4) Accurately ripped
11 | (4/4) Accurately ripped
12 | (4/4) Accurately ripped
13 | (4/4) Accurately ripped
14 | (4/4) Accurately ripped
15 | (4/4) Accurately ripped
16 | (4/4) Accurately ripped
17 | (4/4) Accurately ripped
18 | (4/4) Accurately ripped
19 | (4/4) Accurately ripped
20 | (4/4) Accurately ripped


==== Log checksum D6D30A4A861072CB1FFAE0B71B1B46D87EB9E9C323DED5A29D4D3ED7DE0A60EB ====