Subcategories

Evgeny Kissin - Chopin (Recordet at the Carnegie Hall) (1994)

Posted By: tirexiss
Evgeny Kissin - Chopin (Recordet at the Carnegie Hall) (1994)

Evgeny Kissin - Chopin (Recordet at the Carnegie Hall) (1994)
EAC | FLAC (image+.cue, log) | Covers Included | 66:45 | 266 MB
Genre: Classical | Label: Rca Victor Red Seal | Catalog: 09026 60445 2

This CD is so commanding in its musicality that one can hardly imagine being able to sit still for the live recital itself, given in Carnegie Hall in Feb. 1993. Kissin had already made the debut of a lifetime, also recorded by RCA, but this Chopin recital and its compansion from the same event exhibit a towering mastery. The famous showpieces–the F minor Fantasy, Grande Valse Brillante, F-sharp minor Polonaise, Scherzo #2–eclipse all rivals unless you go back to Rachmaninov, and the audience knew it. Their applause is a roar of ecstatic approval.
Yet behind the shattering virtuosity works a sensitive musical mind, and so it's sad to think that 13 years later, Kissin seems to have coarsened that imaginaiton by relying too much on his bravura technique.

Evgeny Kissin - Chopin (Recordet at the Carnegie Hall) (1994)

Track List:

1. Fantaisie, Op. 49 13:59
2. Grande Valse, Op. 42 3:39
3. Grande Valse Brillante, Op. 34, No. 2 6:15
4. Grande Valse Brillante, Op. 34, No. 1 4:54
5. Polonaise, Op. 44 11:57
6. Nocturne, Op. 32, No. 2 5:39
7. Nocturne, Op. 27, No. 1 5:47
8. Nocturne, Op. 27, No. 2 6:06
9. Scherzo No. 2, Op. 31 10:07

Performers:
Evgeny Kissin, piano

Exact Audio Copy V1.0 beta 3 from 29. August 2011

EAC extraction logfile from 3. April 2013, 11:28

Evgeny Kissin / Chopin - Evgeny Kissin at the Carnegie Hall

Used drive : TSSTcorpCDDVDW SH-222BB Adapter: 2 ID: 1

Read mode : Secure
Utilize accurate stream : Yes
Defeat audio cache : Yes
Make use of C2 pointers : No

Read offset correction : 6
Overread into Lead-In and Lead-Out : No
Fill up missing offset samples with silence : Yes
Delete leading and trailing silent blocks : No
Null samples used in CRC calculations : Yes
Used interface : Native Win32 interface for Win NT & 2000

Used output format : User Defined Encoder
Selected bitrate : 1024 kBit/s
Quality : High
Add ID3 tag : No
Command line compressor : C:\Program Files\Exact Audio Copy\Flac\flac.exe
Additional command line options : -8 -V -T "TITLE=%title%" -T "ARTIST=%artist%" -T "ALBUMARTIST=%albumartist%" -T "ALBUM=%albumtitle%" -T "DATE=%year%" -T "TRACKNUMBER=%tracknr%" -T "TRACKTOTAL=%numtracks%" -T "GENRE=%genre%" -T "COMMENT=%comment%" -T "PERFORMER=%albuminterpret%" -T "COMPOSER=%composer%" %source% -o %dest%


TOC of the extracted CD

Track | Start | Length | Start sector | End sector
––––––––––––––––––––––––––––-
1 | 0:00.00 | 14:00.42 | 0 | 63041
2 | 14:00.42 | 3:34.33 | 63042 | 79124
3 | 17:35.00 | 6:19.50 | 79125 | 107599
4 | 23:54.50 | 4:57.20 | 107600 | 129894
5 | 28:51.70 | 11:58.57 | 129895 | 183801
6 | 40:50.52 | 5:46.10 | 183802 | 209761
7 | 46:36.62 | 5:51.45 | 209762 | 236131
8 | 52:28.32 | 6:11.00 | 236132 | 263956
9 | 58:39.32 | 10:05.48 | 263957 | 309379


Range status and errors

Selected range

Filename G:\Ripped general\[1794] Chopin – Evgeny Kissin at the Carnegie Hall\Chopin - Evgeny Kissin at the Carnegie Hall.wav

Peak level 94.9 %
Extraction speed 7.9 X
Range quality 99.9 %
Test CRC 9CB3AD16
Copy CRC 9CB3AD16
Copy OK

No errors occurred


AccurateRip summary

Track 1 accurately ripped (confidence 2) [734409B6] (AR v2)
Track 2 accurately ripped (confidence 2) [87C5294E] (AR v2)
Track 3 accurately ripped (confidence 2) [C12CFAC8] (AR v2)
Track 4 accurately ripped (confidence 2) [0DE3F2BA] (AR v2)
Track 5 accurately ripped (confidence 2) [EB9F32E9] (AR v2)
Track 6 accurately ripped (confidence 2) [40CE3580] (AR v2)
Track 7 accurately ripped (confidence 2) [192A630E] (AR v2)
Track 8 accurately ripped (confidence 2) [BB99CB8B] (AR v2)
Track 9 accurately ripped (confidence 2) [935C8447] (AR v2)

All tracks accurately ripped

End of status report

Thanks to the Original ripper (unknown)!

Welcome to my blog!

Download: