Subcategories

Exodus - Discography part 1 (1985 - 1992)

Posted By: v3122
Exodus - Discography part 1 (1985 - 1992)

Exodus - Discography part 1 (1985 - 1992)
EAC | Flac(Image) + Cue + Log & MP3 CBR 320Kbps
6CD | Label: Various | ~ 2118 or 847 Mb | Scans(jpg) -> 221 Mb
Thrash Metal | Non Remastered CDs

Exodus is an American thrash metal band formed in 1979 in Richmond, California. The band has gone through numerous lineup changes, two extended hiatuses, and the deaths of two former band members. Their current lineup consists of guitarists Gary Holt and Lee Altus, bassist Jack Gibson, drummer Tom Hunting, and lead vocalist Steve "Zetro" Souza. Hunting is one of the original members, and departed from Exodus twice, in 1989 and 2004, but rejoined in 2007. Holt joined the band about two years after its formation, and is the only member of Exodus to appear on all their releases.

Since its formation, Exodus has released ten studio albums, two live albums, one compilation album, and a re-recording of their first album. Along with Possessed, Testament, Death Angel, Vio-Lence, Forbidden, Lȧȧz Rockit and Metallica, whose longtime lead guitarist Kirk Hammett was an original member of Exodus, they are often credited as pioneers of the Bay Area thrash metal scene, and have sold over five million albums worldwide. Exodus had particular success in the mid-to-late 1980s with their first three studio albums: Bonded by Blood (1985), Pleasures of the Flesh (1987) and Fabulous Disaster (1989). The critical praise given to Fabulous Disaster garnered attention from major labels, including Capitol Records, with whom Exodus had signed in 1989. Exodus released two more studio albums (Impact Is Imminent in 1990 and Force of Habit in 1992) before disbanding in 1994. After temporarily reuniting in 1997–1998, Exodus reformed once again in 2001, and since then, they have released five more studio albums, the most recent being Blood In, Blood Out (2014). The band is currently writing a follow-up album, expected for release in early-to-mid-2018…

~ wiki
Exodus - Discography part 1 (1985 - 1992)

Exodus - Discography part 1 (1985 - 1992):

Exodus - Discography part 1 (1985 - 1992)

Tracklist CD1 - 1985 - Bonded By Blood [Combat, 88561-8019-2, USA]:

01 Bonded By Blood 3:48
02 Exodus 4:08
03 And Then There Were None 4:43
04 A Lesson In Violence 3:53
05 Metal Command 4:16
06 Piranha 3:49
07 No Love 5:10
08 Deliver Us To Evil 7:10
09 Strike Of The Beast 3:59

Exact Audio Copy V1.0 beta 3 from 29. August 2011

EAC extraction logfile from 28. August 2014, 17:15

Exodus / Bonded By Blood [Combat, 88561-8019-2, USA]

Used drive : PIONEER DVD-RW DVR-220L Adapter: 5 ID: 0

Read mode : Secure
Utilize accurate stream : Yes
Defeat audio cache : Yes
Make use of C2 pointers : No

Read offset correction : 6
Overread into Lead-In and Lead-Out : No
Fill up missing offset samples with silence : Yes
Delete leading and trailing silent blocks : No
Null samples used in CRC calculations : Yes
Used interface : Installed external ASPI interface

Used output format : User Defined Encoder
Selected bitrate : 1024 kBit/s
Quality : High
Add ID3 tag : No
Command line compressor : C:\Program Files\Exact Audio Copy\FLAC\FLAC.EXE
Additional command line options : -V -8 -T "Date=%year%" -T "Genre=%genre%" %source%


TOC of the extracted CD

Track | Start | Length | Start sector | End sector
––––––––––––––––––––––––––––-
1 | 0:00.00 | 3:47.50 | 0 | 17074
2 | 3:47.50 | 4:08.20 | 17075 | 35694
3 | 7:55.70 | 4:43.27 | 35695 | 56946
4 | 12:39.22 | 3:52.55 | 56947 | 74401
5 | 16:32.02 | 4:16.08 | 74402 | 93609
6 | 20:48.10 | 3:49.00 | 93610 | 110784
7 | 24:37.10 | 5:10.27 | 110785 | 134061
8 | 29:47.37 | 7:09.70 | 134062 | 166306
9 | 36:57.32 | 3:58.40 | 166307 | 184196


Range status and errors

Selected range

Filename C:\CDRip by Deminbek\Exodus - Bonded By Blood [Combat, 88561-8019-2, USA].wav

Peak level 91.6 %
Extraction speed 7.1 X
Range quality 100.0 %
Test CRC 7104F8AB
Copy CRC 7104F8AB
Copy OK

No errors occurred


AccurateRip summary

Track 1 accurately ripped (confidence 3) [96371F86] (AR v1)
Track 2 accurately ripped (confidence 3) [C3611A8D] (AR v1)
Track 3 accurately ripped (confidence 3) [AD116F44] (AR v1)
Track 4 accurately ripped (confidence 3) [A86D70CC] (AR v1)
Track 5 accurately ripped (confidence 3) [2061C7DF] (AR v1)
Track 6 accurately ripped (confidence 3) [F601C17A] (AR v1)
Track 7 accurately ripped (confidence 3) [63F9A018] (AR v1)
Track 8 accurately ripped (confidence 3) [64B4D20F] (AR v1)
Track 9 accurately ripped (confidence 3) [9CD73255] (AR v1)

All tracks accurately ripped

End of status report

–– CUETools DB Plugin V2.1.4

[CTDB TOCID: hK17QsYrmC8YzwWVMITPv1lic0c-] found
Submit result: hK17QsYrmC8YzwWVMITPv1lic0c- has been confirmed
Track | CTDB Status
1 | (3/3) Accurately ripped
2 | (3/3) Accurately ripped
3 | (3/3) Accurately ripped
4 | (3/3) Accurately ripped
5 | (3/3) Accurately ripped
6 | (3/3) Accurately ripped
7 | (3/3) Accurately ripped
8 | (3/3) Accurately ripped
9 | (3/3) Accurately ripped


==== Log checksum B04ED6C83939DA13CB94E09A0C91EE9929669EDE75B3194B2E61F7AE30DC2F95 ====


[CUETools log; Date: 21.02.2018 13:53:23; Version: 2.1.5]
[CTDB TOCID: hK17QsYrmC8YzwWVMITPv1lic0c-] found.
Track | CTDB Status
1 | (10/10) Accurately ripped
2 | (10/10) Accurately ripped
3 | (10/10) Accurately ripped
4 | (10/10) Accurately ripped
5 | (10/10) Accurately ripped
6 | (10/10) Accurately ripped
7 | (10/10) Accurately ripped
8 | (10/10) Accurately ripped
9 | (10/10) Accurately ripped
[AccurateRip ID: 000d5278-0063054a-89099709] found.
Track [ CRC | V2 ] Status
01 [96371f86|b1bfc769] (3+3/6) Accurately ripped
02 [c3611a8d|ba6dd636] (3+3/6) Accurately ripped
03 [ad116f44|f9970c91] (3+3/6) Accurately ripped
04 [a86d70cc|08d2c749] (3+3/6) Accurately ripped
05 [2061c7df|b59eaf6d] (3+3/6) Accurately ripped
06 [f601c17a|6d4e0e18] (3+3/6) Accurately ripped
07 [63f9a018|1b49b928] (3+3/6) Accurately ripped
08 [64b4d20f|d4811f1d] (3+3/6) Accurately ripped
09 [9cd73255|a17dc0cb] (3+3/6) Accurately ripped

Track Peak [ CRC32 ] [W/O NULL] [ LOG ]
– 91,6 [7104F8AB] [52ADAB4B] CRC32
01 82,7 [AE0EE007] [243C7A8D]
02 91,6 [4F9E07BA] [D3A2F661]
03 80,5 [FEACB767] [E403851C]
04 76,2 [508DEC15] [9BA2D72D]
05 84,4 [16574EA9] [F59A28EA]
06 89,3 [5F707258] [9E6326C9]
07 90,9 [3068A76C] [C5CA84AA]
08 90,1 [6E88C8C1] [9AD4A3E8]
09 74,6 [646CFF74] [71A4C503]


Exodus - Discography part 1 (1985 - 1992)

Tracklist CD2 - 1987 - Pleasures Of The Flesh [MFN, CDMFN 77, UK]:

01 Deranged 3:46
02 'Till Death Do Us Part 4:52
03 Parasite 4:56
04 Brain Dead 4:16
05 Faster Than You'll Ever Live To Be 4:26
06 Pleasures Of The Flesh 7:37
07 30 Seconds 0:42
08 Seeds Of Hate 5:01
09 Chemi-Kill 5:46
10 Choose Your Weapon 4:52

Exact Audio Copy V1.0 beta 3 from 29. August 2011

EAC extraction logfile from 26. January 2012, 14:14

Exodus / Pleasures Of The Flesh [MFN, CDMFN 77, UK]

Used drive : HL-DT-STDVDRAM GSA-T20N Adapter: 0 ID: 0

Read mode : Secure
Utilize accurate stream : Yes
Defeat audio cache : Yes
Make use of C2 pointers : No

Read offset correction : 667
Overread into Lead-In and Lead-Out : No
Fill up missing offset samples with silence : Yes
Delete leading and trailing silent blocks : No
Null samples used in CRC calculations : Yes
Used interface : Installed external ASPI interface

Used output format : User Defined Encoder
Selected bitrate : 1024 kBit/s
Quality : High
Add ID3 tag : No
Command line compressor : C:\Program Files\Exact Audio Copy\FLAC\FLAC.EXE
Additional command line options : -V -8 -T "Date=%year%" -T "Genre=%genre%" %source%


TOC of the extracted CD

Track | Start | Length | Start sector | End sector
––––––––––––––––––––––––––––-
1 | 0:00.50 | 3:46.10 | 50 | 17009
2 | 3:46.60 | 4:51.52 | 17010 | 38886
3 | 8:38.37 | 4:55.73 | 38887 | 61084
4 | 13:34.35 | 4:16.17 | 61085 | 80301
5 | 17:50.52 | 4:26.00 | 80302 | 100251
6 | 22:16.52 | 7:36.43 | 100252 | 134494
7 | 29:53.20 | 0:42.05 | 134495 | 137649
8 | 30:35.25 | 5:01.12 | 137650 | 160236
9 | 35:36.37 | 5:45.53 | 160237 | 186164
10 | 41:22.15 | 4:52.00 | 186165 | 208064


Range status and errors

Selected range

Filename C:\CDRip by Deminbek\Exodus - Pleasures Of The Flesh [MFN, CDMFN 77, UK].wav

Peak level 92.7 %
Extraction speed 3.9 X
Range quality 99.9 %
Test CRC 57F55FCE
Copy CRC 57F55FCE
Copy OK

No errors occurred


AccurateRip summary

Track 1 accurately ripped (confidence 9) [89B6428C] (AR v1)
Track 2 accurately ripped (confidence 8) [4B6077A8] (AR v1)
Track 3 accurately ripped (confidence 9) [14310806] (AR v1)
Track 4 accurately ripped (confidence 9) [F6FD30BC] (AR v1)
Track 5 accurately ripped (confidence 8) [F1836FEB] (AR v1)
Track 6 accurately ripped (confidence 8) [EC275F21] (AR v1)
Track 7 accurately ripped (confidence 8) [522368CB] (AR v1)
Track 8 accurately ripped (confidence 8) [EF2BCCBE] (AR v1)
Track 9 accurately ripped (confidence 8) [502C6605] (AR v1)
Track 10 accurately ripped (confidence 8) [9032CB12] (AR v1)

All tracks accurately ripped

End of status report

==== Log checksum 28DF0EA895F9052288F9E0CBE75AA6D0B3805F5C8B416EA003ABA6E835E701FB ====


[CUETools log; Date: 21.02.2018 13:53:47; Version: 2.1.5]
Pregap length 00:00:50.
[CTDB TOCID: lT5tGbG6cTDc0X9vEDbBMOLavXY-] found.
Track | CTDB Status
1 | (12/12) Accurately ripped
2 | (12/12) Accurately ripped
3 | (12/12) Accurately ripped
4 | (12/12) Accurately ripped
5 | (12/12) Accurately ripped
6 | (12/12) Accurately ripped
7 | (12/12) Accurately ripped
8 | (12/12) Accurately ripped
9 | (12/12) Accurately ripped
10 | (12/12) Accurately ripped
[AccurateRip ID: 00112766-0089d628-860ad60a] found.
Track [ CRC | V2 ] Status
01 [89b6428c|7ad338a8] (09+05/14) Accurately ripped
02 [4b6077a8|5e5dcfe1] (08+05/13) Accurately ripped
03 [14310806|072f87f1] (09+06/15) Accurately ripped
04 [f6fd30bc|5e610913] (09+06/15) Accurately ripped
05 [f1836feb|2a374a46] (08+06/14) Accurately ripped
06 [ec275f21|81d90f19] (08+06/14) Accurately ripped
07 [522368cb|9ee8e397] (08+06/14) Accurately ripped
08 [ef2bccbe|6bad88a2] (08+06/14) Accurately ripped
09 [502c6605|158e0b1f] (08+06/14) Accurately ripped
10 [9032cb12|b80b2faa] (08+06/14) Accurately ripped

Track Peak [ CRC32 ] [W/O NULL] [ LOG ]
– 92,7 [57F55FCE] [A6C94346] CRC32
01 85,6 [2750F03A] [0DBD2AEF]
02 78,1 [054A6DBE] [530DD9CA]
03 92,7 [F0603477] [C8ADBA1C]
04 84,1 [23C005D8] [CDF00445]
05 79,9 [6073127B] [4CC18635]
06 88,9 [D4066D13] [4210E7D3]
07 43,4 [9521EDB2] [00422028]
08 78,8 [35B8A709] [088A8175]
09 73,3 [365EBDF1] [407DB230]
10 72,3 [0D7297FC] [00AB8E11]


Exodus - Discography part 1 (1985 - 1992)

Tracklist CD3 - 1988 - Fabulous Disaster [Sony, 25DP 5418, Japan]:

01 The Last Act of Defiance 4:44
02 Fabulous Disaster 4:55
03 The Toxic Waltz 4:53
04 Low Rider 2:48
05 Cajun Hell 6:07
06 Like Father, Like Son 8:11
07 Corruption 5:47
08 Verbal Razors 4:07
09 Open Season 3:54
10 Overdose 5:30

Exact Audio Copy V1.0 beta 3 from 29. August 2011

EAC extraction logfile from 26. January 2012, 11:56

Exodus / Fabulous Disaster [Sony, 25DP 5418, Japan]

Used drive : PIONEER DVD-RW DVR-112D Adapter: 1 ID: 0

Read mode : Secure
Utilize accurate stream : Yes
Defeat audio cache : Yes
Make use of C2 pointers : No

Read offset correction : 48
Overread into Lead-In and Lead-Out : No
Fill up missing offset samples with silence : Yes
Delete leading and trailing silent blocks : No
Null samples used in CRC calculations : Yes
Used interface : Installed external ASPI interface

Used output format : User Defined Encoder
Selected bitrate : 1024 kBit/s
Quality : High
Add ID3 tag : No
Command line compressor : C:\Program Files\Exact Audio Copy\FLAC\FLAC.EXE
Additional command line options : -V -8 -T "Date=%year%" -T "Genre=%genre%" %source%


TOC of the extracted CD

Track | Start | Length | Start sector | End sector
––––––––––––––––––––––––––––-
1 | 0:00.00 | 4:43.65 | 0 | 21289
2 | 4:43.65 | 4:55.05 | 21290 | 43419
3 | 9:38.70 | 4:53.05 | 43420 | 65399
4 | 14:32.00 | 2:48.00 | 65400 | 77999
5 | 17:20.00 | 6:07.32 | 78000 | 105556
6 | 23:27.32 | 8:11.18 | 105557 | 142399
7 | 31:38.50 | 5:47.02 | 142400 | 168426
8 | 37:25.52 | 4:06.48 | 168427 | 186924
9 | 41:32.25 | 3:54.05 | 186925 | 204479
10 | 45:26.30 | 5:30.15 | 204480 | 229244


Range status and errors

Selected range

Filename C:\CDRip by Deminbek\Exodus - Fabulous Disaster [Sony, 25DP 5418, Japan].wav

Peak level 100.0 %
Extraction speed 7.2 X
Range quality 100.0 %
Test CRC EFD6CDDF
Copy CRC EFD6CDDF
Copy OK

No errors occurred


AccurateRip summary

Track 1 not present in database
Track 2 not present in database
Track 3 not present in database
Track 4 not present in database
Track 5 not present in database
Track 6 not present in database
Track 7 not present in database
Track 8 not present in database
Track 9 not present in database
Track 10 not present in database

None of the tracks are present in the AccurateRip database

End of status report

==== Log checksum 8759DC2F39CCB2EBD2EC7111BF58D0FE62D92437D8D568B6D432D3C5BFF6B4A4 ====


[CUETools log; Date: 21.02.2018 13:54:12; Version: 2.1.5]
[CTDB TOCID: LIYK4jXeScDP2rA.CBjhI96G.Bg-] found.
Track | CTDB Status
1 | (4/4) Accurately ripped
2 | (4/4) Accurately ripped
3 | (4/4) Accurately ripped
4 | (4/4) Accurately ripped
5 | (4/4) Accurately ripped
6 | (4/4) Accurately ripped
7 | (4/4) Accurately ripped
8 | (4/4) Accurately ripped
9 | (4/4) Accurately ripped
10 | (4/4) Accurately ripped
[AccurateRip ID: 0012ffd8-00995d03-850bf00a] found.
Track [ CRC | V2 ] Status
01 [b1619b75|909c833b] (0+3/5) Accurately ripped
02 [1df00854|f3954fe5] (0+3/5) Accurately ripped
03 [45637a7d|2e1e52ad] (0+3/5) Accurately ripped
04 [8402fce0|2cecd3db] (0+3/5) Accurately ripped
05 [6301e052|c099fcb4] (0+3/5) Accurately ripped
06 [da316dd0|36a5a38f] (0+3/5) Accurately ripped
07 [c4784894|9430f8ea] (0+3/5) Accurately ripped
08 [bc4d530a|312869e1] (0+3/5) Accurately ripped
09 [f7b36b34|46168218] (0+3/5) Accurately ripped
10 [54716ad7|da12a397] (0+3/5) Accurately ripped
Offsetted by 468:
01 [eb47a2ec] (0/5) No match (V2 was not tested)
02 [2742c6e4] (0/5) No match (V2 was not tested)
03 [e9b7c798] (0/5) No match (V2 was not tested)
04 [0fd284b7] (0/5) No match (V2 was not tested)
05 [91f06d07] (0/5) No match (V2 was not tested)
06 [3d171699] (0/5) No match (V2 was not tested)
07 [aa5bb64d] (0/5) No match (V2 was not tested)
08 [bb0a7cdd] (0/5) No match (V2 was not tested)
09 [d921abe2] (0/5) No match (V2 was not tested)
10 [ac4c01ad] (0/5) No match (V2 was not tested)

Track Peak [ CRC32 ] [W/O NULL] [ LOG ]
– 100,0 [EFD6CDDF] [D89BD509] CRC32
01 100,0 [5A1808D3] [1D0C4ADB]
02 100,0 [3D7F7AE5] [001AD612]
03 89,5 [2E88A8A8] [E3B3D406]
04 100,0 [3D4D8904] [F7AB5D00]
05 100,0 [4E5F6620] [40DCF6B4]
06 100,0 [6A6BDC3B] [BDDAD410]
07 97,6 [2848D3FA] [85BCB608]
08 86,2 [FC6EE630] [0EAE794E]
09 89,8 [B3710E8D] [4B780CE2]
10 89,8 [D02A4BA2] [ECBBC0FE]


Exodus - Discography part 1 (1985 - 1992)

Tracklist CD4 - 1990 - Impact Is Imminent [Capitol, TOCP-6445, Japan]:

01 Impact Is Imminent 4:19
02 A.W.O.L. 5:44
03 The Lunatic Parade 4:14
04 Within The Walls Of Chaos 7:45
05 Objection Overruled 4:34
06 Only Death Decides 6:07
07 Heads They Win (Tails You Lose) 7:43
08 Changing Of The Guard 6:49
09 Thrash Under Pressure 2:39

Exact Audio Copy V0.99 prebeta 5 from 4. May 2009

EAC extraction logfile from 18. February 2012, 15:53

Exodus / Impact Is Imminent (TOCP-6445)

Used drive : PIONEER DVD-RW DVR-215 Adapter: 5 ID: 0

Read mode : Secure
Utilize accurate stream : Yes
Defeat audio cache : Yes
Make use of C2 pointers : No

Read offset correction : 48
Overread into Lead-In and Lead-Out : No
Fill up missing offset samples with silence : Yes
Delete leading and trailing silent blocks : No
Null samples used in CRC calculations : Yes
Used interface : Native Win32 interface for Win NT & 2000

Used output format : User Defined Encoder
Selected bitrate : 1024 kBit/s
Quality : High
Add ID3 tag : No
Command line compressor : C:\Program Files (x86)\Exact Audio Copy\Flac\flac.exe
Additional command line options : -8 -V %s


TOC of the extracted CD

Track | Start | Length | Start sector | End sector
––––––––––––––––––––––––––––-
1 | 0:00.00 | 4:19.37 | 0 | 19461
2 | 4:19.37 | 5:44.10 | 19462 | 45271
3 | 10:03.47 | 4:13.53 | 45272 | 64299
4 | 14:17.25 | 7:45.00 | 64300 | 99174
5 | 22:02.25 | 4:34.17 | 99175 | 119741
6 | 26:36.42 | 6:06.45 | 119742 | 147236
7 | 32:43.12 | 7:42.65 | 147237 | 181951
8 | 40:26.02 | 6:49.33 | 181952 | 212659
9 | 47:15.35 | 2:39.25 | 212660 | 224609


Range status and errors

Selected range

Filename D:\bki71\Exodus\Exodus - Impact Is Imminent (TOCP-6445).wav

Peak level 100.0 %
Range quality 100.0 %
Test CRC 1A9517A7
Copy CRC 1A9517A7
Copy OK

No errors occurred


AccurateRip summary

Track 1 cannot be verified as accurate (confidence 12) [3060365C], AccurateRip returned [78764754]
Track 2 cannot be verified as accurate (confidence 12) [7FF6F799], AccurateRip returned [CFF29C70]
Track 3 cannot be verified as accurate (confidence 11) [CC8BCD4B], AccurateRip returned [90EA9EDC]
Track 4 cannot be verified as accurate (confidence 11) [AE31E062], AccurateRip returned [F6A01AFE]
Track 5 cannot be verified as accurate (confidence 11) [7041EB3A], AccurateRip returned [39A8BF95]
Track 6 cannot be verified as accurate (confidence 10) [52C807CE], AccurateRip returned [E84F2031]
Track 7 cannot be verified as accurate (confidence 11) [46AD4141], AccurateRip returned [E87FE5D0]
Track 8 cannot be verified as accurate (confidence 11) [1EA39EDF], AccurateRip returned [DF4D756D]
Track 9 cannot be verified as accurate (confidence 10) [3AAC23FD], AccurateRip returned [5DBAFDEE]

No tracks could be verified as accurate
You may have a different pressing from the one(s) in the database

End of status report


[CUETools log; Date: 21.02.2018 13:54:44; Version: 2.1.5]
[CTDB TOCID: tfENtWh75mZCldktV6q.xcktJv0-] found.
Track | CTDB Status
1 | ( 6/42) Accurately ripped, or (25/42) differs in 216 samples @03:49:45
2 | (31/42) Accurately ripped
3 | (34/42) Accurately ripped
4 | (33/42) Accurately ripped
5 | (34/42) Accurately ripped
6 | (34/42) Accurately ripped
7 | (34/42) Accurately ripped
8 | (34/42) Accurately ripped
9 | (32/42) Accurately ripped, or (2/42) differs in 1 samples @02:39:04
[AccurateRip ID: 0011012a-007e88e7-860bb209] found.
Track [ CRC | V2 ] Status
01 [3060365c|c797f3c3] (03+03/46) Accurately ripped
02 [7ff6f799|c825938b] (03+03/44) Accurately ripped
03 [cc8bcd4b|5f0d3df4] (03+03/45) Accurately ripped
04 [ae31e062|ca1794a6] (03+03/45) Accurately ripped
05 [7041eb3a|209f50d9] (03+03/45) Accurately ripped
06 [52c807ce|dcc8050c] (03+03/44) Accurately ripped
07 [46ad4141|40dd4862] (03+03/45) Accurately ripped
08 [1ea39edf|2899cd24] (03+03/45) Accurately ripped
09 [3aac23fd|96ffce2f] (03+03/44) Accurately ripped
Offsetted by 259:
01 [ba94a968] (00/46) No match (V2 was not tested)
02 [cff29c70] (12/44) Accurately ripped
03 [90ea9edc] (12/45) Accurately ripped
04 [f6a01afe] (12/45) Accurately ripped
05 [39a8bf95] (12/45) Accurately ripped
06 [e84f2031] (11/44) Accurately ripped
07 [e87fe5d0] (12/45) Accurately ripped
08 [df4d756d] (12/45) Accurately ripped
09 [5dbafdee] (11/44) Accurately ripped

Track Peak [ CRC32 ] [W/O NULL] [ LOG ]
– 100,0 [1A9517A7] [624A9598] CRC32
01 100,0 [EE05C381] [F49FA5C7]
02 100,0 [CFB8D9FD] [388383F3]
03 99,9 [74EEA8E2] [743E242C]
04 100,0 [82B90F96] [35B29BEF]
05 98,7 [47EAE99D] [F3EA870F]
06 100,0 [E4928F63] [044E8904]
07 100,0 [048DB67C] [48ECA064]
08 100,0 [E1FFDB4C] [11445947]
09 99,9 [3C70268D] [6D38DF50]


Exodus - Discography part 1 (1985 - 1992)

Tracklist CD5 - Good Friendly Violent Fun [Relativity, 88561-2026-2, USA]:


01. Fabulous Disaster (5:46)
02. Chemi-Kill (6:09)
03. 'Til Death Do Us Part (5:07)
04. The Toxic Waltz (4:40)
05. Cajun Hell (5:55)
06. Corruption (5:37)
07. Brain Dead (4:31)
08. Dirty Deeds Done Dirt Cheap (4:43)

Exact Audio Copy V1.0 beta 3 from 29. August 2011

EAC extraction logfile from 29. August 2014, 11:31

Exodus / Good Friendly Violent Fun [Relativity, 88561-2026-2, USA]

Used drive : PIONEER DVD-RW DVR-220L Adapter: 5 ID: 0

Read mode : Secure
Utilize accurate stream : Yes
Defeat audio cache : Yes
Make use of C2 pointers : No

Read offset correction : 6
Overread into Lead-In and Lead-Out : No
Fill up missing offset samples with silence : Yes
Delete leading and trailing silent blocks : No
Null samples used in CRC calculations : Yes
Used interface : Installed external ASPI interface

Used output format : User Defined Encoder
Selected bitrate : 1024 kBit/s
Quality : High
Add ID3 tag : No
Command line compressor : C:\Program Files\Exact Audio Copy\FLAC\FLAC.EXE
Additional command line options : -V -8 -T "Date=%year%" -T "Genre=%genre%" %source%


TOC of the extracted CD

Track | Start | Length | Start sector | End sector
––––––––––––––––––––––––––––-
1 | 0:00.33 | 5:45.40 | 33 | 25947
2 | 5:45.73 | 6:08.67 | 25948 | 53614
3 | 11:54.65 | 5:06.65 | 53615 | 76629
4 | 17:01.55 | 4:39.55 | 76630 | 97609
5 | 21:41.35 | 5:55.28 | 97610 | 124262
6 | 27:36.63 | 5:37.00 | 124263 | 149537
7 | 33:13.63 | 4:31.32 | 149538 | 169894
8 | 37:45.20 | 4:42.38 | 169895 | 191082


Range status and errors

Selected range

Filename C:\CDRip by Deminbek\Exodus - Good Friendly Violent Fun [Relativity, 88561-2026-2, USA].wav

Peak level 92.1 %
Extraction speed 6.5 X
Range quality 99.9 %
Test CRC 0ACA68AA
Copy CRC 0ACA68AA
Copy OK

No errors occurred


AccurateRip summary

Track 1 accurately ripped (confidence 2) [B71D6C99] (AR v2)
Track 2 accurately ripped (confidence 2) [EE940C5C] (AR v2)
Track 3 accurately ripped (confidence 2) [5EDB6DA3] (AR v2)
Track 4 accurately ripped (confidence 2) [B0FF1E15] (AR v2)
Track 5 accurately ripped (confidence 2) [E303581D] (AR v2)
Track 6 accurately ripped (confidence 3) [1AD7DED7] (AR v1)
Track 7 accurately ripped (confidence 2) [A600C257] (AR v2)
Track 8 accurately ripped (confidence 2) [95ADE005] (AR v2)

All tracks accurately ripped

End of status report

–– CUETools DB Plugin V2.1.4

[CTDB TOCID: xIkbNDJy76X7JQWd8TXekeXR8Oc-] disk not present in database
Submit result: xIkbNDJy76X7JQWd8TXekeXR8Oc- has been uploaded


==== Log checksum 319D5B777CBFC34BD21DEBFF233E6120456C392B84BA0B180FC88B1726DA0E71 ====


[CUETools log; Date: 21.02.2018 13:55:06; Version: 2.1.5]
Pregap length 00:00:33.
[CTDB TOCID: xIkbNDJy76X7JQWd8TXekeXR8Oc-] found.
Track | CTDB Status
1 | (5/5) Accurately ripped
2 | (5/5) Accurately ripped
3 | (5/5) Accurately ripped
4 | (5/5) Accurately ripped
5 | (5/5) Accurately ripped
6 | (5/5) Accurately ripped
7 | (5/5) Accurately ripped
8 | (5/5) Accurately ripped
[AccurateRip ID: 000d8f27-0059b343-6809f308] found.
Track [ CRC | V2 ] Status
01 [0a33922d|b71d6c99] (3+3/6) Accurately ripped
02 [9fec0f41|ee940c5c] (3+3/6) Accurately ripped
03 [c8c75dc6|5edb6da3] (3+3/6) Accurately ripped
04 [21238462|b0ff1e15] (3+3/6) Accurately ripped
05 [450bceb4|e303581d] (3+3/6) Accurately ripped
06 [1ad7ded7|76d0c969] (3+2/5) Accurately ripped
07 [52d7f5b3|a600c257] (3+3/6) Accurately ripped
08 [1a3aa77f|95ade005] (3+3/6) Accurately ripped

Track Peak [ CRC32 ] [W/O NULL] [ LOG ]
– 92,1 [0ACA68AA] [F72EAE38] CRC32
01 86,0 [D9CB1CE9] [59F7A13F]
02 81,8 [F85C4CC8] [CA20862F]
03 83,6 [7D32B33F] [38272F5B]
04 87,0 [98B61446] [F5AE51A3]
05 92,1 [5B4DA9B8] [CB3ECF01]
06 79,7 [A89A54FB] [A3FD6998]
07 81,4 [18CC337E] [A714F43A]
08 86,2 [8DDBBA1C] [EBD4838D]


Exodus - Discography part 1 (1985 - 1992)

Tracklist CD6 - 1992 - Force Of Habit [Capitol, CDP 7 96676 2 8, UK]:

01. Thorn in My Side (4:06)
02. Me, Myself & I (5:04)
03. Force of Habit (4:19)
04. Bitch (2:48)
05. Fuel for the Fire (6:05)
06. One Foot in the Grave (5:15)
07. Count Your Blessings (7:31)
08. Climb Before the Fall (5:38)
09. Architect of Pain (11:02)
10. When It Rains It Pours (4:20)
11. Good Day to Die (4:48)
12. Pump It Up (3:10)
13. Feeding Time at the Zoo (4:33)

Exact Audio Copy V1.0 beta 3 from 29. August 2011

EAC extraction logfile from 29. August 2014, 11:14

Exodus / 1992 - Force Of Habit [Capitol, CDP 7 96676 2 8, UK]

Used drive : PIONEER DVD-RW DVR-220L Adapter: 5 ID: 0

Read mode : Secure
Utilize accurate stream : Yes
Defeat audio cache : Yes
Make use of C2 pointers : No

Read offset correction : 6
Overread into Lead-In and Lead-Out : No
Fill up missing offset samples with silence : Yes
Delete leading and trailing silent blocks : No
Null samples used in CRC calculations : Yes
Used interface : Installed external ASPI interface

Used output format : User Defined Encoder
Selected bitrate : 1024 kBit/s
Quality : High
Add ID3 tag : No
Command line compressor : C:\Program Files\Exact Audio Copy\FLAC\FLAC.EXE
Additional command line options : -V -8 -T "Date=%year%" -T "Genre=%genre%" %source%


TOC of the extracted CD

Track | Start | Length | Start sector | End sector
––––––––––––––––––––––––––––-
1 | 0:00.32 | 4:05.70 | 32 | 18476
2 | 4:06.27 | 5:04.30 | 18477 | 41306
3 | 9:10.57 | 4:19.03 | 41307 | 60734
4 | 13:29.60 | 2:48.22 | 60735 | 73356
5 | 16:18.07 | 6:04.38 | 73357 | 100694
6 | 22:22.45 | 5:15.37 | 100695 | 124356
7 | 27:38.07 | 7:30.60 | 124357 | 158166
8 | 35:08.67 | 5:38.13 | 158167 | 183529
9 | 40:47.05 | 11:02.15 | 183530 | 233194
10 | 51:49.20 | 4:20.30 | 233195 | 252724
11 | 56:09.50 | 4:47.62 | 252725 | 274311
12 | 60:57.37 | 3:10.00 | 274312 | 288561
13 | 64:07.37 | 4:33.23 | 288562 | 309059


Range status and errors

Selected range

Filename C:\CDRip by Deminbek\Exodus - 1992 - Force Of Habit [Capitol, CDP 7 96676 2 8, UK].wav

Peak level 100.0 %
Extraction speed 8.1 X
Range quality 99.9 %
Test CRC 232CFCDD
Copy CRC 232CFCDD
Copy OK

No errors occurred


AccurateRip summary

Track 1 accurately ripped (confidence 9) [A3BAFF51] (AR v2)
Track 2 accurately ripped (confidence 9) [A0014A52] (AR v2)
Track 3 accurately ripped (confidence 9) [8FA6A0A0] (AR v2)
Track 4 accurately ripped (confidence 9) [67EBC9D2] (AR v2)
Track 5 accurately ripped (confidence 9) [9DB704BC] (AR v2)
Track 6 accurately ripped (confidence 9) [BAD78EF2] (AR v2)
Track 7 accurately ripped (confidence 9) [655CF646] (AR v2)
Track 8 accurately ripped (confidence 9) [BB7B2646] (AR v2)
Track 9 accurately ripped (confidence 9) [4C767A3B] (AR v2)
Track 10 accurately ripped (confidence 9) [1C7B06C5] (AR v2)
Track 11 accurately ripped (confidence 10) [A2069D02] (AR v2)
Track 12 accurately ripped (confidence 9) [EC5B4F9B] (AR v2)
Track 13 accurately ripped (confidence 9) [6910F248] (AR v2)

All tracks accurately ripped

End of status report

–– CUETools DB Plugin V2.1.4

[CTDB TOCID: WY2CXMY0nn002W0C8BrZpTR4x5Y-] found
Submit result: WY2CXMY0nn002W0C8BrZpTR4x5Y- has been confirmed
Track | CTDB Status
1 | (6/7) Accurately ripped
2 | (5/7) Accurately ripped
3 | (5/7) Accurately ripped
4 | (6/7) Accurately ripped
5 | (5/7) Accurately ripped
6 | (6/7) Accurately ripped
7 | (5/7) Accurately ripped
8 | (5/7) Accurately ripped
9 | (6/7) Accurately ripped
10 | (5/7) Accurately ripped
11 | (5/7) Accurately ripped
12 | (5/7) Accurately ripped
13 | (5/7) Accurately ripped


==== Log checksum A12EDEEB4C4F14324014D52F441923B142D15FA1CF31B552114AB29C8F788611 ====


[CUETools log; Date: 21.02.2018 13:55:33; Version: 2.1.5]
Pregap length 00:00:32.
[CTDB TOCID: WY2CXMY0nn002W0C8BrZpTR4x5Y-] found.
Track | CTDB Status
1 | (52/53) Accurately ripped
2 | (51/53) Accurately ripped
3 | (51/53) Accurately ripped
4 | (52/53) Accurately ripped
5 | (50/53) Accurately ripped
6 | (52/53) Accurately ripped
7 | (51/53) Accurately ripped
8 | (51/53) Accurately ripped
9 | (52/53) Accurately ripped
10 | (51/53) Accurately ripped
11 | (51/53) Accurately ripped
12 | (51/53) Accurately ripped
13 | (50/53) Accurately ripped
[AccurateRip ID: 0020536f-014a43be-aa10180d] found.
Track [ CRC | V2 ] Status
01 [2e1dd30a|a3baff51] (09+16/40) Accurately ripped
02 [53da543d|a0014a52] (09+16/40) Accurately ripped
03 [54461e49|8fa6a0a0] (09+16/41) Accurately ripped
04 [9db97bb8|67ebc9d2] (09+16/41) Accurately ripped
05 [0ba1e584|9db704bc] (09+16/40) Accurately ripped
06 [b969ea81|bad78ef2] (08+16/39) Accurately ripped
07 [176d53c7|655cf646] (09+16/39) Accurately ripped
08 [00dd9120|bb7b2646] (09+16/40) Accurately ripped
09 [1ea2486a|4c767a3b] (09+16/40) Accurately ripped
10 [583ee801|1c7b06c5] (08+16/39) Accurately ripped
11 [6a97435d|a2069d02] (09+17/41) Accurately ripped
12 [8c8cde85|ec5b4f9b] (09+16/40) Accurately ripped
13 [705f2f5c|6910f248] (09+16/40) Accurately ripped
Offsetted by 47:
01 [04bd72b2] (07/40) Accurately ripped
02 [eae81fea] (06/40) Accurately ripped
03 [7fd821c6] (07/41) Accurately ripped
04 [62fa5fd0] (07/41) Accurately ripped
05 [5f950cce] (06/40) Accurately ripped
06 [f85499e8] (06/39) Accurately ripped
07 [0fd13ff3] (06/39) Accurately ripped
08 [e84b7913] (06/40) Accurately ripped
09 [7b00252a] (06/40) Accurately ripped
10 [a7d5cb5d] (06/39) Accurately ripped
11 [06adb584] (06/41) Accurately ripped
12 [fade2437] (06/40) Accurately ripped
13 [3d9f33c4] (06/40) Accurately ripped
Offsetted by 1867:
01 [14345252] (00/40) No match (V2 was not tested)
02 [51d835be] (00/40) No match (V2 was not tested)
03 [2760a8da] (00/41) No match (V2 was not tested)
04 [e79a2730] (00/41) No match (V2 was not tested)
05 [a929bd07] (00/40) No match (V2 was not tested)
06 [522c621b] (00/39) No match (V2 was not tested)
07 [6bde4023] (00/39) No match (V2 was not tested)
08 [6cbfd5bf] (00/40) No match (V2 was not tested)
09 [7932d02a] (00/40) No match (V2 was not tested)
10 [658d764d] (00/39) No match (V2 was not tested)
11 [add18780] (00/41) No match (V2 was not tested)
12 [d64f683f] (00/40) No match (V2 was not tested)
13 [0f22de64] (00/40) No match (V2 was not tested)

Track Peak [ CRC32 ] [W/O NULL] [ LOG ]
– 99,9 [232CFCDD] [01BEB696] CRC32
01 99,9 [F03DFA4A] [FDD3C129]
02 99,9 [0C0C8593] [AE946AEE]
03 99,9 [768E7609] [6233F2BA]
04 99,9 [AA449AB7] [D027A973]
05 99,9 [87317E56] [71E728BA]
06 99,9 [34ECABFC] [7EC69897]
07 99,9 [0913F8BB] [AD79DE9D]
08 99,9 [E1990950] [444B8910]
09 99,9 [02BA98B1] [2FF02143]
10 99,9 [812D20B4] [3FBFEB31]
11 99,9 [BF4079A7] [E957ADD1]
12 99,9 [BB297E99] [D4F12A26]
13 99,9 [C4F39384] [591B5A44]


All thanks go to the original releaser

Exodus or Exodus in my Blog

Download Exodus - Discography part 1 (1985 - 1992):