Subcategories
Tags
Language
Tags

Extreme - III Sides To Every Story (1992) [Japan SHM-CD, 2012]

Posted By: Andi_Deris
Extreme - III Sides To Every Story (1992) [Japan SHM-CD, 2012]

Extreme - III Sides To Every Story (1992) [Japan SHM-CD, 2012]
EAC Rip | FLAC: Image+Cue+Log | 531 Mb | MP3 CBR 320 kbps | 187 Mb | Scans | 54 Mb | Time: 01:16:11
A&M Records/Universal Music Japan | UICY-25147
Funk Metal, Hard Rock

Extreme's brand of hard rock balanced ambitious, progressive tendencies with catchy melodies owing more to the Beatles than anthemic arena rock; on III Sides to Every Story, the former tends to dominate. III Sides To Every Story is the third album by the Boston funk-metal band Extreme, released in 1992. It was the follow-up to the very successful Pornograffitti album. It was the last album with the band's original line-up: Gary Cherone, Nuno Bettencourt, Pat Badger and Paul Geary; Geary later left, and was replaced by Mike Mangini.

Extreme - III Sides To Every Story (1992) [Japan SHM-CD, 2012]




Track Listing

01. Warheads (05:19)
02. Rest In Peace (06:02)
03. Politicalamity (05:04)
04. Color Me Blind (05:01)
05. Cupid's Dead (05:57)
06. Peacemaker Die (06:04)
07. Seven Sundays (04:18)
08. Tragic Comic (04:44)
09. Our Father (04:02)
10. Stop The World (05:58)
11. God Isn't Dead? (02:02)
12. Everything Under The Sun: I. Rise 'n Shine (06:23)
13. Everything Under The Sun: II. Am I Ever Gonna Change (06:57)
14. Everything Under The Sun: III. Who Cares? (08:20)

Produced by Nuno Bettencourt & Bob St. John

The Band

• Pat Badger - bass, backing vocals
• Nuno Bettencourt - guitars, synthesizer, piano, organ, percussion, backing vocals
Gary Cherone - lead & backing vocals
• Paul Geary - drums, percussion, backing vocals

Notes

Reissue from Extreme featuring the high-fidelity SHM-CD format (compatible with standard CD players). Part of a three-album Extreme reissue series featuring albums "Extreme," "Pornograffitti," and "III Sides To Every Story."

Exact Audio Copy V1.1 from 23. June 2015

EAC extraction logfile from 22. May 2017, 20:23

Extreme / III Sides To Every Story

Used drive : ASUS DRW-24B1ST Adapter: 1 ID: 1

Read mode : Secure
Utilize accurate stream : Yes
Defeat audio cache : Yes
Make use of C2 pointers : No

Read offset correction : 6
Overread into Lead-In and Lead-Out : No
Fill up missing offset samples with silence : Yes
Delete leading and trailing silent blocks : No
Null samples used in CRC calculations : Yes
Used interface : Native Win32 interface for Win NT & 2000

Used output format : User Defined Encoder
Selected bitrate : 1024 kBit/s
Quality : High
Add ID3 tag : No
Command line compressor : C:\Program Files (x86)\Exact Audio Copy\Flac\flac.exe
Additional command line options : -V -8 -T "Genre=%genre%" -T "Artist=%artist%" -T "Title=%title%" -T "Album=%albumtitle%" -T "Date=%year%" -T "Tracknumber=%tracknr%" -T "Comment=%comment%" %source%


TOC of the extracted CD

Track | Start | Length | Start sector | End sector
––––––––––––––––––––––––––––-
1 | 0:00.00 | 5:18.45 | 0 | 23894
2 | 5:18.45 | 6:01.63 | 23895 | 51032
3 | 11:20.33 | 5:04.20 | 51033 | 73852
4 | 16:24.53 | 5:00.40 | 73853 | 96392
5 | 21:25.18 | 5:56.45 | 96393 | 123137
6 | 27:21.63 | 6:03.60 | 123138 | 150422
7 | 33:25.48 | 4:18.05 | 150423 | 169777
8 | 37:43.53 | 4:44.30 | 169778 | 191107
9 | 42:28.08 | 4:02.12 | 191108 | 209269
10 | 46:30.20 | 5:57.73 | 209270 | 236117
11 | 52:28.18 | 2:02.25 | 236118 | 245292
12 | 54:30.43 | 6:22.50 | 245293 | 273992
13 | 60:53.18 | 6:56.72 | 273993 | 305264
14 | 67:50.15 | 8:19.35 | 305265 | 342724


Range status and errors

Selected range

Filename E:\# MY\# Подготовка раздач\Extreme\1992 - III Sides To Every Story (2012 SHM-CD) (A&M Records, UICY-25147, Japan)\Extreme - III Sides To Every Story.wav

Peak level 100.0 %
Extraction speed 6.3 X
Range quality 99.9 %
Test CRC F9C8AB4F
Copy CRC F9C8AB4F
Copy OK

No errors occurred


AccurateRip summary

Track 1 accurately ripped (confidence 4) [4FD307C6] (AR v2)
Track 2 accurately ripped (confidence 4) [00D2D65D] (AR v2)
Track 3 accurately ripped (confidence 4) [9B8FB08A] (AR v2)
Track 4 accurately ripped (confidence 4) [B719C616] (AR v2)
Track 5 accurately ripped (confidence 4) [64E624D6] (AR v2)
Track 6 accurately ripped (confidence 4) [8F1294A7] (AR v2)
Track 7 accurately ripped (confidence 4) [46BC096F] (AR v2)
Track 8 accurately ripped (confidence 4) [918CFD96] (AR v2)
Track 9 accurately ripped (confidence 4) [DBE7DD63] (AR v2)
Track 10 accurately ripped (confidence 4) [967FCDB4] (AR v2)
Track 11 accurately ripped (confidence 4) [1A4995D1] (AR v2)
Track 12 accurately ripped (confidence 4) [1E2D2979] (AR v2)
Track 13 accurately ripped (confidence 4) [78E18347] (AR v2)
Track 14 accurately ripped (confidence 3) [73BF5D4B] (AR v2)

All tracks accurately ripped

End of status report

–– CUETools DB Plugin V2.1.6

[CTDB TOCID: cOk2TDeizyMnIlQ8qyQi.p8qgD8-] found
Submit result: cOk2TDeizyMnIlQ8qyQi.p8qgD8- has been confirmed
Track | CTDB Status
1 | (19/19) Accurately ripped
2 | (18/19) Accurately ripped
3 | (19/19) Accurately ripped
4 | (19/19) Accurately ripped
5 | (19/19) Accurately ripped
6 | (19/19) Accurately ripped
7 | (19/19) Accurately ripped
8 | (19/19) Accurately ripped
9 | (19/19) Accurately ripped
10 | (16/19) Accurately ripped
11 | (16/19) Accurately ripped
12 | (17/19) Accurately ripped
13 | (17/19) Accurately ripped
14 | (17/19) Accurately ripped


==== Log checksum FE7040DDD6AED71BB87DD3F63A6BC87A85B150F58C33914DB514597689430849 ====


Many thanks to the original uploader: Ginger Devil