Subcategories
Tags
Language
Tags

Extreme - Pornograffitti (1990) [Japan SHM-CD, 2012]

Posted By: Andi_Deris
Extreme - Pornograffitti (1990) [Japan SHM-CD, 2012]

Extreme - Pornograffitti (1990) [Japan SHM-CD, 2012]
EAC Rip | FLAC: Image+Cue+Log | 457 Mb | MP3 CBR 320 kbps | 160 Mb | Scans | 50 Mb | Time: 01:04:29
A&M Records/Universal Music Japan | UICY-25146
Funk Metal, Hard Rock

Extreme II: Pornograffitti (A Funked Up Fairy Tale) is the second album released by the Boston rock band Extreme. The title is a portmanteau of pornography and graffiti. The album sold very well, peaking at #10 on the Billboard 200, and was certified double platinum in the U.S. by the RIAA. It is the band's best selling album. Two singles from Pornograffiti, "More Than Words" and "Hole Hearted", reached the top-5 on the Billboard Hot 100. Two other tracks, "Decadence Dance" and "Get the Funk Out", reached the lower half of Billboard's rock chart.

Extreme - Pornograffitti (1990) [Japan SHM-CD, 2012]




Track Listing

01. Decadence Dance (06:50)
02. Li'l Jack Horny (04:52)
03. When I'm President (04:22)
04. Get The Funk Out (04:24)
05. More Than Words (05:34)
06. Money (In God We Trust) (04:11)
07. It ('s A Monster) (04:26)
08. Pornograffitti (06:16)
09. When I First Kissed You (04:00)
10. Suzi (Wants Her All Day What?) (03:39)
11. He-Man Woman Hater (06:20)
12. Song For Love (05:56)
13. Hole Hearted (03:40)

Produced by Michael Wagener & Nuno Bettencourt

The Band

• Pat Badger - bass guitar, backing vocals
• Nuno Bettencourt - guitars, synthesizer, piano, percussion, backing vocals
Gary Cherone - lead & backing vocals
• Paul Geary - drums, percussion

*****
• Barbara Glynn - Mutha's Voice, "Decadence Dance"
Pat Travers - Vocal Bridge, "Get the Funk Out"
• Jeanine Moultrine - Suzi's Voice, "Suzi (Wants Her All Day What?)"
Dweezil Zappa - Intro/outro solos, "He-Man Woman Hater"
• Li'l Jack Horn Section - "Li'l Jack Horny", "Get the Funk Out"
• Bob Findley - trumpet
• Chuck Findley - trumpet
• Bill Watrous - trombone
• Dick "Slyde" Hyde - bass trombone
• Pete Christlieb - tenor sax
• Joel Peskin - tenor sax

Notes

Reissue from Extreme featuring the high-fidelity SHM-CD format (compatible with standard CD players). Part of a three-album Extreme reissue series featuring albums "Extreme," "Pornograffitti," and "III Sides To Every Story."

Exact Audio Copy V1.1 from 23. June 2015

EAC extraction logfile from 22. May 2017, 21:32

Extreme / Extreme II: Pornograffitti

Used drive : ASUS DRW-24B1ST Adapter: 1 ID: 1

Read mode : Secure
Utilize accurate stream : Yes
Defeat audio cache : Yes
Make use of C2 pointers : No

Read offset correction : 6
Overread into Lead-In and Lead-Out : No
Fill up missing offset samples with silence : Yes
Delete leading and trailing silent blocks : No
Null samples used in CRC calculations : Yes
Used interface : Native Win32 interface for Win NT & 2000

Used output format : User Defined Encoder
Selected bitrate : 1024 kBit/s
Quality : High
Add ID3 tag : No
Command line compressor : C:\Program Files (x86)\Exact Audio Copy\Flac\flac.exe
Additional command line options : -V -8 -T "Genre=%genre%" -T "Artist=%artist%" -T "Title=%title%" -T "Album=%albumtitle%" -T "Date=%year%" -T "Tracknumber=%tracknr%" -T "Comment=%comment%" %source%


TOC of the extracted CD

Track | Start | Length | Start sector | End sector
––––––––––––––––––––––––––––-
1 | 0:00.00 | 6:49.47 | 0 | 30721
2 | 6:49.47 | 4:51.58 | 30722 | 52604
3 | 11:41.30 | 4:21.40 | 52605 | 72219
4 | 16:02.70 | 4:24.25 | 72220 | 92044
5 | 20:27.20 | 5:33.65 | 92045 | 117084
6 | 26:01.10 | 4:10.72 | 117085 | 135906
7 | 30:12.07 | 4:25.55 | 135907 | 155836
8 | 34:37.62 | 6:16.03 | 155837 | 184039
9 | 40:53.65 | 4:00.32 | 184040 | 202071
10 | 44:54.22 | 3:38.43 | 202072 | 218464
11 | 48:32.65 | 6:20.15 | 218465 | 246979
12 | 54:53.05 | 5:55.35 | 246980 | 273639
13 | 60:48.40 | 3:40.00 | 273640 | 290139


Range status and errors

Selected range

Filename E:\# MY\# Подготовка раздач\Extreme\1990 - Pornograffitti (2012 SHM-CD) (A&M Records, UICY-25146, Japan)\Extreme - Pornograffitti.wav

Peak level 100.0 %
Extraction speed 3.4 X
Range quality 100.0 %
Test CRC A651765B
Copy CRC A651765B
Copy OK

No errors occurred


AccurateRip summary

Track 1 accurately ripped (confidence 10) [6BA2B162] (AR v2)
Track 2 accurately ripped (confidence 10) [0DA599EB] (AR v2)
Track 3 accurately ripped (confidence 10) [BC2913FF] (AR v2)
Track 4 accurately ripped (confidence 10) [58658301] (AR v2)
Track 5 accurately ripped (confidence 10) [29BB47C4] (AR v2)
Track 6 accurately ripped (confidence 10) [6CC4E74E] (AR v2)
Track 7 accurately ripped (confidence 10) [842DD62B] (AR v2)
Track 8 accurately ripped (confidence 9) [F85D4680] (AR v2)
Track 9 accurately ripped (confidence 10) [701318EB] (AR v2)
Track 10 accurately ripped (confidence 10) [C63A980B] (AR v2)
Track 11 accurately ripped (confidence 10) [FEC45019] (AR v2)
Track 12 accurately ripped (confidence 10) [E106C896] (AR v2)
Track 13 accurately ripped (confidence 10) [CFB0E13B] (AR v2)

All tracks accurately ripped

End of status report

–– CUETools DB Plugin V2.1.6

[CTDB TOCID: flLdriqj1c63TtDfe9vIO6pJ5kA-] found
Submit result: already submitted
Track | CTDB Status
1 | (36/36) Accurately ripped
2 | (36/36) Accurately ripped
3 | (36/36) Accurately ripped
4 | (36/36) Accurately ripped
5 | (36/36) Accurately ripped
6 | (36/36) Accurately ripped
7 | (36/36) Accurately ripped
8 | (34/36) Accurately ripped
9 | (35/36) Accurately ripped
10 | (36/36) Accurately ripped
11 | (35/36) Accurately ripped
12 | (35/36) Accurately ripped
13 | (33/36) Accurately ripped


==== Log checksum E6DF61370572F75C910D3438AC67745BDA240074290BB4BD3A0C685CB7F60C3F ====


Many thanks to the original uploader: Ginger Devil