Tags
Language
Tags
June 2024
Su Mo Tu We Th Fr Sa
26 27 28 29 30 31 1
2 3 4 5 6 7 8
9 10 11 12 13 14 15
16 17 18 19 20 21 22
23 24 25 26 27 28 29
30 1 2 3 4 5 6

F.D.Project - Water and Earth (2011)

Posted By: gribovar
F.D.Project - Water and Earth (2011)

F.D.Project - Water and Earth (2011)
EAC Rip | FLAC (tracks+.cue+log) - 473 MB | MP3 CBR 320 kbps (LAME 3.93) - 177 MB | Covers - 104 MB
Genre: Progressive Electronic, Berlin School | RAR 3% Rec. | Label: Self-released

German musician Frank Dorittke, aka F.D. Project, is originally a guitarist from the Dinslaken-based band Imagine. He got interested in electronic music around 1991, and became influenced by the music of Tangerine Dream. The versatile and accessible music of F.D. Project is not that simply to depict as it’s influences range from Tangerine Dream to Mike Oldfield, at other occasions keenly blending elements from the Berlin School and guitar riffs. At times it can be melodic and up-tempo, then switching to captivating atmospheric textures and soundscapes.
Tracklist:
01. Under Water
02. Norway…My Heart Is With You
03. Sunday Afternoon
04. Earth
05. Sonar
06. Nightwalk
07. Evolution
08. Live Studio Recording For Satzvey Castle Concert 2011 (Bonus track)

Total time: 01:15:08

Exact Audio Copy V1.6 from 23. October 2020

EAC extraction logfile from 16. February 2023, 18:28

F.D.Project / Water and Earth

Used drive : Optiarc DVD RW AD-7200S Adapter: 1 ID: 0

Read mode : Secure
Utilize accurate stream : Yes
Defeat audio cache : Yes
Make use of C2 pointers : No

Read offset correction : 48
Overread into Lead-In and Lead-Out : No
Fill up missing offset samples with silence : Yes
Delete leading and trailing silent blocks : No
Null samples used in CRC calculations : Yes
Used interface : Native Win32 interface for Win NT & 2000
Gap handling : Appended to previous track

Used output format : User Defined Encoder
Selected bitrate : 1024 kBit/s
Quality : High
Add ID3 tag : Yes
Command line compressor : C:\Program Files (x86)\Exact Audio Copy\Flac\flac.exe
Additional command line options : -V -8 -T "Date=%year%" -T "Genre=%genre%" %source%


TOC of the extracted CD

Track | Start | Length | Start sector | End sector
––––––––––––––––––––––––––––-
1 | 0:00.00 | 9:45.00 | 0 | 43874
2 | 9:45.00 | 9:27.37 | 43875 | 86436
3 | 19:12.37 | 6:04.08 | 86437 | 113744
4 | 25:16.45 | 11:51.00 | 113745 | 167069
5 | 37:07.45 | 12:56.37 | 167070 | 225306
6 | 50:04.07 | 5:56.21 | 225307 | 252027
7 | 56:00.28 | 5:46.64 | 252028 | 278041
8 | 61:47.17 | 13:21.19 | 278042 | 338135


Track 1

Filename F:\CD-Rips\2011 - Water and Earth\01 Under Water.wav

Pre-gap length 0:00:02.00

Peak level 100.0 %
Extraction speed 2.8 X
Track quality 100.0 %
Test CRC 4491A086
Copy CRC 4491A086
Accurately ripped (confidence 2) [600F4B7A] (AR v2)
Copy OK

Track 2

Filename F:\CD-Rips\2011 - Water and Earth\02 Norway - My Heart Is With You.wav

Pre-gap length 0:00:02.00

Peak level 100.0 %
Extraction speed 3.4 X
Track quality 100.0 %
Test CRC 0AEAFAC9
Copy CRC 0AEAFAC9
Accurately ripped (confidence 2) [BE613A25] (AR v2)
Copy OK

Track 3

Filename F:\CD-Rips\2011 - Water and Earth\03 Sunday Afternoon.wav

Pre-gap length 0:00:02.00

Peak level 100.0 %
Extraction speed 3.7 X
Track quality 100.0 %
Test CRC 0C2B1FED
Copy CRC 0C2B1FED
Accurately ripped (confidence 2) [1530EC52] (AR v2)
Copy OK

Track 4

Filename F:\CD-Rips\2011 - Water and Earth\04 Earth.wav

Pre-gap length 0:00:02.00

Peak level 100.0 %
Extraction speed 4.3 X
Track quality 100.0 %
Test CRC 99F4B541
Copy CRC 99F4B541
Accurately ripped (confidence 2) [9E15D72E] (AR v2)
Copy OK

Track 5

Filename F:\CD-Rips\2011 - Water and Earth\05 Sonar.wav

Pre-gap length 0:00:02.00

Peak level 93.1 %
Extraction speed 4.9 X
Track quality 100.0 %
Test CRC 57098562
Copy CRC 57098562
Accurately ripped (confidence 2) [0CAA0035] (AR v2)
Copy OK

Track 6

Filename F:\CD-Rips\2011 - Water and Earth\06 Nightwalk.wav

Pre-gap length 0:00:02.00

Peak level 100.0 %
Extraction speed 5.0 X
Track quality 100.0 %
Test CRC 423169B9
Copy CRC 423169B9
Accurately ripped (confidence 2) [4173D2BE] (AR v2)
Copy OK

Track 7

Filename F:\CD-Rips\2011 - Water and Earth\07 Evolution (John Dyson).wav

Pre-gap length 0:00:02.00

Peak level 77.9 %
Extraction speed 5.1 X
Track quality 100.0 %
Test CRC 6DB350DE
Copy CRC 6DB350DE
Accurately ripped (confidence 2) [1F93F0E1] (AR v2)
Copy OK

Track 8

Filename F:\CD-Rips\2011 - Water and Earth\08 Live Studio Recording For Satzvey Castle Concert 2011.wav

Pre-gap length 0:00:02.00

Peak level 93.5 %
Extraction speed 5.9 X
Track quality 100.0 %
Test CRC B332C3FA
Copy CRC B332C3FA
Accurately ripped (confidence 2) [518498D8] (AR v2)
Copy OK


All tracks accurately ripped

No errors occurred

End of status report

==== Log checksum 4EA4EC2EE3D2A09AAF16D18626AD606BDF4912B46BDD46EF248DD1471A753910 ====

[CUETools log; Date: 02.03.2023 14:57:10; Version: 2.1.4]
[CTDB TOCID: yGYqYBhQzrlqp6vS266XgpFtqq0-] found.
Track | CTDB Status
1 | (4/4) Accurately ripped
2 | (4/4) Accurately ripped
3 | (4/4) Accurately ripped
4 | (4/4) Accurately ripped
5 | (4/4) Accurately ripped
6 | (4/4) Accurately ripped
7 | (4/4) Accurately ripped
8 | (4/4) Accurately ripped
[AccurateRip ID: 0016f580-0098e87e-69119c08] found.
Track [ CRC | V2 ] Status
01 [4966dacb|600f4b7a] (0+2/2) Accurately ripped
02 [d1cc109c|be613a25] (0+2/2) Accurately ripped
03 [98f2d8da|1530ec52] (0+2/2) Accurately ripped
04 [645d7b5e|9e15d72e] (0+2/2) Accurately ripped
05 [e1b195b5|0caa0035] (0+2/2) Accurately ripped
06 [371d87a9|4173d2be] (0+2/2) Accurately ripped
07 [6b5efa41|1f93f0e1] (0+2/2) Accurately ripped
08 [acf28c53|518498d8] (0+2/2) Accurately ripped

Track Peak [ CRC32 ] [W/O NULL] [ LOG ]
– 100,0 [C7056C78] [109F703E]
01 100,0 [4491A086] [7A52F2A7] CRC32
02 100,0 [0AEAFAC9] [A63B06CD] CRC32
03 100,0 [0C2B1FED] [8A6D7BE0] CRC32
04 100,0 [99F4B541] [55438AD4] CRC32
05 93,1 [57098562] [AADBEFE3] CRC32
06 100,0 [423169B9] [30A76342] CRC32
07 77,9 [6DB350DE] [E18DBD8B] CRC32
08 93,5 [B332C3FA] [21FA364B] CRC32

Thanks to startide

See also:
F.D.Project - Moments Of Life (2013)