Tags
Language
Tags

Fabio Biondi, Stavanger Symphony Orchestra - Alessandro Scarlatti: Carlo Re d'Alemagna (2013)

Posted By: ArlegZ
Fabio Biondi, Stavanger Symphony Orchestra - Alessandro Scarlatti: Carlo Re d'Alemagna (2013)

Fabio Biondi, Stavanger Symphony Orchestra - Alessandro Scarlatti: Carlo Re d'Alemagna (2013)
EAC | FLAC | Image (Cue & Log) ~ 824 Mb | Total time: 66:56+62:19+40:05 | Scans included
Classical | Label: agOgique | # AGO015 | Recorded: 2009

Fabio Biondi returns with the first recording of 'Carlo, Re d'Alemagna' by Alessandro Scarlatti, first performed in Naples in January 1716. The opera was resurrected in 2003 by Biondi (the leader of the innovative ensemble Europa Galante) who led a concert performance with the Stavanger Symphony Orchestra. This studio recording was made in late 2009. It is in many ways a typical example of Neapolitan Baroque opera with action assigned to the recitatives whilst the characters are developed during the arias. The opera deals with the accession to power and its exercise: an ever present problem in many ways and about the legitimacy of Carlo, successor to the late king. A mixture of opera seria and opera buffo, a requirement for the contemporary Neapolitan public c1690, is also found here.

Performer:
Lotario - Romina Basso
Giuditta - Roberta Invernizzi
Gildipe - Marina de Liso
Adalgiso - Marianne Beate Kielland
Berardo - Carlo Allemano
Asprando - Josè Maria Lo Monaco
Armilla - Damiana Pinti
Bleso - Roberto Abbondanza
Stavanger Symphony Orchestra
Conductor - Fabio Biondi

Track List:
CD1:
01. Atto I. Sinfonia
02. Scena Prima
03. Aria: Del ciel su i giri (Lotario)
04. Recitativo (Adalgiso e Lotario)
05. Scena Seconda. Recitativo (Asprando e detti)
06. Aria: L'alma mia già si consola (Adalgiso)
07. Scena 3a. Recitativo (Lotario, Asprando e Bleso)
08. Aria: Con la sua benda (Lotario)
09. Scena 4a. Recitativo (Asprando)
10. Aria: Il destin ver noi clemente (Asprando)
11. Scena 5a. Recitativo (Giuditta e Berardo)
12. Aria: Tutta fede ho l'alma in petto (Berardo)
13. Scena 6a. Recitativo (Armilla)
14. Scena 7a. Recitativo (Giuditta, Armillo e Lotario)
15. Aria: Illustre il sangue mio (Giuditta)
16. Scena 8a. Duetto: Begl'occhi (Gildippe e Adalgiso)
17. Scena 9a. Recitativo (Giuditta e Gildippe)
18. Aria: Labri cari (Adalgiso)
19. Scena 10a. Recitativo (Giuditta e Gildippe)
20. Aria: Ti sovvenga (Giuditta)
21. Scena 11a. Recitativo (Gildippe)
22. Aria: Del mio bene (Gildippe)
23. Scena 12a. Strumentale
24. Scena 13a. Recitativo (Giuditta, Lotario, Armilla, Adalgiso, Gildippe, Asprando e Berardo)
25. Aria: Il giglio nel prato (Berardo)
26. Scena 14a. Recitativo (Giuditta)
27. Aria: Sono in mar con ria procella (Giuditta)
28. Scena 15a. Recitativo (Armilla poi Bleso)
29. Aria: Con le zitelle (Bleso)
30. Scena 16a. Recitativo (Armilla e Bleso)
31. Duetto: Quel suo bel cigio (Armilla e Bleso)
CD2:
01. Atto II. Scena Prima. Aria: Aure voi (Lotario)
02. Recitativo (Lotario e Asprando)
03. Aria: Già il mio cor (Asprando)
04. Scena Seconda. Recitativo (Adalgiso e Lotario)
05. Scena 3a. Recitativo (Adalgiso)
06. Aria: Se la bella tortorella
07. Scena 4a. Recitativo: (Armilla poi Bleso)
08. Duetto: Mi lasci - Ti lascio (Armilla e Bleso)
09. Scena 5a. Recitativo (Gildippe poi Adalgiso)
10. Aria: Il mio cor costante e fido (Adalgiso)
11. Scena 6a. Recitativo (Giuditta e Asprando)
12. Aria: Per te ho in seno un cor (Asprando)
13. Scena 7a. Recitativo (Giuditta e Armilla)
14. Aria: L'innocenza in te vegg'io (Giuditta)
15. Recitativo (Giuditta e Asprando)
16. Scena 8a. Recitativo (Giuditta e Armilla)
17. Aria: Consoliamoci o signora (Armilla)
18. Scena 9a. Recitativo (Gildippe e dette, poi Berardo)
19. Aria: Miei fidi a vendetta (Giuditta)
20. Scena 10a. Recitativo (Gildippe e Berardo)
21. Scena 11a. Recitativo (Gildippe)
22. Aria: La barbara mia sorte (Gildippe)
23. Scena 12a. Strumentale. Recitativo (Berardo)
24. Scena 13a. Recitativo (Lotario e Berardo)
25. Duetto: Quell'alloro (Lotario e Berardo)
26. Scena 14a. Recitativo (Armilla poi Bleso)
27. Duetto: Senti, Bleso Caro - Parla, Armilla cara (Armilla e Bleso)
CD3:
01. Atto III. Scena Prima. Strumentale
02. Recitativo (Lotario e Berardo)
03. Aria: Tirannoo, sì, sarò (Lotario)
04. Scena Seconda. Recitativo (Berardo)
05. Aria: Par che goda (Berardo)
06. Scena 3a. Recitativo (Giuditta e Gildippe)
07. Aria: Par che spunti nel mio seno (Gildippe)
08. Scena 4a. Recitativo (Lotario e Giuditta)
09. Scena 5a. Recitativo (Adalgiso e detti)
10. Aria: Riede quest'alma in calma (Lotario)
11. Scena 6a. Recitativo (Giuditta e Adalgiso)
12. Aria: Qual stella in mezzo al mar (Adalgiso)
13. Scena 7a. Recitativo: (Bleso e Armilla)
14. Duetto: Lo vedrem (Armilla e Bleso)
15. Scena 8a. Strumentale
16. Recitativo (Giuditta, Lotario e Berardo)
17. Terzetto: O Numi, O stelle, O dei (Giuditta, Lotario e Berardo)
18. Scena Ultima. Strumentale
19. Recitativo (Asprando, Giuditta Lotario, Berardo, Gildippe, Adalgiso, Armilla e Bleso)
20. Coro: Al seren di sì bel giorno (Tutti)


Exact Audio Copy V1.3 from 2. September 2016

EAC extraction logfile from 7. February 2020, 11:19

Fabio Biondi, Stavanger Symphony Orchestra / Alessandro Scarlatti - Carlo Re d'Alemagna CD1

Used drive : PIONEER DVD-RW DVR-218L Adapter: 1 ID: 0

Read mode : Secure
Utilize accurate stream : Yes
Defeat audio cache : Yes
Make use of C2 pointers : No

Read offset correction : 6
Overread into Lead-In and Lead-Out : No
Fill up missing offset samples with silence : Yes
Delete leading and trailing silent blocks : No
Null samples used in CRC calculations : Yes
Used interface : Native Win32 interface for Win NT & 2000

Used output format : User Defined Encoder
Selected bitrate : 128 kBit/s
Quality : High
Add ID3 tag : No
Command line compressor : C:\Program Files\Exact Audio Copy\FLAC\FLAC.EXE
Additional command line options : -V -8 -T "Date=%year%" -T "Genre=%genre%" %source%


TOC of the extracted CD

Track | Start | Length | Start sector | End sector
––––––––––––––––––––––––––––-
1 | 0:00.00 | 2:51.36 | 0 | 12860
2 | 2:51.36 | 1:43.56 | 12861 | 20641
3 | 4:35.17 | 2:29.41 | 20642 | 31857
4 | 7:04.58 | 0:41.06 | 31858 | 34938
5 | 7:45.64 | 0:52.06 | 34939 | 38844
6 | 8:37.70 | 2:41.54 | 38845 | 50973
7 | 11:19.49 | 1:48.63 | 50974 | 59136
8 | 13:08.37 | 3:07.04 | 59137 | 73165
9 | 16:15.41 | 0:27.26 | 73166 | 75216
10 | 16:42.67 | 5:52.40 | 75217 | 101656
11 | 22:35.32 | 1:14.08 | 101657 | 107214
12 | 23:49.40 | 3:07.56 | 107215 | 121295
13 | 26:57.21 | 0:09.48 | 121296 | 122018
14 | 27:06.69 | 2:15.13 | 122019 | 132156
15 | 29:22.07 | 1:40.68 | 132157 | 139724
16 | 31:03.00 | 1:51.21 | 139725 | 148070
17 | 32:54.21 | 0:14.59 | 148071 | 149179
18 | 33:09.05 | 6:26.45 | 149180 | 178174
19 | 39:35.50 | 1:05.09 | 178175 | 183058
20 | 40:40.59 | 4:48.36 | 183059 | 204694
21 | 45:29.20 | 1:00.28 | 204695 | 209222
22 | 46:29.48 | 1:52.55 | 209223 | 217677
23 | 48:22.28 | 1:13.25 | 217678 | 223177
24 | 49:35.53 | 3:14.07 | 223178 | 237734
25 | 52:49.60 | 3:01.44 | 237735 | 251353
26 | 55:51.29 | 0:34.31 | 251354 | 253934
27 | 56:25.60 | 2:40.54 | 253935 | 265988
28 | 59:06.39 | 2:04.61 | 265989 | 275349
29 | 61:11.25 | 1:27.67 | 275350 | 281941
30 | 62:39.17 | 1:35.37 | 281942 | 289103
31 | 64:14.54 | 2:39.49 | 289104 | 301077


Range status and errors

Selected range

Filename C:\ArlegZ\Alessandro Scarlatti - Carlo Re d'Alemagna CD1.wav

Peak level 98.7 %
Extraction speed 2.0 X
Range quality 100.0 %
Test CRC AADB47D8
Copy CRC AADB47D8
Copy OK

No errors occurred


AccurateRip summary

Track 1 accurately ripped (confidence 9) [B7DA3C61] (AR v2)
Track 2 accurately ripped (confidence 9) [B82CD0DC] (AR v2)
Track 3 accurately ripped (confidence 9) [B13E9E01] (AR v2)
Track 4 accurately ripped (confidence 9) [4614F5A3] (AR v2)
Track 5 accurately ripped (confidence 9) [5C709E42] (AR v2)
Track 6 accurately ripped (confidence 9) [7E4CA3E9] (AR v2)
Track 7 accurately ripped (confidence 9) [CC519D0F] (AR v2)
Track 8 accurately ripped (confidence 9) [2E6ACC45] (AR v2)
Track 9 accurately ripped (confidence 9) [B293956B] (AR v2)
Track 10 accurately ripped (confidence 9) [9CF85AC0] (AR v2)
Track 11 accurately ripped (confidence 9) [162FE058] (AR v2)
Track 12 accurately ripped (confidence 9) [50546602] (AR v2)
Track 13 accurately ripped (confidence 9) [E298026C] (AR v2)
Track 14 accurately ripped (confidence 9) [EF7C872D] (AR v2)
Track 15 accurately ripped (confidence 9) [6526CB4D] (AR v2)
Track 16 accurately ripped (confidence 9) [5956855E] (AR v2)
Track 17 accurately ripped (confidence 9) [D786F920] (AR v2)
Track 18 accurately ripped (confidence 9) [CC4F0A29] (AR v2)
Track 19 accurately ripped (confidence 9) [39C87586] (AR v2)
Track 20 accurately ripped (confidence 9) [87EBE630] (AR v2)
Track 21 accurately ripped (confidence 9) [2F8FD8AB] (AR v2)
Track 22 accurately ripped (confidence 9) [894A8E0D] (AR v2)
Track 23 accurately ripped (confidence 9) [2B07048E] (AR v2)
Track 24 accurately ripped (confidence 9) [7BA5ABF7] (AR v2)
Track 25 accurately ripped (confidence 9) [432E1514] (AR v2)
Track 26 accurately ripped (confidence 9) [F381B471] (AR v2)
Track 27 accurately ripped (confidence 9) [9B3D717F] (AR v2)
Track 28 accurately ripped (confidence 9) [E50F78F9] (AR v2)
Track 29 accurately ripped (confidence 9) [4A37AF87] (AR v2)
Track 30 accurately ripped (confidence 9) [850C61CB] (AR v2)
Track 31 accurately ripped (confidence 9) [7F04CB67] (AR v2)

All tracks accurately ripped

End of status report

==== Log checksum EF5C004F583C6B7687ECF8E01FEE07CA4B1990E7814443239C505410BDF5E835 ====


Exact Audio Copy V1.3 from 2. September 2016

EAC extraction logfile from 7. February 2020, 12:32

Fabio Biondi, Stavanger Symphony Orchestra / Alessandro Scarlatti - Carlo Re d'Alemagna CD2

Used drive : PIONEER DVD-RW DVR-218L Adapter: 1 ID: 0

Read mode : Secure
Utilize accurate stream : Yes
Defeat audio cache : Yes
Make use of C2 pointers : No

Read offset correction : 6
Overread into Lead-In and Lead-Out : No
Fill up missing offset samples with silence : Yes
Delete leading and trailing silent blocks : No
Null samples used in CRC calculations : Yes
Used interface : Native Win32 interface for Win NT & 2000

Used output format : User Defined Encoder
Selected bitrate : 128 kBit/s
Quality : High
Add ID3 tag : No
Command line compressor : C:\Program Files\Exact Audio Copy\FLAC\FLAC.EXE
Additional command line options : -V -8 -T "Date=%year%" -T "Genre=%genre%" %source%


TOC of the extracted CD

Track | Start | Length | Start sector | End sector
––––––––––––––––––––––––––––-
1 | 0:00.00 | 4:43.04 | 0 | 21228
2 | 4:43.04 | 1:17.16 | 21229 | 27019
3 | 6:00.20 | 2:18.48 | 27020 | 37417
4 | 8:18.68 | 1:32.69 | 37418 | 44386
5 | 9:51.62 | 1:05.57 | 44387 | 49318
6 | 10:57.44 | 4:54.40 | 49319 | 71408
7 | 15:52.09 | 2:43.69 | 71409 | 83702
8 | 18:36.03 | 2:02.49 | 83703 | 92901
9 | 20:38.52 | 3:27.01 | 92902 | 108427
10 | 24:05.53 | 2:30.27 | 108428 | 119704
11 | 26:36.05 | 1:56.64 | 119705 | 128468
12 | 28:32.69 | 2:45.11 | 128469 | 140854
13 | 31:18.05 | 1:17.34 | 140855 | 146663
14 | 32:35.39 | 4:52.01 | 146664 | 168564
15 | 37:27.40 | 0:41.03 | 168565 | 171642
16 | 38:08.43 | 0:33.54 | 171643 | 174171
17 | 38:42.22 | 0:59.30 | 174172 | 178626
18 | 39:41.52 | 1:44.74 | 178627 | 186500
19 | 41:26.51 | 2:24.10 | 186501 | 197310
20 | 43:50.61 | 0:25.50 | 197311 | 199235
21 | 44:16.36 | 0:24.14 | 199236 | 201049
22 | 44:40.50 | 4:00.19 | 201050 | 219068
23 | 48:40.69 | 0:59.12 | 219069 | 223505
24 | 49:40.06 | 1:09.50 | 223506 | 228730
25 | 50:49.56 | 2:30.16 | 228731 | 239996
26 | 53:19.72 | 6:10.55 | 239997 | 267801
27 | 59:30.52 | 2:47.15 | 267802 | 280341


Range status and errors

Selected range

Filename C:\ArlegZ\Alessandro Scarlatti - Carlo Re d'Alemagna CD2.wav

Peak level 96.9 %
Extraction speed 1.9 X
Range quality 100.0 %
Test CRC 564F3D7F
Copy CRC 564F3D7F
Copy OK

No errors occurred


AccurateRip summary

Track 1 accurately ripped (confidence 9) [C28CAEF5] (AR v2)
Track 2 accurately ripped (confidence 9) [B9218B38] (AR v2)
Track 3 accurately ripped (confidence 9) [73A620CE] (AR v2)
Track 4 accurately ripped (confidence 9) [A54EEEA3] (AR v2)
Track 5 accurately ripped (confidence 9) [9FA58A19] (AR v2)
Track 6 accurately ripped (confidence 9) [21B280DB] (AR v2)
Track 7 accurately ripped (confidence 9) [2ED2AE8D] (AR v2)
Track 8 accurately ripped (confidence 9) [367DFEE4] (AR v2)
Track 9 accurately ripped (confidence 9) [5867D7A0] (AR v2)
Track 10 accurately ripped (confidence 9) [65AD4C7C] (AR v2)
Track 11 accurately ripped (confidence 9) [26BEE44D] (AR v2)
Track 12 accurately ripped (confidence 9) [3B3FE583] (AR v2)
Track 13 accurately ripped (confidence 9) [D0718CBC] (AR v2)
Track 14 accurately ripped (confidence 9) [DA27869F] (AR v2)
Track 15 accurately ripped (confidence 9) [6C2367E0] (AR v2)
Track 16 accurately ripped (confidence 9) [5CF2560D] (AR v2)
Track 17 accurately ripped (confidence 9) [B8AA05B2] (AR v2)
Track 18 accurately ripped (confidence 9) [29A35EF8] (AR v2)
Track 19 accurately ripped (confidence 9) [388FD8C4] (AR v2)
Track 20 accurately ripped (confidence 8) [3CFB1B71] (AR v2)
Track 21 accurately ripped (confidence 9) [75567C5E] (AR v2)
Track 22 accurately ripped (confidence 9) [C204A7A8] (AR v2)
Track 23 accurately ripped (confidence 9) [F4CB776F] (AR v2)
Track 24 accurately ripped (confidence 9) [1A1D7238] (AR v2)
Track 25 accurately ripped (confidence 9) [AB6F5EDE] (AR v2)
Track 26 accurately ripped (confidence 9) [661B3E28] (AR v2)
Track 27 accurately ripped (confidence 8) [648B622F] (AR v2)

All tracks accurately ripped

End of status report

==== Log checksum 7F9B25AD72152E2799724DF4B5AEC73CA415A3B53AFBBDE32C86F520DA21F22E ====


Exact Audio Copy V1.3 from 2. September 2016

EAC extraction logfile from 6. February 2018, 19:00

Fabio Biondi - Stavanger Symphony Orchestra / Scarlatti - Carlo Re d'Alemagna CD3

Used drive : HL-DT-STDVDRAM GH24NS95 Adapter: 1 ID: 0

Read mode : Secure
Utilize accurate stream : Yes
Defeat audio cache : Yes
Make use of C2 pointers : No

Read offset correction : 6
Overread into Lead-In and Lead-Out : No
Fill up missing offset samples with silence : Yes
Delete leading and trailing silent blocks : No
Null samples used in CRC calculations : Yes
Used interface : Native Win32 interface for Win NT & 2000

Used output format : User Defined Encoder
Selected bitrate : 128 kBit/s
Quality : High
Add ID3 tag : No
Command line compressor : C:\Program Files\Exact Audio Copy\Flac\flac.exe
Additional command line options : -V -8 -T "Date=%year%" -T "Genre=%genre%" %source%


TOC of the extracted CD

Track | Start | Length | Start sector | End sector
––––––––––––––––––––––––––––-
1 | 0:00.00 | 0:27.20 | 0 | 2044
2 | 0:27.20 | 3:07.28 | 2045 | 16097
3 | 3:34.48 | 1:59.44 | 16098 | 25066
4 | 5:34.17 | 0:27.14 | 25067 | 27105
5 | 6:01.31 | 3:43.59 | 27106 | 43889
6 | 9:45.15 | 0:47.07 | 43890 | 47421
7 | 10:32.22 | 0:49.39 | 47422 | 51135
8 | 11:21.61 | 2:21.15 | 51136 | 61725
9 | 13:43.01 | 1:07.11 | 61726 | 66761
10 | 14:50.12 | 4:19.42 | 66762 | 86228
11 | 19:09.54 | 0:38.68 | 86229 | 89146
12 | 19:48.47 | 2:48.66 | 89147 | 101812
13 | 22:37.38 | 1:44.04 | 101813 | 109616
14 | 24:21.42 | 4:06.54 | 109617 | 128120
15 | 28:28.21 | 0:18.66 | 128121 | 129536
16 | 28:47.12 | 1:22.24 | 129537 | 135710
17 | 30:09.36 | 4:39.34 | 135711 | 156669
18 | 34:48.70 | 0:13.66 | 156670 | 157710
19 | 35:02.61 | 4:14.01 | 157711 | 176761
20 | 39:16.62 | 0:46.73 | 176762 | 180284


Range status and errors

Selected range

Filename C:\Program Files\Exact Audio Copy\Flac\Scarlatti - Carlo Re d'Alemagna CD3.wav

Peak level 96.9 %
Extraction speed 6.6 X
Range quality 100.0 %
Test CRC 1AA45471
Copy CRC 1AA45471
Copy OK

No errors occurred

End of status report

==== Log checksum 673B3731D766A077A5916339B99413BE5004AC4CCACBF78869FBB6BF994A7737 ====

Fabio Biondi, Stavanger Symphony Orchestra - Alessandro Scarlatti: Carlo Re d'Alemagna (2013)