Tags
Language
Tags

Fabio Neri, Orchestra del Conservatorio Claudio Monteverdi di Bolzano - Paisiello: Il Mondo della Luna (1993)

Posted By: ArlegZ
Fabio Neri, Orchestra del Conservatorio Claudio Monteverdi di Bolzano - Paisiello: Il Mondo della Luna (1993)

Fabio Neri, Orchestra del Conservatorio Monteverdi di Bolzano - Paisiello: Il Mondo della Luna (1993)
EAC | FLAC | Tracks (Cue & Log) ~ 346 Mb | Total time: 42:19+41:58 | Scans included
Classical | Label: Bongiovanni | # GB 2173/74-2 | Recorded: 1993

“Il mondo della luna” fu scritto da Paisiello durante il suo soggiorno in Russia, ospite a San Pietroburgo della zarina Caterina II che lo impiegò a corte come maestro di cappella. L’opera, su un testo di Carlo Goldoni, venne rappresentata nel 1783, per l’apertura del nuovo Imperial Teatro di pietra per festeggiare il giorno dell’incoronazione di S.M.I. Caterina II.

Performer:
Buonafede - Enzo Dara
Ecclittico - Daniele Gaspari
Clarice - Gemma Bertagnolli
Flaminia - Carla Di Censo
Cecco - Riccardo Ristori
Ernesto - Mattia Nicolini
Orchestra dei giovani del Conservatorio "Claudio Monteverdi" di Bolzano
Conductor - Fabio Neri

Track List:
CD1:
01. Atto I. Sinfonia
02. Aria: O Luna lucente
03. Recitativo: Oh che gran belle cose
04. Aria: Ho veduto una ragazza
05. Recitativo: Amico vi son schiavo
06. Aria: Pronto sarà il denaro
07. Aria: Se vado alla finestra
08. Recitativo: Eh venite sorella
09. Aria: Mi palpita il core
10. Recitativo: Brava signora figlia
11. Aria: Son fanciulla da marito
12. Recitativo: Se mandarla potessi
13. Finale atto primo: Vado, volo
14. Atto II. Prelude
CD2:
01. Recitativo: Ecco qui Buonafede
02. Recitativo accompagnato: Oh che contento
03. Primo balletto
04. Secondo balletto
05. Recitativo: Oh che ninfe gentili!
06. Coro: Uomo felice cui goder lice
07. Recitativo: Come dovrò contenermi
08. Aria: Della Luna il gran Signore
09. Recitativo: Questo mondo lunare
10. Recitativo accompagnato: Io sono stupefatto
11. Aria: Oh mondo amabile
12. Marcia con coro: Uomo felice
13. Recitativo: Fatevi avanti amico
14. Quintetto: Favorisca la sua mano
15. Recitativo: L'inganno da noi ordito
16. Duetto: Amabile e vezzosa
17. Recitativo: Buonafede, che dite?
18. Aria: Qua la mano
19. Recitativo: Orsù! Tutto è finito
20. Finale: Buonafede, tondo tondo


Exact Audio Copy V1.5 from 20. February 2020

EAC extraction logfile from 6. October 2020, 9:53

Fabio Neri, Orchestra dei giovani del Conservatorio "Claudio Monteverdi" di Bolzano / Paisiello - Il Mondo della Luna CD1

Used drive : PIONEER DVD-RW DVR-218L Adapter: 1 ID: 0

Read mode : Secure
Utilize accurate stream : Yes
Defeat audio cache : Yes
Make use of C2 pointers : No

Read offset correction : 6
Overread into Lead-In and Lead-Out : No
Fill up missing offset samples with silence : Yes
Delete leading and trailing silent blocks : No
Null samples used in CRC calculations : Yes
Used interface : Native Win32 interface for Win NT & 2000
Gap handling : Not detected, thus appended to previous track

Used output format : User Defined Encoder
Selected bitrate : 128 kBit/s
Quality : High
Add ID3 tag : No
Command line compressor : C:\Program Files\Exact Audio Copy\Flac\flac.exe
Additional command line options : -V -8 -T "Date=%year%" -T "Genre=%genre%" %source%


TOC of the extracted CD

Track | Start | Length | Start sector | End sector
––––––––––––––––––––––––––––-
1 | 0:00.33 | 5:39.25 | 33 | 25482
2 | 5:39.58 | 2:40.50 | 25483 | 37532
3 | 8:20.33 | 2:36.70 | 37533 | 49302
4 | 10:57.28 | 0:56.37 | 49303 | 53539
5 | 11:53.65 | 1:06.63 | 53540 | 58552
6 | 13:00.53 | 1:22.47 | 58553 | 64749
7 | 14:23.25 | 2:26.13 | 64750 | 75712
8 | 16:49.38 | 1:28.15 | 75713 | 82327
9 | 18:17.53 | 4:10.37 | 82328 | 101114
10 | 22:28.15 | 0:48.18 | 101115 | 104732
11 | 23:16.33 | 2:37.57 | 104733 | 116564
12 | 25:54.15 | 3:57.18 | 116565 | 134357
13 | 29:51.33 | 7:54.00 | 134358 | 169907
14 | 37:45.33 | 4:34.12 | 169908 | 190469


Track 1

Filename C:\ArlegZ\01 Atto I. Sinfonia.wav

Peak level 60.6 %
Extraction speed 1.1 X
Track quality 100.0 %
Test CRC 8C54610C
Copy CRC 8C54610C
Accurately ripped (confidence 1) [40DB3900] (AR v2)
Copy OK

Track 2

Filename C:\ArlegZ\02 Aria- O Luna lucente (Ecclittico, coro).wav

Peak level 50.4 %
Extraction speed 0.9 X
Track quality 99.9 %
Test CRC 8F9B7ED7
Copy CRC 8F9B7ED7
Accurately ripped (confidence 1) [1CE61FF1] (AR v2)
Copy OK

Track 3

Filename C:\ArlegZ\03 Recitativo- Oh che gran belle cose (Ecclittico).wav

Peak level 72.5 %
Extraction speed 1.2 X
Track quality 100.0 %
Test CRC 6C396B8F
Copy CRC 6C396B8F
Accurately ripped (confidence 1) [AE247564] (AR v2)
Copy OK

Track 4

Filename C:\ArlegZ\04 Aria- Ho veduto una ragazza (Buonafede).wav

Peak level 76.3 %
Extraction speed 0.9 X
Track quality 100.0 %
Test CRC 9D69E487
Copy CRC 9D69E487
Accurately ripped (confidence 1) [576051BD] (AR v2)
Copy OK

Track 5

Filename C:\ArlegZ\05 Recitativo- Amico vi son schiavo (Ernesto).wav

Peak level 100.0 %
Extraction speed 1.0 X
Track quality 100.0 %
Test CRC D0ABCAF5
Copy CRC D0ABCAF5
Accurately ripped (confidence 1) [AB81A04D] (AR v2)
Copy OK

Track 6

Filename C:\ArlegZ\06 Aria- Pronto sara il denaro (Ernesto).wav

Peak level 52.2 %
Extraction speed 0.8 X
Track quality 99.8 %
Test CRC BF1CA919
Copy CRC BF1CA919
Accurately ripped (confidence 1) [382BAF82] (AR v2)
Copy OK

Track 7

Filename C:\ArlegZ\07 Aria- Se vado alla finestra (Clarice).wav

Peak level 54.3 %
Extraction speed 1.3 X
Track quality 100.0 %
Test CRC 484030EB
Copy CRC 484030EB
Accurately ripped (confidence 1) [F8DA3497] (AR v2)
Copy OK

Track 8

Filename C:\ArlegZ\08 Recitativo- Eh venite sorella (Clarice).wav

Peak level 47.1 %
Extraction speed 1.1 X
Track quality 100.0 %
Test CRC 3BA2932D
Copy CRC 3BA2932D
Accurately ripped (confidence 1) [A77AFC7E] (AR v2)
Copy OK

Track 9

Filename C:\ArlegZ\09 Aria- Mi palpita il core (Flaminia).wav

Peak level 46.2 %
Extraction speed 1.5 X
Track quality 100.0 %
Test CRC 493FD22B
Copy CRC 493FD22B
Accurately ripped (confidence 1) [A7A075B1] (AR v2)
Copy OK

Track 10

Filename C:\ArlegZ\10 Recitativo- Brava signora figlia (Buonafede).wav

Peak level 52.1 %
Extraction speed 1.0 X
Track quality 100.0 %
Test CRC DB7EAFE7
Copy CRC DB7EAFE7
Accurately ripped (confidence 1) [5BEE97FA] (AR v2)
Copy OK

Track 11

Filename C:\ArlegZ\11 Aria- Son fanciulla da marito (Clarice).wav

Peak level 53.0 %
Extraction speed 1.5 X
Track quality 100.0 %
Test CRC 0F74C8C3
Copy CRC 0F74C8C3
Accurately ripped (confidence 1) [47F327E7] (AR v2)
Copy OK

Track 12

Filename C:\ArlegZ\12 Recitativo- Se mandarla potessi (Buonafede).wav

Peak level 78.7 %
Extraction speed 1.7 X
Track quality 100.0 %
Test CRC 6D23DFA8
Copy CRC 6D23DFA8
Accurately ripped (confidence 1) [4E8E8863] (AR v2)
Copy OK

Track 13

Filename C:\ArlegZ\13 Finale atto primo- Vado, volo (Tutti).wav

Peak level 58.1 %
Extraction speed 1.9 X
Track quality 100.0 %
Test CRC 960E1F80
Copy CRC 960E1F80
Accurately ripped (confidence 1) [8ED8762E] (AR v2)
Copy OK

Track 14

Filename C:\ArlegZ\14 Atto II. Preludio.wav

Peak level 47.1 %
Extraction speed 1.9 X
Track quality 100.0 %
Test CRC 28AC0A5C
Copy CRC 28AC0A5C
Accurately ripped (confidence 1) [21BDB7A3] (AR v2)
Copy OK


All tracks accurately ripped

No errors occurred

End of status report

–– CUETools DB Plugin V2.1.6

[CTDB TOCID: nhb6HZl7plXL98BsrwJuX4ZqqdY-] found
Submit result: nhb6HZl7plXL98BsrwJuX4ZqqdY- has been confirmed
Track | CTDB Status
1 | (3/3) Accurately ripped
2 | (3/3) Accurately ripped
3 | (3/3) Accurately ripped
4 | (3/3) Accurately ripped
5 | (3/3) Accurately ripped
6 | (3/3) Accurately ripped
7 | (3/3) Accurately ripped
8 | (3/3) Accurately ripped
9 | (3/3) Accurately ripped
10 | (3/3) Accurately ripped
11 | (3/3) Accurately ripped
12 | (3/3) Accurately ripped
13 | (3/3) Accurately ripped
14 | (3/3) Accurately ripped


==== Log checksum 9B1238B450D9C3A677807583B19A26239236BF62ED6E13D698612CE0B28D1135 ====


Exact Audio Copy V1.5 from 20. February 2020

EAC extraction logfile from 6. October 2020, 11:44

Fabio Neri, Orchestra dei giovani del Conservatorio "Claudio Monteverdi" di Bolzano / Paisiello - Il Mondo della Luna CD2

Used drive : PIONEER DVD-RW DVR-218L Adapter: 1 ID: 0

Read mode : Secure
Utilize accurate stream : Yes
Defeat audio cache : Yes
Make use of C2 pointers : No

Read offset correction : 6
Overread into Lead-In and Lead-Out : No
Fill up missing offset samples with silence : Yes
Delete leading and trailing silent blocks : No
Null samples used in CRC calculations : Yes
Used interface : Native Win32 interface for Win NT & 2000
Gap handling : Not detected, thus appended to previous track

Used output format : User Defined Encoder
Selected bitrate : 128 kBit/s
Quality : High
Add ID3 tag : No
Command line compressor : C:\Program Files\Exact Audio Copy\Flac\flac.exe
Additional command line options : -V -8 -T "Date=%year%" -T "Genre=%genre%" %source%


TOC of the extracted CD

Track | Start | Length | Start sector | End sector
––––––––––––––––––––––––––––-
1 | 0:00.32 | 2:00.48 | 32 | 9079
2 | 2:01.05 | 1:41.32 | 9080 | 16686
3 | 3:42.37 | 1:28.63 | 16687 | 23349
4 | 5:11.25 | 1:12.42 | 23350 | 28791
5 | 6:23.67 | 0:31.05 | 28792 | 31121
6 | 6:54.72 | 4:10.35 | 31122 | 49906
7 | 11:05.32 | 0:37.43 | 49907 | 52724
8 | 11:43.00 | 2:56.02 | 52725 | 65926
9 | 14:39.02 | 0:13.38 | 65927 | 66939
10 | 14:52.40 | 2:46.45 | 66940 | 79434
11 | 17:39.10 | 3:01.65 | 79435 | 93074
12 | 20:41.00 | 1:44.35 | 93075 | 100909
13 | 22:25.35 | 2:59.32 | 100910 | 114366
14 | 25:24.67 | 4:48.10 | 114367 | 135976
15 | 30:13.02 | 2:32.00 | 135977 | 147376
16 | 32:45.02 | 2:09.50 | 147377 | 157101
17 | 34:54.52 | 0:33.05 | 157102 | 159581
18 | 35:27.57 | 1:18.60 | 159582 | 165491
19 | 36:46.42 | 0:28.73 | 165492 | 167664
20 | 37:15.40 | 4:42.70 | 167665 | 188884


Track 1

Filename C:\ArlegZ\01 Recitativo- Ecco qui Buonafede (Ecclittico).wav

Peak level 70.5 %
Extraction speed 0.9 X
Track quality 100.0 %
Test CRC C40FB084
Copy CRC C40FB084
Accurately ripped (confidence 1) [B5717A52] (AR v2)
Copy OK

Track 2

Filename C:\ArlegZ\02 Recitativo accompagnato- Oh che contento (Buonafede).wav

Peak level 48.8 %
Extraction speed 0.9 X
Track quality 100.0 %
Test CRC 4FCFF7E7
Copy CRC 4FCFF7E7
Accurately ripped (confidence 1) [44D82631] (AR v2)
Copy OK

Track 3

Filename C:\ArlegZ\03 Primo balletto.wav

Peak level 23.5 %
Extraction speed 0.9 X
Track quality 100.0 %
Test CRC E3F53DF1
Copy CRC E3F53DF1
Accurately ripped (confidence 1) [58397303] (AR v2)
Copy OK

Track 4

Filename C:\ArlegZ\04 Secondo balletto.wav

Peak level 33.3 %
Extraction speed 0.9 X
Track quality 100.0 %
Test CRC B08E185F
Copy CRC B08E185F
Accurately ripped (confidence 1) [474ADC11] (AR v2)
Copy OK

Track 5

Filename C:\ArlegZ\05 Recitativo- Oh che ninfe gentili! (Buonafede).wav

Peak level 55.9 %
Extraction speed 0.6 X
Track quality 100.0 %
Test CRC 739FB34F
Copy CRC 739FB34F
Accurately ripped (confidence 1) [340242E0] (AR v2)
Copy OK

Track 6

Filename C:\ArlegZ\06 Coro- Uomo felice cui goder lice.wav

Peak level 52.4 %
Extraction speed 1.3 X
Track quality 100.0 %
Test CRC AB753119
Copy CRC AB753119
Accurately ripped (confidence 1) [7909419C] (AR v2)
Copy OK

Track 7

Filename C:\ArlegZ\07 Recitativo- Come dovro contenermi (Buonafede).wav

Peak level 65.8 %
Extraction speed 0.7 X
Track quality 100.0 %
Test CRC 93810897
Copy CRC 93810897
Accurately ripped (confidence 1) [805A17AF] (AR v2)
Copy OK

Track 8

Filename C:\ArlegZ\08 Aria- Della Luna il gran Signore (Ecclittico).wav

Peak level 53.9 %
Extraction speed 1.3 X
Track quality 100.0 %
Test CRC E2B1B090
Copy CRC E2B1B090
Accurately ripped (confidence 1) [4644EACA] (AR v2)
Copy OK

Track 9

Filename C:\ArlegZ\09 Recitativo- Questo mondo lunare (Buonafede).wav

Peak level 31.3 %
Extraction speed 0.4 X
Track quality 100.0 %
Test CRC C7C1FECA
Copy CRC C7C1FECA
Accurately ripped (confidence 1) [9C72C7B5] (AR v2)
Copy OK

Track 10

Filename C:\ArlegZ\10 Recitativo accompagnato- Io sono stupefatto (Buonafede).wav

Peak level 47.3 %
Extraction speed 1.3 X
Track quality 100.0 %
Test CRC FCCACB89
Copy CRC FCCACB89
Accurately ripped (confidence 1) [BAA90852] (AR v2)
Copy OK

Track 11

Filename C:\ArlegZ\11 Aria- Oh mondo amabile (Buonafede).wav

Peak level 62.5 %
Extraction speed 1.4 X
Track quality 100.0 %
Test CRC 571C1EBD
Copy CRC 571C1EBD
Accurately ripped (confidence 1) [DF52AEA7] (AR v2)
Copy OK

Track 12

Filename C:\ArlegZ\12 Marcia con coro- Uomo felice.wav

Peak level 44.5 %
Extraction speed 1.3 X
Track quality 100.0 %
Test CRC 5ED6BD0F
Copy CRC 5ED6BD0F
Accurately ripped (confidence 1) [05ABBED0] (AR v2)
Copy OK

Track 13

Filename C:\ArlegZ\13 Recitativo- Fatevi avanti amico (Ecclittico).wav

Peak level 52.7 %
Extraction speed 1.5 X
Track quality 100.0 %
Test CRC 948E32D3
Copy CRC 948E32D3
Accurately ripped (confidence 1) [24DE4337] (AR v2)
Copy OK

Track 14

Filename C:\ArlegZ\14 Quintetto- Favorisca la sua mano (Tutti).wav

Peak level 67.9 %
Extraction speed 1.5 X
Track quality 99.9 %
Test CRC 0429FDE3
Copy CRC 0429FDE3
Accurately ripped (confidence 1) [48F4B784] (AR v2)
Copy OK

Track 15

Filename C:\ArlegZ\15 Recitativo- L'inganno da noi ordito (Cecco).wav

Peak level 64.4 %
Extraction speed 1.6 X
Track quality 100.0 %
Test CRC DBDD4F12
Copy CRC DBDD4F12
Accurately ripped (confidence 1) [88EDD217] (AR v2)
Copy OK

Track 16

Filename C:\ArlegZ\16 Duetto- Amabile e vezzosa (Clarice, Ecclittico).wav

Peak level 57.5 %
Extraction speed 1.6 X
Track quality 100.0 %
Test CRC 700D6D99
Copy CRC 700D6D99
Accurately ripped (confidence 1) [70D3D36F] (AR v2)
Copy OK

Track 17

Filename C:\ArlegZ\17 Recitativo- Buonafede, che dite (Cecco).wav

Peak level 44.3 %
Extraction speed 0.9 X
Track quality 100.0 %
Test CRC F07D3517
Copy CRC F07D3517
Accurately ripped (confidence 1) [92C23DE4] (AR v2)
Copy OK

Track 18

Filename C:\ArlegZ\18 Aria- Qua la mano (Buonafede).wav

Peak level 60.7 %
Extraction speed 1.4 X
Track quality 100.0 %
Test CRC 7495D128
Copy CRC 7495D128
Accurately ripped (confidence 1) [1A48458D] (AR v2)
Copy OK

Track 19

Filename C:\ArlegZ\19 Recitativo- Orsu! Tutto e finito (Cecco).wav

Peak level 43.0 %
Extraction speed 0.9 X
Track quality 100.0 %
Test CRC E1D7FCC7
Copy CRC E1D7FCC7
Accurately ripped (confidence 1) [25214E83] (AR v2)
Copy OK

Track 20

Filename C:\ArlegZ\20 Finale- Buonafede, tondo tondo (Tutti).wav

Peak level 84.9 %
Extraction speed 1.9 X
Track quality 100.0 %
Test CRC 2A4837BF
Copy CRC 2A4837BF
Accurately ripped (confidence 1) [52FC5F72] (AR v2)
Copy OK


All tracks accurately ripped

No errors occurred

End of status report

–– CUETools DB Plugin V2.1.6

[CTDB TOCID: bPXiuTU8uPVH7OYkR9LWmxMdXK8-] found
Submit result: bPXiuTU8uPVH7OYkR9LWmxMdXK8- has been confirmed
Track | CTDB Status
1 | (3/3) Accurately ripped
2 | (3/3) Accurately ripped
3 | (3/3) Accurately ripped
4 | (3/3) Accurately ripped
5 | (3/3) Accurately ripped
6 | (3/3) Accurately ripped
7 | (3/3) Accurately ripped
8 | (3/3) Accurately ripped
9 | (3/3) Accurately ripped
10 | (3/3) Accurately ripped
11 | (3/3) Accurately ripped
12 | (3/3) Accurately ripped
13 | (3/3) Accurately ripped
14 | (3/3) Accurately ripped
15 | (3/3) Accurately ripped
16 | (3/3) Accurately ripped
17 | (3/3) Accurately ripped
18 | (3/3) Accurately ripped
19 | (3/3) Accurately ripped
20 | (3/3) Accurately ripped


==== Log checksum A56B99FE9DF5D35166293D133686D32C00401355B5D08437C79989BE841FB368 ====

Fabio Neri, Orchestra del Conservatorio Claudio Monteverdi di Bolzano - Paisiello: Il Mondo della Luna (1993)