Tags
Language
Tags
November 2022
Su Mo Tu We Th Fr Sa
30 31 1 2 3 4 5
6 7 8 9 10 11 12
13 14 15 16 17 18 19
20 21 22 23 24 25 26
27 28 29 30 1 2 3

Faithful Breath - Back On My Hill (1980) / Live (1986) [Reissue 2007] {2in1}

Posted By: Andi_Deris
Faithful Breath - Back On My Hill (1980) / Live (1986) [Reissue 2007] {2in1}

Faithful Breath - Back On My Hill (1980) / Live (1986) [Reissue 2007] {2in1}
EAC Rip | FLAC: Image+Cue+Log | 496 Mb | MP3 CBR 320 kbps | 185 Mb | Scans | Time: 01:12:34
Not On Label | none
Progressive Rock, Hard Rock, Heavy Metal

This German band released a couple of progressive albums before turning into heavy metal in the 80's. Their debut "Fading Beauty" was a fairly decent attempt at making lush and atmospheric symphonic progressive rock. Faithful Breath's second album was reportedly finished in 1978, but did for several unknown reasons not see the light of day before two years later. "Back On My Hill" showed that they had improved a lot since the debut, and stands probably as their best one. What you get here is a much tighter, more energetic and dynamic band.

Faithful Breath - Back On My Hill (1980) / Live (1986) [Reissue 2007] {2in1}




Back On My Hill

01. Back On My Hill (05:34)
02. Keep Me Away (03:57)
03. This Is My Love Song (02:56)
04. Stick In Your Eyes (04:38)
05. Judgement Day (16:38)

Live

06. Bacchu Ber (Intro) (01:44)
07. Gold 'N' Glory (04:15)
08. Warriors (03:33)
09. Like An Eagle In The Sky (04:05)
10. Princess In Disguise (06:21)
11. A Million Hearts (05:43)
12. Herrmann Feature (01:35)
13. Jailbreaker (03:34)
14. Play The Game (04:00)
15. King Of The Rock (04:02)

–––––-
Back On My Hill

Produced by ''Copec-Music''

• Manfred von Buttlar - keyboards
• Horst Stabenow - bass
• Jürgen Weritz - drums
• Heinz Mikus - guitar, backing vocals
• Jürgen Renfordt - vocals, backing vocals

℗ + © Sky 1980
Recorded at Rhein-Ruhr-Studio, Bochum in 1977-1978.


––––––-
Live

Produced by Heinrich Mikus

• Heinrich Mikus - lead guitar, lead vocals
• Peter Dell - bass, backing vocals, moog taurus bass pedals
• Thilo Herrmann - guitar, backing vocals
• Jürgen Düsterloh - drums, backing vocals, lead vocals on ''Princess In Disquise''

℗ + © Noise 1986
Recorded at different concerts in Belgium, Netherlands & Germany during last tours
Recorded by AVM, Frankfurt & Detlef Mohrmann, Witten
Mixed at Studio Mohrmann, Witten, by Heinrich Mikus & Detlef Mohrmann


Exact Audio Copy V0.99 prebeta 5 from 4. May 2009

EAC extraction logfile from 1. December 2010, 21:52

Faithful Breath / Back On My Hill - Live

Used drive : LITE-ON DVDRW LH-20A1L Adapter: 4 ID: 0

Read mode : Secure
Utilize accurate stream : Yes
Defeat audio cache : Yes
Make use of C2 pointers : No

Read offset correction : 6
Overread into Lead-In and Lead-Out : No
Fill up missing offset samples with silence : Yes
Delete leading and trailing silent blocks : No
Null samples used in CRC calculations : Yes
Used interface : Installed external ASPI interface

Used output format : Internal WAV Routines
Sample format : 44.100 Hz; 16 Bit; Stereo


TOC of the extracted CD

Track | Start | Length | Start sector | End sector
––––––––––––––––––––––––––––-
1 | 0:00.00 | 5:33.69 | 0 | 25043
2 | 5:33.69 | 3:56.66 | 25044 | 42809
3 | 9:30.60 | 2:56.00 | 42810 | 56009
4 | 12:26.60 | 4:37.34 | 56010 | 76818
5 | 17:04.19 | 16:37.34 | 76819 | 151627
6 | 33:41.53 | 1:43.45 | 151628 | 159397
7 | 35:25.23 | 4:15.00 | 159398 | 178522
8 | 39:40.23 | 3:33.10 | 178523 | 194507
9 | 43:13.33 | 4:04.58 | 194508 | 212865
10 | 47:18.16 | 6:21.14 | 212866 | 241454
11 | 53:39.30 | 5:43.28 | 241455 | 267207
12 | 59:22.58 | 1:34.66 | 267208 | 274323
13 | 60:57.49 | 3:33.60 | 274324 | 290358
14 | 64:31.34 | 4:00.25 | 290359 | 308383
15 | 68:31.59 | 4:01.44 | 308384 | 326502


Range status and errors

Selected range

Filename Z:\data\mp3\Seeding\Faithful Breath\1986-Back On My Hill - Live\Back On My Hill - Live.wav

Peak level 75.3 %
Range quality 99.9 %
Test CRC 0B526562
Copy CRC 0B526562
Copy OK

No errors occurred


AccurateRip summary

Track 1 not present in database
Track 2 not present in database
Track 3 not present in database
Track 4 not present in database
Track 5 not present in database
Track 6 not present in database
Track 7 not present in database
Track 8 not present in database
Track 9 not present in database
Track 10 not present in database
Track 11 not present in database
Track 12 not present in database
Track 13 not present in database
Track 14 not present in database
Track 15 not present in database

None of the tracks are present in the AccurateRip database

End of status report


Many thanks to the original uploader: hexonut