Tags
Language
Tags
November 2022
Su Mo Tu We Th Fr Sa
30 31 1 2 3 4 5
6 7 8 9 10 11 12
13 14 15 16 17 18 19
20 21 22 23 24 25 26
27 28 29 30 1 2 3

Faithful Breath - Double Thing: Gold 'n' Glory (1984) / Skol (1985) [Reissue 1989] {2in1}

Posted By: Andi_Deris
Faithful Breath - Double Thing: Gold 'n' Glory (1984) / Skol (1985) [Reissue 1989] {2in1}

Faithful Breath - Double Thing: Gold 'n' Glory (1984) / Skol (1985) [Reissue 1989] {2in1}
EAC Rip | FLAC: Image+Cue+Log | 481 Mb | MP3 CBR 320 kbps | 186 Mb | Scans | Time: 01:05:17
Steamhammer | SPV 85-7591
Hard Rock, Heavy Metal

Faithful Breath! This German band had been around for quite some time prior to Gold ‘n’ Glory (they released their first album in 1974). By the time 1984 rolled around Faithful Breath had four LPs under their belt. Gold ‘N’ Glory was their fifth release. The album was released on the German label, Mausoleum Records. Gold ‘n’ Glory was produced by Udo Dirkschneider (the lead singer of Accept) and Michael Wagener (renown engineer of Accept’s Balls To The Wall). In 1989, the German label Steamhammer Records released Double Thing, a single CD containing Gold ‘N’ Glory along with Faithful Breath’s 1985 album Skol.

Faithful Breath - Double Thing: Gold 'n' Glory (1984) / Skol (1985) [Reissue 1989] {2in1}




Gold 'n' Glory

01. Don't Feel Hate (3:46)
02. King Of The Rock (3:22)
03. Jailbreaker (3:27)
04. A Million Hearts (4:55)
05. Gold 'n' Glory (4:18)
06. Play The Game (3:40)
07. Princess In Disguise (4:14)
08. Don't Drive Me Mad (2:37)

Skol

09. Start It Up (4:03)
10. Double Dealer (3:35)
11. Lady M. (2:30)
12. Rock Rebels (3:48)
13. We Want You (5:01)
14. Inside Out (3:37)
15. Crazy In Metal (4:06)
16. Backstreet Heroes (3:36)
17. Skol (4:42)

–––––––
Gold 'n' Glory

Produced by Udo Dirkschneider & Michael Wagener

• Heinz Mikus (Risk) - guitar, vocals
• Jürgen Düsterloh (Risk) - drums
• Pete Stabenow (Magic Power, Syntra) - bass
• Andy Hönig (A.B. Spitfire, Bullet) - guitar

Recorded and mixed at Mascot Studios, Cologne, West Germany, in January and February 1984.

––-
Skol

Produced by Gerd Rautenbach

• Heinz Mikus (Risk) - guitar, vocals
• Jürgen Düsterloh (Risk) - drums, backing vocals
• Peter Dell (Risk) - bass, backing vocals
• Thilo Hermann (Glenmore, Grave Digger, Höllenhunde, Holy Moses, Risk, Running Wild) - guitar, backing vocals

Recorded and mixed in Dierks Studios, Stommeln in July-August 1985.

Exact Audio Copy V1.0 beta 3 from 29. August 2011

EAC extraction logfile from 12. January 2013, 15:09

Faithful Breath / Double Thing

Used drive : PLEXTOR DVDR PX-760A Adapter: 1 ID: 1

Read mode : Secure
Utilize accurate stream : Yes
Defeat audio cache : Yes
Make use of C2 pointers : No

Read offset correction : 30
Overread into Lead-In and Lead-Out : Yes
Fill up missing offset samples with silence : Yes
Delete leading and trailing silent blocks : No
Null samples used in CRC calculations : Yes
Used interface : Installed external ASPI interface

Used output format : Internal WAV Routines
Sample format : 44.100 Hz; 16 Bit; Stereo


TOC of the extracted CD

Track | Start | Length | Start sector | End sector
––––––––––––––––––––––––––––-
1 | 0:00.00 | 3:46.40 | 0 | 16989
2 | 3:46.40 | 3:22.15 | 16990 | 32154
3 | 7:08.55 | 3:27.38 | 32155 | 47717
4 | 10:36.18 | 4:55.40 | 47718 | 69882
5 | 15:31.58 | 4:18.27 | 69883 | 89259
6 | 19:50.10 | 3:40.30 | 89260 | 105789
7 | 23:30.40 | 4:14.28 | 105790 | 124867
8 | 27:44.68 | 2:37.22 | 124868 | 136664
9 | 30:22.15 | 4:03.10 | 136665 | 154899
10 | 34:25.25 | 3:35.08 | 154900 | 171032
11 | 38:00.33 | 2:30.52 | 171033 | 182334
12 | 40:31.10 | 3:48.23 | 182335 | 199457
13 | 44:19.33 | 5:01.57 | 199458 | 222089
14 | 49:21.15 | 3:37.25 | 222090 | 238389
15 | 52:58.40 | 4:06.40 | 238390 | 256879
16 | 57:05.05 | 3:36.00 | 256880 | 273079
17 | 60:41.05 | 4:42.65 | 273080 | 294294


Range status and errors

Selected range

Filename P:\Seeding Archive\Faithful Breath\1989-Double Thing\Double Thing.wav

Peak level 95.8 %
Extraction speed 2.5 X
Range quality 99.9 %
Test CRC 88AD5929
Copy CRC 88AD5929
Copy OK

No errors occurred


AccurateRip summary

Track 1 accurately ripped (confidence 1) [8327170E] (AR v1)
Track 2 accurately ripped (confidence 1) [3F2B92D6] (AR v1)
Track 3 accurately ripped (confidence 1) [6631E102] (AR v1)
Track 4 accurately ripped (confidence 1) [DB1D2C62] (AR v1)
Track 5 accurately ripped (confidence 1) [912C350A] (AR v1)
Track 6 accurately ripped (confidence 1) [CA8DB8EC] (AR v1)
Track 7 accurately ripped (confidence 1) [074A12EC] (AR v1)
Track 8 accurately ripped (confidence 1) [2D18947E] (AR v1)
Track 9 accurately ripped (confidence 1) [D69B03CF] (AR v1)
Track 10 accurately ripped (confidence 1) [2868A57A] (AR v1)
Track 11 accurately ripped (confidence 1) [0C8058A3] (AR v1)
Track 12 accurately ripped (confidence 1) [51D3CC74] (AR v1)
Track 13 accurately ripped (confidence 1) [61C640CA] (AR v1)
Track 14 accurately ripped (confidence 1) [0B395C98] (AR v1)
Track 15 accurately ripped (confidence 1) [CDB59304] (AR v1)
Track 16 accurately ripped (confidence 1) [4590B640] (AR v1)
Track 17 accurately ripped (confidence 1) [D4EFD6B8] (AR v1)

All tracks accurately ripped

End of status report

==== Log checksum E2DD14F4309D6F46DBA251B983EC7E1A7CD577B7110D7C19B6C794C485277265 ====


Many thanks to the original uploader: hexonut