Tags
Language
Tags

Falling Edge - Discography [3 Studio Albums] (2013-2018)

Posted By: gribovar
Falling Edge - Discography [3 Studio Albums] (2013-2018)

Falling Edge - Discography [3 Studio Albums] (2013-2018)
EAC Rip | FLAC (image+.cue+log) - 1,3 GB | MP3 CBR 320 kbps (LAME 3.93) - 425 MB | Covers - 93 MB
Genre: Progressive Rock, Neo-Prog | RAR 3% Rec. | Label: Self-released

Falling Edge (2013). An excellent debut record by this symphonic prog rock quartet out of Chatham-Kent, Ontario, Canada known as Falling Edge. Guitarist and vocalist Chris Rupert had put out a few solo records of acoustic and classical instrumental guitar pieces in the `80s and `90s. This is his foray into the progressive rock genre and the results are very impressive. Primarily symphonic in the writing department, one can also detect some space rock a la Eloy.

Convergence At Fossil Falls (2015). Convergence At Fossil Falls is the second studio release by Canadian progressive rock band Falling Edge. It was during the recording of the opening track Minstrel in the Corner that the band started to fall apart (literally), with band members announcing their departure almost monthly; within a few months guitarist and chief songwriter Chris Rupert was left with no alternative but to finish the album himself. In typical Falling Edge fashion, the music ranges freely from deceptively simple to virtuosic, as the lyrics explore the complexity and struggles of human relationships with oneself, as in Minstrel in the Corner and The Lost Journal, to the heart wrenching sacrifice of Convergence at Fossil Falls, to the disturbing discoveries of The Sniper, the Piper, and Me.

FE3 (2018). FE3 is the third studio release by Canadian progressive rock band Falling Edge. Three years in the making, the band faced unprecedented setbacks in the creation of this 8 song full length album. Opening and closing tracks "Where Should We Go From Here" and "Where Should We Go From Here (reprise)" frame the remaining songs like bookends opening and closing doors to this exploration of the human journey. Falling Edge listeners will by now be familiar with the band's penchant for longer songs that allow the music to be fully developed in a way that the average length rock or pop song cannot hope to attain, and this album is no exception, featuring 4 songs exceeding 10 minutes in length. Although not strictly by design, the album also features acoustic and classical guitars and an instrumental piece, as did the previous 2 releases. Says the band's composer, guitarist, and vocalist Chris Rupert, "Although I love all of our music, I feel that this is the band's finest work to date. I hope it moves listeners in the way it moved me."

Falling Edge - Discography [3 Studio Albums] (2013-2018)

Falling Edge - Falling Edge (2013)
EAC Rip | FLAC (image+.cue+log) - 389 MB | MP3 CBR 320 kbps (LAME 3.93) - 138 MB | Covers - 30 MB
Genre: Progressive Rock, Neo-Prog | RAR 3% Rec. | Label: Self-released (FE99720)

Tracklist:
01. Social Engineering
02. Crippled by Fear
03. Not That Far Away
04. Next Time Around
05. I, Awake

Total time: 58:57

Exact Audio Copy V1.5 from 20. February 2020

EAC extraction logfile from 19. September 2020, 23:42

Falling Edge / Falling Edge

Used drive : ASUS DRW-24B1LT Adapter: 1 ID: 2

Read mode : Secure
Utilize accurate stream : Yes
Defeat audio cache : Yes
Make use of C2 pointers : No

Read offset correction : 6
Overread into Lead-In and Lead-Out : No
Fill up missing offset samples with silence : Yes
Delete leading and trailing silent blocks : No
Null samples used in CRC calculations : Yes
Used interface : Native Win32 interface for Win NT & 2000

Used output format : User Defined Encoder
Selected bitrate : 1024 kBit/s
Quality : High
Add ID3 tag : No
Command line compressor : C:\Program Files (x86)\FLAC_1.3.3\win64\flac.exe
Additional command line options : -6 -V -T "ARTIST=%artist%" -T "TITLE=%title%" -T "ALBUM=%albumtitle%" -T "DATE=%year%" -T "TRACKNUMBER=%tracknr%" -T "GENRE=%genre%" -T "COMMENT=ripped by wurensh for rutracker.org" %source% -o %dest%


TOC of the extracted CD

Track | Start | Length | Start sector | End sector
––––––––––––––––––––––––––––-
1 | 0:00.00 | 16:30.50 | 0 | 74299
2 | 16:30.50 | 14:34.34 | 74300 | 139883
3 | 31:05.09 | 5:41.72 | 139884 | 165530
4 | 36:47.06 | 7:48.71 | 165531 | 200701
5 | 44:36.02 | 14:20.54 | 200702 | 265255


Range status and errors

Selected range

Filename Y:\EAC\wurensh\Falling Edge\Falling Edge - Falling Edge.wav

Peak level 100.0 %
Extraction speed 3.1 X
Range quality 100.0 %
Test CRC FBB5087E
Copy CRC FBB5087E
Copy OK

No errors occurred


AccurateRip summary

Track 1 accurately ripped (confidence 1) [9C8DBADC] (AR v2)
Track 2 accurately ripped (confidence 1) [044243E2] (AR v2)
Track 3 accurately ripped (confidence 1) [EBA05DD8] (AR v2)
Track 4 accurately ripped (confidence 1) [9162AF64] (AR v2)
Track 5 accurately ripped (confidence 1) [D2225A46] (AR v2)

All tracks accurately ripped

End of status report

==== Log checksum F87FDB4C8611738FFEA16A1FD9F759EA8FD806414692E2934C6F81E8C5C0495F ====

[CUETools log; Date: 27.09.2020 16:15:25; Version: 2.1.4]
[CTDB TOCID: EhZ6CK8BMFn8ENfkOkANkPV_1kA-] found.
Track | CTDB Status
1 | (1/1) Accurately ripped
2 | (1/1) Accurately ripped
3 | (1/1) Accurately ripped
4 | (1/1) Accurately ripped
5 | (1/1) Accurately ripped
[AccurateRip ID: 000ce769-003a5f0f-500dd005] found.
Track [ CRC | V2 ] Status
01 [6620cc85|9c8dbadc] (0+1/1) Accurately ripped
02 [edfb4f56|044243e2] (0+1/1) Accurately ripped
03 [81924e55|eba05dd8] (0+1/1) Accurately ripped
04 [fef52842|9162af64] (0+1/1) Accurately ripped
05 [9c7f321b|d2225a46] (0+1/1) Accurately ripped

Track Peak [ CRC32 ] [W/O NULL] [ LOG ]
– 100,0 [FBB5087E] [DC6F4D25] CRC32
01 98,2 [049071ED] [0FCFA3A7]
02 98,3 [A3945E5C] [7DE681EA]
03 99,8 [1BD527B4] [B6BA8332]
04 98,8 [C40A7BC5] [08FB184B]
05 100,0 [92CB8BD1] [4EA9A80D]

Falling Edge - Discography [3 Studio Albums] (2013-2018)

Falling Edge - Convergence At Fossil Falls (2015)
EAC Rip | FLAC (image+.cue+log) - 458 MB | MP3 CBR 320 kbps (LAME 3.93) - 146 MB | Covers - 33 MB
Genre: Progressive Rock, Neo-Prog | RAR 3% Rec. | Label: Self-released (FE99721)

Tracklist:
01. Minstrel in the Corner
02. The Lost Journal
03. Sex for Sale
04. Time Window
05. Convergence at Fossil Falls
06. Dark Matter
07. The Sniper, the Piper, and Me

Total time: 01:02:06

Exact Audio Copy V1.5 from 20. February 2020

EAC extraction logfile from 19. September 2020, 22:55

Falling Edge / Convergence At Fossil Falls

Used drive : ASUS DRW-24B1LT Adapter: 1 ID: 2

Read mode : Secure
Utilize accurate stream : Yes
Defeat audio cache : Yes
Make use of C2 pointers : No

Read offset correction : 6
Overread into Lead-In and Lead-Out : No
Fill up missing offset samples with silence : Yes
Delete leading and trailing silent blocks : No
Null samples used in CRC calculations : Yes
Used interface : Native Win32 interface for Win NT & 2000

Used output format : User Defined Encoder
Selected bitrate : 1024 kBit/s
Quality : High
Add ID3 tag : No
Command line compressor : C:\Program Files (x86)\FLAC_1.3.3\win64\flac.exe
Additional command line options : -6 -V -T "ARTIST=%artist%" -T "TITLE=%title%" -T "ALBUM=%albumtitle%" -T "DATE=%year%" -T "TRACKNUMBER=%tracknr%" -T "GENRE=%genre%" -T "COMMENT=ripped by wurensh for rutracker.org" %source% -o %dest%


TOC of the extracted CD

Track | Start | Length | Start sector | End sector
––––––––––––––––––––––––––––-
1 | 0:00.00 | 15:44.08 | 0 | 70807
2 | 15:44.08 | 7:14.38 | 70808 | 103395
3 | 22:58.46 | 7:23.62 | 103396 | 136682
4 | 30:22.33 | 1:01.23 | 136683 | 141280
5 | 31:23.56 | 9:06.73 | 141281 | 182303
6 | 40:30.54 | 8:14.62 | 182304 | 219415
7 | 48:45.41 | 13:20.25 | 219416 | 279440


Range status and errors

Selected range

Filename Y:\EAC\wurensh\Falling Edge\Falling Edge - Convergence At Fossil Falls.wav

Peak level 96.6 %
Extraction speed 3.1 X
Range quality 100.0 %
Test CRC AD6EC983
Copy CRC AD6EC983
Copy OK

No errors occurred


AccurateRip summary

Track 1 accurately ripped (confidence 1) [E1AE0DE9] (AR v2)
Track 2 accurately ripped (confidence 1) [C92BCFFA] (AR v2)
Track 3 accurately ripped (confidence 1) [2101CCFA] (AR v2)
Track 4 accurately ripped (confidence 1) [C9666259] (AR v2)
Track 5 accurately ripped (confidence 1) [F19B7446] (AR v2)
Track 6 accurately ripped (confidence 1) [49FD1513] (AR v2)
Track 7 accurately ripped (confidence 1) [CDDF9D7D] (AR v2)

All tracks accurately ripped

End of status report

==== Log checksum 28A7B33BAD9323E10D77C274EF8429730C3AB817417A59DCD584A1AB3E1DFB8B ====

[CUETools log; Date: 27.09.2020 16:16:09; Version: 2.1.4]
[CTDB TOCID: x5.t8FLJxpx1J0piux_7l3v9cqQ-] found.
Track | CTDB Status
1 | (2/2) Accurately ripped
2 | (2/2) Accurately ripped
3 | (2/2) Accurately ripped
4 | (2/2) Accurately ripped
5 | (2/2) Accurately ripped
6 | (2/2) Accurately ripped
7 | (2/2) Accurately ripped
[AccurateRip ID: 00114b11-006440de-650e8d07] found.
Track [ CRC | V2 ] Status
01 [d4c5caf2|e1ae0de9] (0+1/2) Accurately ripped
02 [b4ba93e6|c92bcffa] (0+1/2) Accurately ripped
03 [f3d1a6c7|2101ccfa] (0+1/2) Accurately ripped
04 [9d93f7ce|c9666259] (0+1/2) Accurately ripped
05 [128d1f28|f19b7446] (0+1/2) Accurately ripped
06 [9bded780|49fd1513] (0+1/2) Accurately ripped
07 [d9f8f118|cddf9d7d] (0+1/2) Accurately ripped

Track Peak [ CRC32 ] [W/O NULL] [ LOG ]
– 96,6 [AD6EC983] [DC39AEDC] CRC32
01 96,6 [EC3E130A] [0B087E88]
02 96,6 [A674D1F8] [15DCB904]
03 96,6 [A867C580] [72298183]
04 85,5 [AC473DB7] [98E06456]
05 96,6 [82C8DD94] [B7C4A2B7]
06 96,6 [030FE56A] [62EB44A3]
07 96,6 [292C810C] [650DFCF1]

Falling Edge - Discography [3 Studio Albums] (2013-2018)

Falling Edge - FE3 (2018)
EAC Rip | FLAC (image+.cue+log) - 457 MB | MP3 CBR 320 kbps (LAME 3.93) - 141 MB | Covers - 30 MB
Genre: Progressive Rock, Neo-Prog | RAR 3% Rec. | Label: Self-released (FE99722)

Tracklist:
01. Where Should We Go From Here?
02. Experience/Innocence
03. Seventeen
04. I Will Not Comply
05. Gone
06. What Will You Do When You Find Me?
07. Moments Of Truth
08. Where Should We Go From Here? (Reprise)

Total time: 01:00:12

Exact Audio Copy V1.5 from 20. February 2020

EAC extraction logfile from 19. September 2020, 21:39

Falling Edge / Fe3

Used drive : ASUS DRW-24B1LT Adapter: 1 ID: 2

Read mode : Secure
Utilize accurate stream : Yes
Defeat audio cache : Yes
Make use of C2 pointers : No

Read offset correction : 6
Overread into Lead-In and Lead-Out : No
Fill up missing offset samples with silence : Yes
Delete leading and trailing silent blocks : No
Null samples used in CRC calculations : Yes
Used interface : Native Win32 interface for Win NT & 2000

Used output format : User Defined Encoder
Selected bitrate : 1024 kBit/s
Quality : High
Add ID3 tag : No
Command line compressor : C:\Program Files (x86)\FLAC_1.3.3\win64\flac.exe
Additional command line options : -6 -V -T "ARTIST=%artist%" -T "TITLE=%title%" -T "ALBUM=%albumtitle%" -T "DATE=%year%" -T "TRACKNUMBER=%tracknr%" -T "GENRE=%genre%" -T "COMMENT=ripped by wurensh for rutracker.org" %source% -o %dest%


TOC of the extracted CD

Track | Start | Length | Start sector | End sector
––––––––––––––––––––––––––––-
1 | 0:00.00 | 1:40.11 | 0 | 7510
2 | 1:40.11 | 8:44.01 | 7511 | 46811
3 | 10:24.12 | 5:32.28 | 46812 | 71739
4 | 15:56.40 | 10:48.70 | 71740 | 120409
5 | 26:45.35 | 11:22.10 | 120410 | 171569
6 | 38:07.45 | 10:08.30 | 171570 | 217199
7 | 48:16.00 | 10:29.65 | 217200 | 264439
8 | 58:45.65 | 1:25.55 | 264440 | 270869


Range status and errors

Selected range

Filename Y:\EAC\wurensh\Falling Edge\Falling Edge - Fe3.wav

Peak level 97.1 %
Extraction speed 3.3 X
Range quality 100.0 %
Test CRC 57356E85
Copy CRC 57356E85
Copy OK

No errors occurred


AccurateRip summary

Track 1 not present in database
Track 2 not present in database
Track 3 not present in database
Track 4 not present in database
Track 5 not present in database
Track 6 not present in database
Track 7 not present in database
Track 8 not present in database

None of the tracks are present in the AccurateRip database

End of status report

==== Log checksum FFB3ED7E02A2DFB82FB160B9CA6458FCEC98C53E5027349291E3AFA200640D70 ====

[CUETools log; Date: 27.09.2020 16:16:46; Version: 2.1.4]
[CTDB TOCID: 9cvpkGTg5scMMe3RJI8FLmOBGyk-] disk not present in database.
[AccurateRip ID: 0011dc79-007c52b7-780e1b08] disk not present in database.

Track Peak [ CRC32 ] [W/O NULL] [ LOG ]
– 97,1 [57356E85] [F9AF211D] CRC32
01 97,1 [9A09B387] [55044D63]
02 97,1 [7E4631CB] [E0B7A8AF]
03 97,1 [A691C440] [2D1145C9]
04 97,1 [D8A62078] [E4630A78]
05 97,1 [98ED71BF] [CE833FEB]
06 97,1 [06E1E86B] [B3E40F07]
07 97,1 [BD0C4412] [F42F082A]
08 97,1 [419162F1] [DB74810B]

Thanks to wurensh